#VERSION:0.83;
#TITLE:チックタック@ラビリンス;
#SUBTITLE:;
#ARTIST:Tanchiky;
#TITLETRANSLIT:Tic tac @labyrinth;
#SUBTITLETRANSLIT:;
#ARTISTTRANSLIT:;
#GENRE:;
#CREDIT:chronon @arrowvortex;
#MUSIC:Tic tac @labyrinth.ogg;
#BANNER:Tic tac @labyrinth.png;
#BACKGROUND:Tic tac @labyrinth-bg.png;
#CDTITLE:;
#SAMPLESTART:62.317;
#SAMPLELENGTH:20.757;
#SELECTABLE:YES;
#OFFSET:-0.047;
#BPMS:0.000=185.000;
#STOPS:;
#BGCHANGES:;
#FGCHANGES:;

//--------------- dance-single - chronon @arrowvortex ----------------
#NOTEDATA:;
#STEPSTYPE:dance-single;
#DESCRIPTION:chronon @arrowvortex;
#DIFFICULTY:Beginner;
#METER:4;
#RADARVALUES:0,0,0,0,0;
#NOTES:
0000
0000
0000
0000
,
0000
0000
0000
0000
,
0000
0000
0000
0000
,
0000
0000
0000
0000
,
0000
0000
0000
0000
,
1000
0000
0010
0000
,
0100
0100
0100
0000
,
0001
0000
0010
0000
,
0100
0100
0100
0000
,
1000
0000
0000
0000
,
0100
0000
0000
0000
,
0010
0000
0010
0000
,
0010
0000
0000
0000
,
0001
1000
0001
0000
,
1000
0001
1000
0000
,
0010
0000
0010
0000
,
0010
0010
0010
0000
,
1000
0000
0010
0000
,
0100
0000
0001
0000
,
1000
0000
0100
0000
,
0010
0000
0100
0000
,
1000
0000
0100
0000
,
0010
0000
0001
0000
,
1000
0000
1000
0000
,
1000
1000
1000
0000
,
0001
0001
0001
0000
,
0001
0001
0001
0000
,
0100
0000
0100
0000
,
0001
0001
0001
0000
,
0001
0000
0010
0000
,
0010
0000
0100
0000
,
0000
0000
1000
1000
,
1000
0000
1000
1000
,
1000
0000
0100
0000
,
0100
0000
0100
0000
,
1000
0000
0100
0000
,
0010
0000
0001
0000
,
1000
0000
0001
0000
,
1000
0000
1000
0000
,
1000
0000
1000
0000
,
0000
0000
0000
0000
,
0000
0000
0000
0000
,
0000
0000
0000
0000
,
0000
0000
0000
0000
,
1001
0000
0000
0000
,
1001
0000
0000
0000
,
1000
0000
0001
0000
,
1000
0001
1000
0000
,
0100
0100
0100
0000
,
0100
0100
0100
0000
,
1000
0000
0001
0000
,
1000
0000
0010
0000
,
0100
0100
0100
0000
,
0100
0100
0100
0000
,
0001
0000
1000
0000
,
0100
0000
0010
0000
,
0001
0000
0001
0000
,
0010
0000
0010
0000
,
1000
0000
1000
0000
,
0100
0000
0100
0000
,
0001
0000
0001
0000
,
0100
0000
0100
0000
,
1000
0000
1000
0000
,
0010
0000
0010
0000
,
0001
0001
0001
0001
,
0000
0000
0000
0000
,
1000
1000
1000
1000
,
0000
0000
0000
0000
,
0001
0001
0001
0001
,
0000
0000
0000
0000
,
1000
1000
1000
1000
,
0001
1000
0001
0000
,
1000
0000
0000
0000
,
0010
0000
0000
0000
,
0100
0000
0100
0000
,
0100
0000
0000
0000
,
0001
1000
0001
0000
,
1000
0001
1000
0000
,
0100
0000
0100
0000
,
0000
0000
1001
0000
,
0001
0000
0001
0000
,
0100
0001
0100
0000
,
0001
0000
0001
0000
,
0010
0000
0100
0000
,
1000
0000
1000
0000
,
0100
1000
0100
0000
,
1000
0000
0010
0000
,
1000
0000
1000
0000
,
1000
0000
1000
0000
;

//--------------- dance-single - chronon @arrowvortex ----------------
#NOTEDATA:;
#STEPSTYPE:dance-single;
#DESCRIPTION:chronon @arrowvortex;
#DIFFICULTY:Easy;
#METER:8;
#RADARVALUES:0,0,0,0,0;
#NOTES:
0000
0000
0000
0000
,
0000
0000
0000
0000
,
0000
0000
0000
0000
,
0000
0000
0000
0000
,
0000
0000
0000
0000
,
0001
0010
0100
0100
,
1000
0010
0100
0001
,
1000
0010
0100
0100
,
0001
1000
0001
0000
,
1000
0100
0000
0010
0000
0100
0000
1000
,
0000
0010
0000
0100
0000
0010
0000
1000
,
0001
0200
0310
0200
,
0310
1000
0001
0000
,
0001
0010
0100
0001
,
0100
1000
0010
0100
,
0001
0010
0001
0010
,
0001
1000
0001
0000
,
1000
0000
0000
0010
0100
0000
0000
0000
,
0001
0010
0100
0000
,
1000
0000
0100
0010
0100
0000
1000
0001
,
1000
0001
1000
0001
,
1000
0000
0010
1000
0010
0000
0100
0000
,
0001
0010
0100
1000
,
0100
1000
0100
0000
0010
0001
0010
0000
,
0001
1000
0001
0000
1000
0000
0000
0000
,
1000
1000
1000
1000
,
1000
1000
1000
0010
,
0100
0100
0100
0100
,
0001
0001
0001
0001
,
0001
0010
0100
0100
,
0100
0100
0010
0001
,
1000
0000
0001
0001
,
0001
0001
0001
0001
,
0001
0010
0100
0100
,
0100
0100
0100
1000
,
0001
0000
1000
0000
,
0001
0000
1000
0010
,
0100
0001
0010
0100
,
1000
0000
0000
0000
0000
0000
0000
0000
0002
0003
0000
0000
0000
0000
0000
0000
1000
0000
0000
0000
0000
0000
0000
0000
0002
0000
0003
0000
0000
0000
0000
0000
,
1000
0000
0002
0003
1000
0000
0000
0000
,
0000
0000
0000
0000
,
0000
0000
0000
0000
,
0000
0000
0000
0000
,
0000
0000
0000
0000
,
0001
0000
0100
0000
,
0010
0000
1000
0000
,
0001
0000
0001
0000
,
0001
1000
0001
0000
,
1000
0100
1000
0000
1000
0100
1000
0000
,
0001
0010
0100
1000
,
0010
0000
0100
0000
,
0001
1000
0001
0100
,
0001
0100
0001
0000
0001
0100
0001
0000
,
0001
0100
0010
1000
,
0100
0010
0001
1000
,
0001
1000
0001
1000
0001
0000
0000
0000
,
1000
0010
0100
0100
,
0001
0010
0100
0100
,
1000
0010
0100
0100
,
0001
0100
0010
1000
,
0001
0010
0100
0100
,
1000
0010
0100
0100
,
0001
1000
0100
0010
,
0001
1000
0001
0000
1000
0000
0000
0000
,
1001
1001
1001
1001
,
1000
0100
0010
0000
,
1001
1001
1001
1001
,
0001
0100
0010
0000
,
1001
1001
1001
1001
,
1000
0100
0010
0000
,
1001
1001
1001
1001
,
0001
1000
0001
0000
1000
0000
0000
0000
,
0001
0100
0000
0010
0000
0100
0000
0001
,
0000
0010
0000
0100
0000
0010
0000
0001
,
1000
0200
0310
0200
,
0310
0001
1000
0000
,
1000
0010
0100
1000
,
0100
0001
0010
0100
,
1000
0010
1000
0010
,
1000
0000
0001
0000
,
1000
0100
0010
0100
,
1000
0100
0010
0001
,
0001
0100
0010
0100
,
0001
0100
0010
1000
,
1000
0010
0100
0010
,
1000
0010
0100
0001
,
1000
0100
0010
0001
,
1000
0000
0000
0000
0002
0003
0000
0000
1000
0000
0000
0000
0002
0003
0000
0000
,
1000
0000
0000
0000
0002
0003
0000
0000
1000
0000
0000
0000
0110
0000
0000
0000
;

//--------------- dance-single - chronon @arrowvortex ----------------
#NOTEDATA:;
#STEPSTYPE:dance-single;
#DESCRIPTION:chronon @arrowvortex;
#DIFFICULTY:Medium;
#METER:13;
#RADARVALUES:0,0,0,0,0;
#NOTES:
0000
0000
0000
0000
,
0000
0000
0000
0000
,
0000
0000
0000
0000
,
0000
0000
0000
0000
,
0000
0000
0000
0000
,
1000
0010
0100
0010
1000
0000
1000
0000
,
0001
0010
0100
0010
0001
1000
0001
0000
,
1000
0100
0010
0100
1000
0000
1000
0000
,
0001
1000
0001
1001
,
1000
0010
0000
0100
0000
0001
0000
1000
,
0000
0100
0000
0010
0000
0001
0000
1000
,
0002
0100
2003
0100
,
3001
1000
0001
1000
0001
0000
1001
0000
,
1000
0100
0010
0100
1000
0100
0001
0100
,
1000
0010
0100
0010
1000
0010
0100
0001
,
1000
0010
0100
0000
0001
0010
0100
0000
,
1000
0100
0010
0001
1000
0000
1001
0000
,
0002
0000
0103
0010
2000
0000
3100
0000
,
1100
0110
0011
0010
,
0002
0000
0013
0100
2000
0000
3010
0100
,
0001
1000
0001
1000
0100
0010
0001
0000
,
2000
0000
3100
0010
0002
0000
0103
0000
,
0101
0110
1010
0010
,
1000
1000
0001
0000
0100
0100
0001
0000
,
0100
0001
0010
0001
1000
0000
1001
0000
,
1000
0100
1000
0100
1000
0100
1000
0100
,
1000
0100
1000
0100
1000
0100
0010
0001
,
1000
0110
0001
0110
,
0001
0100
0001
0100
0001
0100
0001
0100
,
0001
0100
0010
1000
0001
0000
0110
0000
,
1000
0000
0110
0000
0001
0010
0100
1000
,
0001
0000
1001
0000
1000
0010
1000
0010
,
1000
0010
1000
0010
1000
0010
1000
0010
,
1000
0010
0100
0001
1000
0100
0100
0000
,
0010
0001
0001
0000
1000
0000
1001
0000
,
0001
0100
0010
0000
1000
0100
0010
0000
,
0001
0010
0100
0000
1000
0001
1000
0000
,
0001
1000
0001
0100
0001
0010
0001
0000
,
0011
0000
0000
0000
0000
0000
0000
0000
2000
3000
0000
0000
0000
0000
0000
0000
0011
0000
0000
0000
0000
0000
0000
0000
2000
0000
3000
0000
0000
0000
0000
0000
,
0011
0000
2000
3000
0011
0000
1001
0000
,
0000
0000
0000
0000
,
0000
0000
0000
0000
,
0000
0000
0000
0000
,
0000
0000
0000
0000
,
0001
1000
0010
0100
,
0001
1000
0100
0010
,
0100
0002
0103
0002
,
0103
1000
0001
1001
,
1000
1000
1000
0001
0100
0100
0100
0001
,
1000
0000
1000
0000
0100
0000
0000
0010
0000
0000
0100
0000
1000
0000
0001
0000
,
1000
0000
0001
0100
0000
0000
0100
0000
0001
0000
1000
0100
0000
0000
0100
0000
,
1000
0100
0010
0001
1000
0001
1000
0000
,
0001
0001
0001
1000
0010
0010
0010
1000
,
0001
0000
0001
0000
0010
0000
0000
0100
0000
0000
0010
0000
0001
0000
1000
0000
,
0001
0100
0001
0100
0010
1000
0010
0100
,
0001
1000
0001
1000
0001
0000
1001
0000
,
1000
0000
0100
0000
0010
0000
0000
0100
0000
0010
0000
0001
0000
0000
0000
0000
,
1000
0000
0010
0000
0100
0000
0000
0010
0000
0100
0000
0001
0000
0000
0000
0000
,
0001
0000
0100
0000
0010
0000
0000
0100
0000
0010
0000
1000
0000
0000
0000
0000
,
0010
1000
0001
0010
0100
0000
0020
0000
,
0031
0000
0010
0000
0100
0000
0000
0010
0000
0100
0000
1000
0000
0000
0000
0000
,
0001
0000
0100
0000
0010
0000
0000
0100
0000
0010
0000
1000
0000
0000
0000
0000
,
1000
0010
0100
0000
0001
0010
0100
0000
,
1000
0001
1000
0001
1000
0000
1001
0000
,
1100
0011
0101
1010
,
1000
0010
0100
0010
1000
0001
0100
0000
,
0101
1010
1100
0011
,
0001
0000
0010
0000
0100
1000
0000
0100
0000
0000
0010
0000
0001
0000
0000
0000
,
0011
1100
1010
0101
,
0001
0100
0010
0100
0001
1000
0010
0000
,
1010
0101
0011
1100
,
1000
0001
1000
0001
1000
0000
1001
0000
,
0001
0100
0000
0010
0000
1000
0000
0001
,
0000
0010
0000
0100
0000
1000
0000
0001
,
2000
0010
3002
0010
,
1003
0001
1000
0001
1000
0000
1001
0000
,
0001
0010
0100
0010
0001
0010
1000
0010
,
0001
0100
0010
0100
0001
0100
0010
1000
,
0001
0100
0010
0000
1000
0100
0010
0000
,
0002
0000
1003
1001
,
0101
0000
0001
0100
0001
0000
0100
0001
,
0100
0001
0010
0100
1000
0100
1000
0000
,
1100
0000
1000
0100
1000
0000
0100
1000
,
0100
1000
0010
1000
0001
0000
1001
0000
,
1010
0000
1000
0010
1000
0000
0010
1000
,
0010
1000
0100
0010
0001
0010
0001
0000
,
1000
0001
0010
0000
0001
1000
0010
0000
,
1010
0000
0000
0000
0002
0003
0000
0000
1010
0000
0000
0000
0002
0003
0000
0000
,
1010
0000
0000
0000
0002
0003
0000
0000
1010
0000
0000
0000
0110
0000
0000
0000
;

//--------------- dance-single - chronon @arrowvortex ----------------
#NOTEDATA:;
#STEPSTYPE:dance-single;
#DESCRIPTION:chronon @arrowvortex;
#DIFFICULTY:Hard;
#METER:16;
#RADARVALUES:0,0,0,0,0;
#NOTES:
0000
0000
0000
0000
,
0000
0000
0000
0000
,
0000
0000
0000
0000
,
0000
0000
0000
0000
,
0000
0000
0000
0000
,
0001
0100
0010
2000
0010
0000
3001
0000
,
1000
0000
0100
0000
0010
0000
0100
0000
0001
0000
0100
0010
0100
0000
1000
0000
,
0001
0010
0100
2000
0100
0000
3001
0000
,
1001
1001
1001
MMMM
,
1000
0010
0000
0100
0000
0001
0000
1000
,
0001
0010
0000
0100
0000
1000
0000
0001
,
1000
0010
0000
0100
0002
0013
0000
0100
,
2000
3010
1000
0001
1000
0000
MMMM
0000
,
0001
0000
0001
0100
0001
0000
0100
0000
0010
0000
0100
0000
1000
0000
0100
0000
,
0001
0000
0001
0010
0001
0000
0010
0000
0100
0000
0010
0000
0001
0000
0010
0000
,
0100
0000
1000
0010
0100
0000
0000
0000
0100
0000
0001
0010
0100
0000
0010
0100
,
1000
0000
0100
0000
0010
0000
0001
0000
1000
0000
0000
0000
MMMM
0000
1000
0001
,
0020
0000
0130
1000
0002
0000
1003
0010
,
1010
0000
0110
0000
0101
0000
0001
0100
,
0020
0000
0130
0001
2000
0000
3001
1000
,
0100
0000
0010
0100
0010
0000
0100
0000
1000
0000
0010
0000
0100
0000
0001
0000
,
0101
0000
0001
0010
0021
0000
0130
1000
,
1100
0000
0000
0000
0110
0000
0000
0000
0011
0000
0000
0000
0001
0010
0100
1000
,
0001
0000
0001
1000
0010
0000
0000
0000
1000
0000
1000
0001
0010
0000
0000
0000
,
1001
0010
1001
0010
1001
0000
MMMM
0000
,
0001
0100
0100
0100
0100
0100
0100
0100
,
0100
0000
0100
0000
0100
0000
0100
0000
0100
0000
0001
0100
0010
1000
0010
0000
,
1010
1001
0011
1001
,
1000
0100
0100
0100
0100
0100
0100
0100
,
0100
0000
1000
0100
0010
0001
0010
0000
0011
0000
0000
0000
1001
0000
0000
0000
,
1010
0000
0000
0000
1001
0000
0000
0000
1000
0000
1000
0010
0100
0000
0001
0000
,
1000
0000
0001
0000
0010
0000
0100
0000
1000
0100
0010
0000
0010
0000
0010
0000
,
0010
0010
0010
0010
0010
0010
0010
0010
,
0010
0000
0100
1000
0001
0100
0001
0000
0101
0000
0001
0100
0010
0000
1000
0000
,
1100
0000
1000
0100
0010
0000
0001
0000
1001
0000
0000
0000
MMMM
0000
0001
1000
,
0010
0010
1000
0001
0010
0010
0001
1000
,
0100
0000
0100
0000
1000
0000
0001
0000
1000
0001
1000
0001
1000
0000
0010
0000
,
1000
0000
0010
0000
0100
0000
0010
0000
0001
0000
0010
0100
0010
0000
1000
0000
,
1001
0000
0000
0000
0000
0000
0000
0000
0020
0030
0000
0000
0000
0000
0000
0000
1001
0000
0000
0000
0000
0000
0000
0000
0020
0000
0030
0000
0000
0000
0000
0000
,
1001
0000
0020
0030
1001
0000
MMMM
0000
,
2000
0000
3020
0000
,
0230
0000
0302
0000
,
2003
0000
3200
0000
,
0320
0000
0000
0030
0020
0000
0000
0000
,
0031
0000
0010
0100
1000
0000
0010
0100
,
0001
0100
0010
1000
,
0010
0200
1000
0000
0310
0100
1000
0000
,
0110
0101
1001
MMMM
,
0011
0000
0010
0000
0010
0000
0001
1000
0010
0000
0010
0000
0010
0000
1000
0001
,
0010
0000
0010
0000
0100
0010
0000
0001
0000
1000
0001
0000
0100
0000
0001
0100
,
0010
0000
1000
0200
0000
0000
1300
0100
0010
0000
0001
0200
0000
0301
0100
0010
,
1000
1000
0001
0001
0010
0100
1000
0000
,
1100
0000
0100
0000
0100
0000
1000
0001
0100
0000
0100
0000
0100
0000
0001
1000
,
0100
0000
0100
0000
0010
0100
0000
1000
0000
0001
1000
0000
0010
0000
1000
0010
,
0100
0001
1000
0001
0010
0100
0010
0001
,
1000
0001
1000
0001
1000
0000
0001
0000
1000
0000
0000
0000
MMMM
0000
0000
0000
,
0001
0000
1000
0000
0100
0000
0010
0001
0000
0001
0000
0001
0100
0000
0010
0000
,
1000
0000
0001
0000
0100
0000
0010
1000
0000
1000
0000
1000
0100
0000
0010
0000
,
0100
0000
1000
0000
0010
0000
0100
0001
0000
0001
0000
0001
0010
0000
0100
0010
,
0001
0001
0010
0010
0100
0000
1002
0000
,
1003
0000
0001
0000
0010
0000
0100
1000
0000
1000
0000
1000
0010
0000
0100
0000
,
0001
0000
1000
0000
0010
0000
0100
0001
0000
0001
0000
0001
0010
0000
0100
0000
,
0010
0000
0001
0010
0100
0000
1000
0000
1001
0000
1000
0010
0100
0000
0001
0000
,
0101
0000
0100
0010
1000
0000
0001
0000
1001
0000
0000
0000
MMMM
0000
0000
0000
,
0011
1010
1100
0101
,
0001
0000
0001
0100
0010
0000
1000
0000
0200
0000
0310
0000
0200
0000
1300
0000
,
1100
0101
0011
1010
,
1000
0000
0010
0000
0100
0010
0000
1000
0000
1000
0010
0100
0001
0000
0100
0000
,
0101
1100
1010
0011
,
0001
0000
0001
0010
0100
0000
2000
0000
0100
0000
3002
0000
0100
0000
1003
0000
,
1010
0011
0101
1100
,
1001
0100
1001
0100
1001
0000
MMMM
0000
,
0001
0010
0000
0100
0000
1000
0000
0001
,
1000
0010
0000
0100
0000
0001
0000
1000
,
0001
0010
0000
0100
2000
3010
0000
0100
,
0002
0013
0001
1000
0001
0000
MMMM
0000
,
1000
0000
1000
0010
1000
0000
0010
0000
0100
0000
0010
0000
0001
0000
0010
0000
,
1000
0000
1000
0100
1000
0000
0100
0000
0010
0000
0100
0000
1000
0000
0100
0000
,
0010
0000
0001
0100
0010
0000
0000
0000
0010
0000
1000
0100
0010
0000
0000
0000
,
0002
0000
1003
MMMM
,
1010
0000
0000
0000
1000
0010
1000
0010
1000
0000
0000
0000
0001
0010
0001
0010
,
0001
0000
0010
0001
1000
0000
0001
0000
0100
0000
0010
1000
0001
0000
0100
0000
,
0101
0000
0000
0000
0001
0100
0001
0100
0001
0000
0000
0000
1000
0100
1000
0100
,
1000
0100
0010
0001
1000
0000
MMMM
0000
,
0011
0000
0000
0000
0001
0010
0001
0010
0001
0000
0000
0000
1000
0010
1000
0010
,
1000
0000
0001
1000
0100
0000
0010
0000
0100
0000
1000
0001
0100
0000
0001
0000
,
0101
0000
0001
0010
0100
0000
1000
0000
1100
0000
1000
0010
0100
0000
0001
0000
,
1001
0000
0000
0000
0200
0300
0000
0000
1001
0000
0000
0000
0200
0300
0000
0000
,
1001
0000
0000
0000
0200
0300
0000
0000
1001
0000
0000
0000
0110
0000
0000
0000
;
