#VERSION:0.83;
#TITLE:The world of sound;
#SUBTITLE:;
#ARTIST:Music by Ryuwitty, Vocal by Kuroa*;
#TITLETRANSLIT:;
#SUBTITLETRANSLIT:;
#ARTISTTRANSLIT:;
#GENRE:;
#CREDIT:;
#MUSIC:The world of sound.ogg;
#BANNER:;
#BACKGROUND:;
#CDTITLE:;
#SAMPLESTART:30.060;
#SAMPLELENGTH:12.000;
#SELECTABLE:YES;
#OFFSET:-1.184;
#BPMS:0.000=210.000
,289.333=180.000
,292.000=150.000
,294.000=120.000
,295.000=105.000
,299.000=210.000
,379.000=240.000
,384.000=300.000
,390.000=360.000
,396.000=420.000
,404.000=105.000
;
#STOPS:62.500=0.286
,218.500=0.142
,219.000=0.142
,219.500=0.142
,220.000=0.142
;
#SPEEDS:0.000=1.000=0.000=0;
#SCROLLS:0.000=1.000;
#TICKCOUNTS:0.000=4;
#TIMESIGNATURES:0.000=4=4;
#LABELS:0.000=Song Start;
#COMBOS:0.000=1;
#DISPLAYBPM:105.000:210.000;
#ORIGIN:;
#PREVIEWVID:;
#JACKET:The world of sound-jacket.png;
#CDIMAGE:;
#DISCIMAGE:;
#BGCHANGES:;
#FGCHANGES:;

//--------------- dance-single - N ----------------
#NOTEDATA:;
#STEPSTYPE:dance-single;
#DESCRIPTION:N;
#DIFFICULTY:Medium;
#METER:11;
#RADARVALUES:0.352601,0.62128,0.099958,0.668953,0.076891,321,308,13,87,0,0,0,0,0,0.352601,0.62128,0.099958,0.668953,0.076891,321,308,13,87,0,0,0,0,0;
#DISPLAYBPM:105.000:210.000;
#CHARTNAME:;
#CHARTSTYLE:;
#CREDIT:;
#NOTES:
0000
0000
0000
0000
,
0000
0000
0000
0000
,
2002
0000
0000
0000
,
0000
0000
0000
0000
0000
3003
0000
0000
,
0001
0010
0100
1000
,
0001
0100
0010
1000
,
0200
0000
0320
0000
,
0032
0000
2003
0000
,
3000
0000
0001
0000
0100
0000
0000
0000
1000
0000
0100
0000
,
0000
0000
0001
0000
0010
0000
0000
0000
1000
0000
0010
0000
,
1000
1010
0001
0011
,
1000
1100
0001
0101
,
1000
1000
0001
0001
,
0100
0010
0100
0010
,
2000
0000
0000
3000
,
0001
1000
0001
1000
0001
0000
2000
0000
,
0010
0001
3020
1000
,
1000
0100
0100
2030
,
0001
0001
3200
0010
,
0010
1000
0010
0320
,
0100
0100
0032
1000
,
0010
1000
1000
0203
,
0010
0010
0302
1000
,
0010
2003
3200
0320
,
0000
0000
0230
0300
0200
0000
0000
0000
,
0000
0000
0300
2000
,
0000
0000
0000
0000
3001
0010
0000
0001
,
0000
1000
0000
0200
0000
0000
1300
0000
,
0000
0002
0000
0000
0000
0003
1000
0001
,
0100
0000
0000
0000
0010
0000
0000
1000
0000
0000
0001
0000
0000
0000
0100
0000
,
0001
0000
0000
0000
1000
0000
0000
0010
0000
0000
1000
0000
0002
0000
0000
0000
,
2003
0000
3020
0000
0230
0000
0301
0010
,
0001
0000
1000
0100
1000
0000
0001
0010
,
0001
1000
0001
0010
0001
0000
1000
0010
,
1000
0000
0001
0100
0001
0000
1000
0010
,
1000
0010
0100
0001
0100
0000
0010
1000
,
0100
0000
0010
0001
0100
0000
0001
0010
,
0001
0100
0010
1000
0100
0000
1000
0100
,
0010
0000
0001
0100
0010
0000
1000
0001
,
1000
0001
0010
0100
0010
0100
0020
0000
,
0031
0000
0010
0000
0002
0000
0103
0001
,
0100
0000
0001
1000
0100
0000
1000
0000
,
0001
0000
0010
0000
0001
1000
0000
0010
,
0000
0100
0000
0001
0000
0000
1000
0000
,
0000
0002
0000
0000
0000
0000
0000
0000
,
0000
0000
0000
0000
0003
0000
1000
0010
,
1000
0000
0001
0010
0001
0010
0100
0000
,
1000
0001
0000
1000
0100
0020
0000
0000
,
0100
0000
0001
0000
0030
0001
1000
0020
,
0000
2030
0000
3002
0000
0203
0000
0000
,
0320
0000
0000
0030
,
0000
1000
0000
0001
0100
0001
0000
0020
,
0000
0030
0000
0000
0000
0000
0000
0000
,
0000
0000
0001
1000
0000
0002
0000
0003
,
0000
0000
0000
0000
0000
0000
0000
0000
1000
0000
0000
0000
0001
0000
0000
0000
1000
0000
0000
0000
0020
0030
0000
0000
2000
3000
0000
0000
0002
0003
0000
0000
,
0200
0300
0000
0000
0020
0000
0000
0000
0000
0000
0000
0000
0000
0000
0000
0000
0000
0000
0000
0000
0030
0000
0000
0000
0000
0000
0000
0000
0000
0000
0000
0000
,
0000
0100
0001
2000
0000
3020
0000
0230
,
0000
0320
0000
0000
2030
0000
0000
3001
,
0010
0200
0000
0000
0000
0300
0000
0000
,
0000
0000
0000
0000
0000
2000
0000
3020
,
0000
2030
0000
3002
0000
0023
0000
0230
,
0000
0320
0000
0000
0000
0000
0000
0000
,
0030
0000
0000
0000
,
0000
0002
0000
2003
,
3000
0000
1001
0000
1000
0100
0010
0001
,
1000
0000
1001
0000
0001
0100
0010
1000
,
0001
0000
0011
0000
0100
1000
0100
0010
,
0001
0010
0000
0100
0000
1000
0000
0010
,
0000
0100
0000
0002
0000
0000
0000
0000
,
0000
0003
2000
0000
0000
0000
0000
0000
,
0000
3020
0000
0000
,
0000
0000
0000
0000
,
0000
0000
0000
0000
,
0000
0000
0000
0000
,
0030
0000
0000
2000
,
0000
3200
0000
0320
,
0000
0032
0000
2003
,
0000
3020
0000
0230
,
0000
0302
0000
0203
,
0000
0320
0000
2030
,
0000
0000
0000
3002
0000
0000
0000
0000
0000
0003
0000
0100
,
0000
0001
0000
0000
0000
0100
0000
1000
0000
0000
0000
0010
,
0000
0001
0000
0000
0000
0010
0000
1000
0000
0001
0000
0000
,
0011
1000
1010
0001
,
0101
1000
1100
0001
,
0001
1000
1000
0020
,
0230
0000
0000
0301
1000
0001
1000
0000
0000
1001
0000
0000
,
0000
2000
0000
3002
,
0000
2003
0000
3020
,
0000
2000
3000
0200
,
0300
0002
0003
0200
,
0300
2030
0000
3002
,
0000
0203
0000
0320
,
0000
0000
0000
0000
,
0000
0000
0000
0000
,
0000
0000
0000
0000
,
0000
0000
0000
0000
,
0000
0000
0000
0000
,
0000
0000
0000
0000
,
0000
0000
0000
0000
,
0000
0000
0000
0000
,
0030
0000
0000
0000
;

//--------------- dance-single - N ----------------
#NOTEDATA:;
#STEPSTYPE:dance-single;
#DESCRIPTION:N;
#DIFFICULTY:Hard;
#METER:15;
#RADARVALUES:0.625015,0.854261,0.17685,0.576684,0.530549,569,546,23,75,0,0,0,0,0,0.625015,0.854261,0.17685,0.576684,0.530549,569,546,23,75,0,0,0,0,0;
#DISPLAYBPM:105.000:210.000;
#CHARTNAME:N;
#CHARTSTYLE:;
#CREDIT:N;
#NOTES:
0000
0000
0000
0000
,
0000
0000
0000
0000
,
2002
0000
0000
0000
,
3000
0000
0000
0000
,
1003
0010
1000
0001
,
0010
0100
0010
0001
,
1000
0010
0100
0001
0000
0000
0010
0100
1000
0001
0000
0000
,
0100
0001
1000
0010
0000
0000
1000
0001
0010
0100
0000
0000
,
1000
0000
0010
0000
0100
0000
0001
0000
0100
0000
0010
0000
,
1000
0000
0001
0000
0100
0000
0001
0000
1000
0000
0100
0000
,
1000
0000
0001
0100
0000
0010
1000
0000
0001
0100
0000
0010
,
1000
0000
0100
0010
0000
0001
1000
0000
0100
0010
0000
0001
,
1000
0000
1000
0010
0000
0010
0100
0000
0100
0001
0000
0001
,
1000
0000
1000
0001
0000
0001
0100
0000
0100
0010
0000
0010
,
2000
0000
0000
0000
0000
0000
0000
0000
0000
0000
0000
0000
0020
0000
0000
0000
3000
0000
0000
0000
0000
0000
0000
0000
2000
0000
0000
0030
0000
0000
3000
0000
0000
0000
0000
0000
0002
0000
0000
0000
0000
0000
0003
0000
0000
0000
0000
0000
0020
0000
0000
0030
0000
0000
0000
0000
0000
0000
0000
0000
0200
0000
0000
0000
0000
0000
0300
0000
0000
0000
0000
0000
2000
0000
0000
0000
0000
0000
0000
0000
0000
0000
0000
0000
0000
0000
0000
3000
0000
0000
0000
0000
0000
0000
0000
0000
,
0001
0000
1000
0000
0001
0010
0100
1000
0001
0000
0000
0000
0021
0000
0000
0000
,
0100
0001
0230
1000
,
0010
0001
0010
2300
,
0010
0100
3002
0100
,
1000
0023
0032
2003
,
0010
0001
3020
1000
,
0100
0001
0100
2030
,
0010
0001
3020
0100
,
0001
0230
0302
2003
,
0001
0000
0200
0300
3200
0000
1000
0000
,
0010
0001
0010
2300
,
0100
0000
0001
0000
3001
0100
0000
0010
,
0000
1000
0000
0200
0000
0300
1000
0000
,
0010
0100
0000
0001
0010
0100
0000
1000
,
0010
0100
0001
0010
0001
0010
0100
1000
,
0010
0000
0000
1000
0000
0000
0001
0000
0000
0010
0000
0000
0100
0000
0000
1000
0000
0000
0001
0000
0010
0000
0001
0000
,
1000
0000
0010
0000
1000
0000
0001
0000
0010
0000
0100
0000
1000
0000
0100
0000
0010
0000
0001
0000
0000
0010
0000
0000
,
0001
0000
1000
0010
1000
0000
0001
0100
,
0001
0000
1000
0010
0000
0010
1000
0000
0001
0000
0010
0000
0001
0000
0100
0000
,
0001
0000
1000
0100
1000
0000
1000
0010
,
0100
0000
0001
0000
1000
0001
1000
0001
1000
0000
0100
0000
1000
0000
0100
0000
,
1000
0000
0001
0100
0001
0000
1000
0001
,
0010
0000
0001
1000
0000
1000
0001
0000
0100
0000
0001
0000
1000
0000
0010
0000
,
1000
0000
0001
0010
0001
0000
1000
0001
,
0010
0000
0001
0000
1000
0001
1000
0001
1000
0000
0010
0000
0100
0000
0010
0000
,
0100
0001
1000
0100
0010
0100
1000
0010
,
1000
0001
0010
0100
1000
0001
0100
0010
,
0100
0001
0010
0100
1000
1010
0000
0110
,
0000
0000
0101
0000
0000
0000
1001
0000
0000
0000
0000
0000
1000
0000
0000
0001
,
0000
0002
0000
0000
0000
0000
0000
0000
,
0000
0000
0000
0000
0003
0000
1000
0001
,
1000
0001
0010
0100
0010
0100
1000
0000
,
0001
0010
0000
0001
0100
0020
0000
0000
,
1000
0000
0100
0030
1000
1000
0001
0002
,
0000
0203
0000
0320
0000
2030
0000
0000
,
3200
0001
0010
1300
,
0100
2000
0000
3001
0010
0002
0000
2000
,
0000
0000
0000
0003
0002
0000
0000
0000
0000
0000
0000
3000
2000
0000
0000
0000
0000
0000
0000
0003
0002
0000
0000
0000
0000
0000
0000
3000
1003
0000
0000
0000
,
0000
0001
1000
1000
0000
0200
0000
0000
,
0300
0000
0000
0000
0000
0000
0000
0000
1000
0000
0000
0000
0100
0000
0000
0000
0010
0000
0000
0000
0022
0033
0000
0000
0202
0303
0000
0000
2200
3300
0000
0000
,
2020
3030
0000
0000
2002
0000
0000
0000
0000
0000
0000
0000
0000
0000
0000
0000
0000
0000
0000
0000
3003
0000
0000
0000
0000
0000
0000
0000
0000
0000
0000
0000
,
0000
0001
0010
0020
0000
0032
0000
0023
,
0000
0230
0000
0000
2300
0000
0000
3001
,
0010
0001
0000
0100
0010
0001
0000
1000
,
0100
0010
0100
0000
0001
2000
0000
0002
,
3000
0020
0003
0200
0030
0020
0300
0200
,
0030
0000
0000
0320
0000
0000
0031
0000
0000
0000
0000
0000
1000
0000
0010
0000
0100
0000
0001
0000
0100
0000
0010
0000
,
1000
0000
0000
0001
0010
0100
1000
0100
0010
0001
1000
0001
,
1000
0002
0000
2003
,
3000
0000
0000
1001
0000
0000
1000
0010
1000
0001
0100
0001
,
1000
0000
0000
1001
0000
0000
0001
0010
0001
1000
0100
1000
,
0010
0000
0000
1001
0000
0000
1000
0010
0000
0100
0001
0000
,
1000
0010
1000
0000
0001
0100
0000
0010
1000
0000
0001
0100
,
0000
0010
1000
0000
0001
0100
0002
0000
0003
2000
3000
0002
,
0000
0000
0000
0000
0000
0003
1000
0000
0100
0000
0010
0000
0001
0000
0010
0000
0100
0000
1000
0000
0100
0000
0010
0000
,
0001
0010
0100
1000
0000
0010
0000
1000
0000
0000
0000
0010
,
0000
0100
0000
0000
0000
0010
0000
1000
0000
0001
0000
0010
,
0000
0000
0000
0200
2000
0000
0000
0000
0000
3000
0000
0000
,
0000
0000
0000
0000
,
0000
0000
0000
0000
0000
0300
0000
0000
0000
2000
0000
0000
,
0000
3002
0000
0023
,
0000
0032
0000
1003
,
0100
1000
0010
0100
,
0001
0000
0000
0010
0000
0000
0001
0000
0000
1000
0100
1000
,
0001
0000
1000
0100
0010
0100
1000
0000
0001
0010
0100
0010
,
0001
0000
1000
0001
0010
0100
1000
0000
0001
1000
0000
0010
,
0000
1000
0000
0001
0000
0010
0000
0001
0000
1000
0000
0100
,
0000
1000
0000
0001
0000
0100
0000
0001
0000
0100
0000
0100
,
0010
0000
0010
1000
0000
1000
0001
0000
0001
0010
0000
0010
,
0100
0000
0100
1000
0000
1000
0001
0000
0001
1000
0010
1000
,
0010
0000
0000
0100
0001
0100
0001
0000
0000
0001
0010
0100
,
1000
0000
0000
0000
0100
0000
0000
0000
0010
0000
0000
0000
0001
0000
0000
0010
0000
0000
0100
0000
0000
0000
0000
0000
0010
0000
0000
0100
0000
0000
1000
0000
0000
0000
0000
0000
0001
0000
0000
0000
0000
0000
0100
0000
0000
0000
0000
0000
,
0001
0000
1000
0010
1000
0000
0001
0100
,
0010
1000
0001
0010
0100
1000
0010
1000
,
0010
0000
0100
0001
0100
0000
0010
1000
,
0010
0100
0001
0100
0010
1000
0001
0010
,
1000
0000
1000
0010
0001
0000
0100
0010
,
1000
0010
0100
0001
0010
0100
1000
0010
,
0001
0000
0001
0010
1000
0000
0010
0100
,
0001
0100
0010
1000
0010
0000
2002
0000
,
0000
0000
0000
0000
,
0000
0000
0000
0000
,
0000
0000
0000
0000
,
0000
0000
0000
0000
,
0000
0000
0000
0000
,
0000
0000
0000
0000
,
3003
0000
0000
0000
;
