#VERSION:0.83;
#TITLE:The last of world music;
#SUBTITLE:;
#ARTIST:BEMANI Sound Team "猫叉Master";
#TITLETRANSLIT:;
#SUBTITLETRANSLIT:;
#ARTISTTRANSLIT:;
#GENRE:;
#ORIGIN:;
#CREDIT:;
#BANNER:;
#BACKGROUND:;
#PREVIEWVID:;
#JACKET:;
#CDIMAGE:;
#DISCIMAGE:;
#LYRICSPATH:;
#CDTITLE:;
#MUSIC:The last of world music.ogg;
#OFFSET:-0.444622;
#SAMPLESTART:86.300003;
#SAMPLELENGTH:12.000000;
#SELECTABLE:YES;
#BPMS:0.000=256.200,
24.000=255.000;
#STOPS:;
#DELAYS:;
#WARPS:;
#TIMESIGNATURES:0.000=3=4;
#TICKCOUNTS:0.000=4;
#COMBOS:0.000=1;
#SPEEDS:0.000=1.000=0.000=0;
#SCROLLS:0.000=1.000;
#FAKES:;
#LABELS:0.000=Song Start,
144.000=structure change 1,
222.000=structure change 2;
#BGCHANGES:;
#KEYSOUNDS:;
#ATTACKS:
;

//---------------dance-single - ----------------
#NOTEDATA:;
#CHARTNAME:;
#STEPSTYPE:dance-single;
#DESCRIPTION:;
#CHARTSTYLE:;
#DIFFICULTY:Medium;
#METER:13;
#RADARVALUES:0.549599,0.783760,0.139335,0.750861,0.000000,497.000000,479.000000,18.000000,97.000000,0.000000,0.000000,0.000000,0.000000,0.000000,0.549599,0.783760,0.139335,0.750861,0.000000,497.000000,479.000000,18.000000,97.000000,0.000000,0.000000,0.000000,0.000000,0.000000;
#CREDIT:;
#NOTES:
0000
0000
0000
0000
,
0000
0000
0000
0000
,
0000
0000
0000
0000
,
0002
0000
0000
0023
0000
0000
2030
0000
,
0000
3020
0000
0000
0032
0000
0000
0203
,
0000
0000
2300
0000
0000
3200
0000
0000
,
0302
0000
0000
1000
0000
0000
0010
0000
,
0000
0000
0000
0000
2003
0000
0000
0010
,
0000
0000
3002
0000
0000
0203
0000
0000
,
0320
0000
0000
1000
0000
0000
0100
0000
,
0000
0000
0000
0000
2030
0000
0000
0001
,
0000
3200
0000
0000
,
0320
0000
0000
0001
0000
0000
0100
0000
,
0000
0000
0000
0000
0032
0000
0000
0100
,
0000
0000
2003
0000
0000
3020
0000
0000
,
0130
0010
1000
0002
,
0000
0000
0013
0000
0200
0000
0000
2300
,
0000
0000
3002
0000
0000
0203
0000
0000
,
0310
0000
0000
0100
0000
0000
0110
0000
,
0000
0010
0100
0001
,
0010
0100
1000
0010
,
0100
0000
0000
0010
0000
0000
0110
0000
,
0000
0100
0010
1000
,
0100
0010
0001
1000
,
0010
0000
0000
0100
0000
0000
0110
0000
,
1000
0001
0010
0100
,
0001
0100
0010
0001
,
1000
0000
0000
0001
0000
0000
1100
0000
,
0000
1000
0001
0100
,
0010
0000
1000
0000
0001
0010
0100
0010
,
0001
0000
0000
1000
0000
0000
0101
0000
,
0000
0001
1000
0010
,
0100
0001
0010
0100
,
1000
0100
0000
1000
0000
0100
1000
0001
,
0000
0100
0001
0100
0001
0000
0010
0000
,
0100
1000
0010
0100
,
0001
0000
0000
0001
0100
0000
0000
0100
,
0001
0000
0000
0001
1000
0000
0000
1000
,
0100
0000
0000
0100
1000
0100
1000
0000
,
0010
0000
0000
0010
1000
0000
0000
1000
,
0010
0000
0000
0010
0100
0000
0000
0100
,
0001
0010
0100
1000
,
0001
0000
0000
0001
1000
0000
0000
1000
,
0001
0000
0100
0000
0020
0000
0000
2030
,
0000
0000
3002
0000
0000
0023
0000
0000
,
0130
0000
0000
1000
0010
0000
0000
1000
,
0001
0000
0000
1000
0100
0000
0000
0010
,
0001
0000
0000
1000
0001
0000
0100
0010
,
1000
0001
0010
0100
,
1000
0000
0000
0100
1000
0000
0000
0001
,
0100
0010
1000
0001
,
0010
0000
0000
0100
1000
0000
0000
0001
,
0100
0000
0010
0000
1000
0000
0000
0100
,
0000
0000
0010
0000
0000
0100
0000
0000
,
2000
0000
0000
3020
0000
0000
0032
0000
,
0000
0023
0000
0000
2030
0000
0000
0000
,
3001
0100
0020
0000
0000
0000
1030
0100
,
0020
0000
0000
0000
0130
1000
0002
0000
,
0203
0310
2000
0000
,
3001
0010
0100
0000
1000
0000
0010
0000
,
0100
0000
0001
0000
0000
0010
0200
0000
,
0000
0000
0310
0001
2000
0000
0000
0000
,
3001
0100
0010
0000
1000
0000
0001
0000
,
0020
0000
0000
0000
0130
1000
0002
0000
,
0000
1000
0000
0000
0103
0000
0000
0000
,
0010
1000
0200
0000
0000
0000
0310
0000
,
0002
0000
0000
0203
0000
0000
2300
0000
,
0000
3200
0000
0000
0302
0000
0000
0000
,
0013
0001
2000
0000
0000
0000
3010
0100
,
0002
0000
0000
0000
0013
0100
2000
0000
,
0000
0000
3000
0001
0200
0000
0000
0000
,
0310
1000
0001
0000
0010
0000
0100
0000
,
1000
0000
0001
0000
0000
0100
0020
0000
,
0000
0000
0130
0001
2000
0000
0000
0000
,
3001
0010
0100
0000
1000
0000
0010
0000
,
0200
0000
0000
0000
0301
1000
0100
0000
,
0000
0010
0000
0000
0002
0000
0000
0000
,
0103
0010
2000
0000
0000
0000
0000
0000
,
0010
0000
0000
0001
0000
0000
0010
0000
,
0000
0100
0000
0000
3002
0000
0000
0003
,
0100
0010
1000
0000
0001
0000
0010
0000
,
0200
0000
0000
0310
0001
0010
0001
0000
,
1000
0001
0020
0000
,
0031
0100
0010
0000
1000
0000
0001
0000
,
0020
0000
0000
0031
1000
0001
1000
0000
,
0010
0100
0002
0000
,
0013
0100
1000
0000
0001
0000
0100
0000
,
0020
0000
0000
1030
0100
1000
0100
0000
,
0000
0010
0000
0000
1001
0000
0000
0000
,
0001
0100
0020
0000
0000
1030
0000
0000
,
0001
0000
0000
1000
0000
0000
0110
0000
,
0000
0000
0001
0000
1000
0100
0010
0000
,
0001
0000
1000
0100
0010
0000
0001
0000
,
0001
0100
0010
0000
0100
0000
0001
0100
,
0010
0000
1000
0001
1000
0100
0010
0000
,
0001
0000
1000
0100
0010
0000
0001
0010
,
0001
0000
0101
0000
0110
0000
1000
0001
,
0010
0100
2000
0000
3001
0000
0000
0001
,
0200
0310
2000
3200
,
0310
0002
2003
3010
,
0200
0302
2003
0000
,
0000
3100
1000
0001
,
1001
0000
0000
0000
0010
0001
0200
0000
,
0310
1000
0001
1000
0001
0100
0010
0000
,
1000
0000
0001
0100
0010
0000
1000
0000
,
1000
0100
0010
0000
0100
0000
1000
0100
,
0010
0000
0100
1000
0001
0100
0010
0000
,
1000
0000
0001
0100
0010
0000
1000
0001
,
1000
0000
1100
0000
0110
0000
0001
0100
,
0010
1000
0002
0000
1003
0000
0200
0000
,
0320
0031
0002
0203
,
0310
0020
2030
3001
,
0002
0000
0023
0000
0230
0000
0000
0010
,
0000
1300
0001
0100
,
0020
0000
0000
0000
0130
0001
1000
0000
,
0001
0000
0010
0000
0100
0000
0000
1100
,
0000
1000
0001
1000
,
0010
0000
0000
0110
0000
0000
0100
0000
,
0001
0000
1000
0000
0001
0000
0010
0100
,
0010
0200
0000
1300
,
0002
0000
0103
0010
,
1000
0000
0001
0000
0011
0000
0000
1001
,
0000
0001
0100
0010
,
1010
0000
0000
1001
0000
0000
1000
0000
,
0100
0000
0010
0000
0001
0000
1000
0001
,
1000
0020
0000
0130
,
0002
0000
0013
0100
,
0000
1000
0000
0000
0002
0000
0000
0203
,
0000
0000
2300
0000
0000
3200
0000
0000
,
0302
0000
0000
0023
0000
0000
2030
0000
,
0000
3010
0001
1000
0200
0000
0000
0000
,
0000
0000
0000
0000
,
0000
0000
0000
0000
,
0000
0000
0000
0000
,
0000
0000
0000
0000
,
0300
0000
0000
0000
;

//---------------dance-single - ----------------
#NOTEDATA:;
#CHARTNAME:;
#STEPSTYPE:dance-single;
#DESCRIPTION:;
#CHARTSTYLE:;
#DIFFICULTY:Hard;
#METER:16;
#RADARVALUES:0.770766,0.888261,0.123853,1.021791,0.085149,697.000000,681.000000,16.000000,132.000000,0.000000,0.000000,0.000000,0.000000,0.000000,0.770766,0.888261,0.123853,1.021791,0.085149,697.000000,681.000000,16.000000,132.000000,0.000000,0.000000,0.000000,0.000000,0.000000;
#CREDIT:;
#NOTES:
0000
0000
0000
0000
,
0000
0000
0000
0000
,
0000
0000
0000
0000
,
0001
0010
0001
1000
0010
1000
0001
0100
,
0001
1000
0100
1000
0001
0010
0100
1000
,
0010
0100
0001
0100
0010
1000
0100
0010
,
0001
1000
0000
1000
0000
0010
0200
0000
,
0000
0000
0000
0000
0301
1000
0000
1000
,
0000
0001
0020
0000
0000
0230
0000
0000
,
1300
0001
0000
0001
0000
0100
0020
0000
,
0000
0000
0000
0000
1030
0001
0000
0001
,
0000
0010
0100
0000
1000
0100
0010
0001
,
1000
0010
0000
0010
0000
0100
0002
0000
,
0000
0000
0000
0000
1003
0001
0000
0001
,
0000
0010
0200
0000
0000
2300
0000
0000
,
3002
0203
0310
0110
,
0000
0000
0001
0000
1000
0100
0000
0100
,
0000
0010
0001
0000
0100
0001
0010
0100
,
1000
0000
0000
0000
0000
0000
0000
0000
0000
0000
1000
0001
2000
0000
0000
0000
,
0000
0000
3001
1000
0100
0000
0010
0000
,
0100
1000
0010
0100
,
0001
0000
0000
0000
0000
0000
0000
0000
0000
0000
0001
1000
0002
0000
0000
0000
,
0000
0000
1003
0001
0100
0000
0010
0000
,
0001
0000
0000
0000
0010
0000
0000
0000
0100
0000
0000
0000
0001
0000
1000
0001
,
2000
0000
3000
0001
,
1000
0100
0010
0100
,
0001
0100
1000
0001
,
0200
0000
0010
0000
0000
0000
0310
0000
0000
0000
1000
0001
2000
0000
0000
0000
,
0000
0000
3010
1000
0100
0000
0010
0000
,
0001
0000
0002
0000
0103
0010
1000
0001
,
0020
0000
0100
0000
0000
0000
0130
0000
0000
0000
1000
0001
2000
0000
0000
0000
,
0000
0000
3001
0100
0010
0000
1000
0000
,
0100
0010
0001
1000
,
0001
0100
0000
0010
0000
0010
1000
0100
,
0000
0010
0001
1000
0200
0000
2300
0000
,
3020
0230
0302
0023
,
0130
0000
1000
0001
1000
0100
0000
1000
,
0010
0100
0010
1000
0002
0000
0023
0000
,
0230
0000
2300
0000
3010
1000
0001
0100
,
0000
0100
0001
1000
0001
0010
0000
0001
,
0100
0001
1000
0100
0002
0000
0203
0000
,
0320
0000
0032
0000
0103
0001
1000
0100
,
0000
0100
1000
0001
1000
0010
0000
1000
,
0100
0010
0100
1000
0002
0000
0203
0000
,
0320
0000
1030
0100
0010
0001
0100
0010
,
1000
0000
0001
0100
0010
0100
0000
0001
,
0010
0001
1000
0001
0200
0000
0320
0000
,
2030
0000
3002
0000
0013
0100
0010
0001
,
0000
1000
0001
0100
0010
0100
0000
0001
,
1000
0100
0010
0100
0002
0000
0203
0000
,
0320
0000
0032
0000
0103
0001
1000
0010
,
0000
0010
1000
0001
0010
0100
0000
1000
,
0001
0100
0010
0100
0002
0000
0023
0000
,
0230
0000
2300
0000
3001
0100
0010
1000
,
0001
0010
0001
1000
0010
1000
0001
0100
,
0001
1000
0100
0010
0002
0000
0010
0000
,
0013
0001
2000
0000
0010
0000
3010
0100
,
0002
0000
0010
0000
0013
0100
2000
0000
,
0001
3001
1002
0010
,
0013
0001
0100
0000
0010
0000
1000
0000
,
0100
0000
0001
0000
0000
0100
0020
0000
,
0100
0000
0130
1000
0002
0000
0010
0000
,
0013
0001
1000
0000
0010
0000
0100
0000
,
0002
0000
0010
0000
0013
0100
2000
0000
,
0000
0100
0000
0000
3002
0000
0100
0000
,
0103
0010
2000
0000
0001
0000
3001
0000
,
1000
0010
1000
0001
0010
0001
1000
0010
,
0100
0001
0010
0100
2000
0000
0000
0000
,
3001
0100
0020
0000
0000
0000
1030
0100
,
0020
0000
0000
0000
0130
1000
0002
0000
,
0000
0000
0003
0100
0002
0000
0000
0000
,
0013
0001
1000
0000
0001
0000
0100
0000
,
0010
0000
0001
0000
0000
0010
0200
0000
,
0000
0000
0310
1000
0002
0000
0000
0000
,
0013
0001
1000
0000
0010
0000
0100
0000
,
0002
0000
0000
0000
0013
0100
2000
0000
,
0000
0010
0000
0000
3002
0000
0000
0000
,
0103
0010
2000
0000
0000
0000
0000
0000
,
3001
0010
0001
1000
0010
1000
0001
0100
,
0010
1000
0100
0010
0002
0100
0000
0103
,
0010
1000
0002
0000
0013
0000
0210
0000
,
2300
0010
0000
3010
0100
0001
2000
0000
,
0100
0000
3100
0000
0020
0100
0000
0031
,
1000
0010
0200
0000
0310
0000
0210
0000
,
0302
0010
0000
1003
0001
0100
0020
0000
,
1000
0000
1030
0000
0002
0010
0000
0103
,
0010
1000
0002
0000
0013
0000
0210
0000
,
2300
0010
0000
3100
0010
0001
2000
0000
,
3001
0100
0010
0000
1001
0000
0000
0000
,
1000
0000
0001
0000
1000
0000
0200
0000
0000
0000
0000
0000
0000
0000
0000
0310
0000
0000
0000
0000
0000
0000
0000
0000
,
0001
0010
0100
1000
0010
0100
0001
0000
,
0010
0001
0100
0010
1000
0100
0010
0100
,
0001
0000
1000
0010
0100
0010
0001
0000
,
0001
0100
0010
0100
0010
0000
0001
0010
,
0100
0000
0000
0010
0000
0000
0100
0000
0001
0000
1000
0000
0001
0000
0000
0010
0000
0000
0100
0000
0000
0010
0000
0000
,
1000
0000
0001
0100
0010
0100
1000
0001
,
0001
0100
0100
0010
0010
1000
1000
0001
,
0001
1000
0200
0000
1300
0000
0000
0001
,
0200
0310
2010
3002
,
0013
0021
0230
2300
,
3002
0000
0000
0000
2003
0000
0000
0000
3010
0100
0020
0000
0000
0000
0100
0000
,
0000
0130
0001
0000
1000
0000
0100
0000
,
0100
0010
0200
0000
0000
0000
1300
0000
0001
1000
0001
0000
1000
0000
0000
0000
,
0001
0100
0010
1000
0001
0010
0100
0010
,
1000
0000
0001
0100
0010
0100
1000
0000
,
1000
0010
0100
0010
0100
0000
1000
0100
,
0010
0000
0000
0100
0000
0000
0010
0000
1000
0000
0001
0000
1000
0000
0000
0100
0000
0000
0010
0000
0000
0100
0000
0000
,
0001
0000
1000
0010
0100
0010
0001
1000
,
1000
0010
0010
0100
0100
0001
0001
1000
,
1000
0001
0020
0000
0031
0000
2000
0000
,
3020
0130
0102
0023
,
0130
2100
3020
0230
,
0302
0000
0000
0000
0023
0000
0000
0030
0100
0010
0200
0000
0000
0000
0010
0000
,
0000
0000
0310
0000
0001
0000
0000
0000
2000
0000
0000
0000
3020
0000
0000
0030
,
0100
0010
0200
0000
0000
0000
0310
0000
2000
0000
3001
0000
2000
0000
0000
0000
,
3001
0000
0010
0000
0100
1000
0100
0000
1000
0000
0000
0000
0000
0000
1001
0000
,
0000
0000
1000
0000
0001
1000
0100
0010
,
0001
0000
0000
0000
0000
0000
1001
0000
0000
0000
0000
0000
0001
1000
0001
0000
,
0200
0000
0000
0000
0320
0000
0000
0000
2030
0000
0000
0000
3001
0010
0001
0000
,
0020
0230
0000
2300
,
3020
0000
0230
0302
,
0023
0000
0130
0000
1100
0000
0000
1001
,
0000
0000
0001
0000
1000
0010
0100
0001
,
0101
0000
0000
0000
0000
0000
0000
0000
0000
1001
0000
0000
0000
0000
0000
0000
0000
0000
0001
0000
0100
0000
0001
0000
,
2000
0000
0000
0000
3200
0000
0000
0000
0320
0000
0000
0000
0031
1000
0001
0000
,
0200
0320
0000
2030
,
3002
0000
0023
0230
,
0000
2300
0000
0000
3001
0100
0010
1000
,
0100
0010
0001
0010
0100
1000
0010
0100
,
0001
0100
0010
0001
0010
1000
0001
0010
,
0100
0001
0100
1000
0002
0000
0000
0000
,
0000
0000
0000
0000
,
0000
0000
0000
0000
,
0000
0000
0000
0000
,
0000
0000
0000
0000
,
0003
0000
0000
0000
;

//---------------dance-single - ----------------
#NOTEDATA:;
#CHARTNAME:;
#STEPSTYPE:dance-single;
#DESCRIPTION:;
#CHARTSTYLE:;
#DIFFICULTY:Easy;
#METER:10;
#RADARVALUES:0.351655,0.454581,0.100631,0.356079,0.000000,318.000000,305.000000,13.000000,46.000000,0.000000,0.000000,0.000000,0.000000,0.000000,0.351655,0.454581,0.100631,0.356079,0.000000,318.000000,305.000000,13.000000,46.000000,0.000000,0.000000,0.000000,0.000000,0.000000;
#CREDIT:;
#NOTES:
// measure 0
0000
0000
0000
0000
,  // measure 1
0000
0000
0000
0000
,  // measure 2
0000
0000
0000
0000
,  // measure 3
0002
0000
0000
0023
0000
0000
0230
0000
,  // measure 4
0000
2300
0000
0000
3002
0000
0000
0203
,  // measure 5
0000
0000
0320
0000
0000
2030
0000
0000
,  // measure 6
3001
0100
0001
0100
,  // measure 7
0000
0000
0001
1000
,  // measure 8
0001
0000
1000
0000
0000
0100
0000
0000
,  // measure 9
1000
0001
1000
0001
,  // measure 10
0000
0000
0200
0000
,  // measure 11
0000
0320
0000
0000
,  // measure 12
1030
0010
1000
0010
,  // measure 13
0000
0000
1000
0001
,  // measure 14
1000
0000
0001
0000
0000
0010
0000
0000
,  // measure 15
0001
0100
0010
1000
,  // measure 16
0000
0001
1000
0000
,  // measure 17
0100
0010
0000
0001
,  // measure 18
1000
0000
0000
1001
,  // measure 19
0000
0000
0001
0100
,  // measure 20
0010
1000
0000
0001
,  // measure 21
1000
0000
0000
1001
,  // measure 22
0000
0000
1000
0100
,  // measure 23
0010
0001
1000
0001
,  // measure 24
1000
0000
0000
1001
,  // measure 25
0000
0000
0001
0100
,  // measure 26
0010
1000
0001
1000
,  // measure 27
0001
0000
0000
1001
,  // measure 28
0000
0000
1000
0100
,  // measure 29
0010
0001
0010
0100
,  // measure 30
1000
0000
0000
1001
,  // measure 31
0000
0000
0001
0100
,  // measure 32
0010
1000
0001
1000
,  // measure 33
1001
0000
0000
0110
,  // measure 34
0000
0000
1000
0100
,  // measure 35
1000
0001
0100
0001
,  // measure 36
1000
0000
1000
0000
,  // measure 37
0001
0000
0001
0000
,  // measure 38
0100
0000
0001
1000
,  // measure 39
0001
0000
0001
0000
,  // measure 40
0010
0000
0010
0000
,  // measure 41
0100
1000
0100
0000
,  // measure 42
1000
0000
1000
0000
,  // measure 43
0001
0000
1000
0000
0001
0000
0000
0100
,  // measure 44
0000
0000
0010
0000
0000
1000
0000
0000
,  // measure 45
0001
0000
0010
0000
,  // measure 46
0100
0000
1000
0000
,  // measure 47
0001
0000
1000
0001
,  // measure 48
1000
0000
0010
0000
,  // measure 49
0100
0000
0001
0000
,  // measure 50
1000
0001
1000
0000
,  // measure 51
0001
0000
0001
0000
,  // measure 52
0010
0000
0110
0000
,  // measure 53
0000
1001
0000
0000
,  // measure 54
0001
0000
0000
0100
0000
0000
0010
0000
,  // measure 55
0000
1000
0000
0000
0002
0000
0000
0000
,  // measure 56
0000
0010
0000
0000
,  // measure 57
1000
0000
0000
0103
,  // measure 58
0000
0000
2000
0000
,  // measure 59
0000
0010
0000
0000
,  // measure 60
0001
0001
0000
3100
,  // measure 61
0000
0000
0002
0000
,  // measure 62
0000
0013
0001
1000
,  // measure 63
0002
0000
0000
0103
,  // measure 64
0000
0000
0020
0000
,  // measure 65
0000
1030
0000
0000
,  // measure 66
0001
0000
0000
0010
0000
0000
0100
0000
,  // measure 67
0000
1000
0000
0000
0002
0000
0000
0000
,  // measure 68
0000
0203
0000
0000
,  // measure 69
0320
0000
0000
1030
,  // measure 70
0000
0000
2000
0000
,  // measure 71
0000
3001
1000
0001
,  // measure 72
0010
0000
0000
0110
,  // measure 73
0000
0000
0002
0000
,  // measure 74
0000
1003
0001
0100
,  // measure 75
0020
0000
0000
1030
,  // measure 76
0000
0000
0002
0000
,  // measure 77
0000
0013
0000
0000
,  // measure 78
0001
0000
0000
1000
0000
0000
0010
0000
,  // measure 79
0000
0100
0000
0000
0002
0000
0000
0000
,  // measure 80
0000
0013
0001
0010
,  // measure 81
0200
0000
0000
1300
,  // measure 82
0000
0000
2000
0000
,  // measure 83
0000
3010
1000
0010
,  // measure 84
0200
0000
0000
0301
,  // measure 85
0000
0000
0002
0000
,  // measure 86
0000
1003
0001
1000
,  // measure 87
0200
0000
0000
0310
,  // measure 88
0000
0000
1001
0000
,  // measure 89
0000
1001
0000
0000
,  // measure 90
0001
0000
0000
1000
0000
0000
1001
0000
,  // measure 91
0000
0000
2000
0000
,  // measure 92
3100
2000
0000
3001
,  // measure 93
0002
0000
0103
0002
,  // measure 94
0000
1003
2000
0000
,  // measure 95
3010
2000
0000
3001
,  // measure 96
0001
0010
0001
1000
,  // measure 97
0001
1000
0000
0000
,  // measure 98
0001
0100
0010
1000
,  // measure 99
0100
0010
0001
1000
,  // measure 100
0001
1000
0200
0000
,  // measure 101
0000
0310
0001
1000
,  // measure 102
2000
0000
3001
0200
,  // measure 103
0000
0310
2000
0000
,  // measure 104
3010
2000
0000
3001
,  // measure 105
0002
0000
0013
0002
,  // measure 106
0000
1003
2000
0000
,  // measure 107
3100
2000
0000
3001
,  // measure 108
0001
0100
0001
1000
,  // measure 109
0001
1000
0000
0001
,  // measure 110
0100
0010
1000
0100
,  // measure 111
0010
0001
1000
0001
,  // measure 112
1000
0001
0200
0000
,  // measure 113
0000
0310
1000
0100
,  // measure 114
0020
0000
0031
1000
,  // measure 115
0001
0000
0100
0000
0010
0000
0000
0010
,  // measure 116
0000
0000
0000
0000
,  // measure 117
1000
0000
0000
1000
0000
0000
0000
0000
,  // measure 118
0000
0001
1000
0100
,  // measure 119
0010
0001
0000
1000
,  // measure 120
0010
0000
0100
0001
,  // measure 121
1000
0000
0010
0000
0100
0000
0000
0100
,  // measure 122
0000
0000
0000
0000
,  // measure 123
0001
0000
0000
0001
0000
0000
0000
0000
,  // measure 124
1000
0001
1000
0100
,  // measure 125
0010
0001
0000
1000
,  // measure 126
0010
0000
0100
0001
,  // measure 127
0000
1000
0000
0000
0200
0000
0000
0000
,  // measure 128
0000
0000
0000
0000
,  // measure 129
0000
0000
0000
0000
,  // measure 130
0000
0000
0310
0000
;
