#TITLE:The Clocktower;
#SUBTITLE:;
#ARTIST:Juan Medrano;
#TITLETRANSLIT:;
#SUBTITLETRANSLIT:;
#ARTISTTRANSLIT:;
#GENRE:;
#CREDIT:;
#MUSIC:The Clocktower.ogg;
#BANNER:The Clocktower.png;
#BACKGROUND:The Clocktower-bg.png;
#CDTITLE:;
#SAMPLESTART:16.000;
#SAMPLELENGTH:9.600;
#SELECTABLE:YES;
#OFFSET:0.000;
#BPMS:0.000=150.000
,128.000=300.000
,134.000=150.000
;
#STOPS:128.000=0.200
,129.000=0.200
,130.000=0.200
,131.000=0.200
,132.000=0.200
,133.000=0.200
;
#DISPLAYBPM:150.000;
#BGCHANGES:;
#FGCHANGES:;

//--------------- dance-single - OrangeRight ----------------
#NOTES:
     dance-single:
     OrangeRight:
     Beginner:
     3:
     0.128474,0.18259,0.027252,0,0,99,96,3,0,0,0,0.128474,0.18259,0.027252,0,0,99,96,3,0,0,0:
0000
0000
0000
0000
,
0000
0000
0000
0000
,
0000
0000
0000
0000
,
0000
0000
0000
0000
,
0000
0000
0000
0000
,
0000
0000
0000
0000
,
1000
0000
0000
0000
,
1000
0000
0000
0000
,
1000
0000
0000
0000
,
0001
0000
0000
0000
,
1000
0000
0010
0000
,
1000
0000
0000
0000
,
0001
0000
0010
0000
,
0001
0000
0000
0000
,
0001
0000
0100
0000
,
0001
0000
0000
0000
,
1000
0000
0001
0000
,
1000
0000
0000
0000
,
0100
0000
0000
0000
,
1000
0000
0001
0000
,
0100
0000
0000
0000
,
0001
0000
0000
0000
,
0010
0000
0000
0000
,
0001
0000
1000
0000
,
0010
0000
0000
0000
,
1000
0000
0001
0000
,
1000
0000
1000
0000
,
1000
0000
1000
0000
,
0001
0000
0001
0000
,
0001
0000
0001
0000
,
1000
0000
0100
0000
,
1000
0000
0000
0000
,
0001
0000
1000
0000
,
0001
0000
1001
0000
,
0000
0000
0000
0000
,
0001
0000
0000
0000
,
1000
0000
0010
0000
,
0100
0000
0000
0000
,
0010
0000
0100
0000
,
0001
0000
0000
0000
,
1000
0000
1000
0000
,
0100
0000
0000
0000
,
0010
0000
0010
0000
,
0001
0000
0100
0000
,
0010
0000
0000
0000
,
0100
0000
0010
0000
,
1000
0000
0000
0000
,
0100
0000
1000
0000
,
0100
0000
1000
0000
,
0001
0000
0100
0000
,
0010
0000
1000
0000
,
0001
0000
0001
0000
,
0001
0000
0001
0000
,
1000
0000
1000
0000
,
1000
0000
1000
0000
,
0001
0000
1000
0000
,
0001
0000
0000
0000
,
0010
0000
0100
0000
,
1000
0000
0000
0000
,
0010
0000
0100
0000
,
0001
0000
0000
0000
,
1000
0000
0001
0000
,
1000
0000
1001
0000
,
1000
0000
1000
0000
,
0001
0000
0001
0000
,
0100
0000
0010
0000
,
0000
0000
0000
0000
,
1001
0000
0000
0000
;

//--------------- dance-single - OrangeRight ----------------
#NOTES:
     dance-single:
     OrangeRight:
     Easy:
     5:
     0.253056,0.308858,0.04542,0.354278,0,195,190,5,39,0,0,0.253056,0.308858,0.04542,0.354278,0,195,190,5,39,0,0:
0000
0000
0000
0000
,
0000
0000
0000
0000
,
2000
0000
3000
0000
,
0002
0000
0003
0000
,
2000
0000
3000
0000
,
0002
0000
0003
0000
,
2000
0000
3002
0000
,
2003
0000
3002
0000
,
2003
0000
3200
0000
,
0320
0000
0032
0000
,
1003
0000
1000
0000
,
0100
1000
0100
0000
,
0010
0000
0010
0000
,
0001
1000
0001
1000
,
0001
0000
0001
0000
,
0100
0001
0100
0000
,
0010
0000
0010
0000
,
1000
0001
1000
0001
,
1000
0000
0001
0000
,
0100
0001
1000
0000
,
0010
0000
0100
0000
,
0001
0001
1000
1000
,
0001
0000
1000
0000
,
0010
1000
0001
0000
,
0100
0000
0001
0000
,
1000
0100
0010
0001
,
1000
0000
0010
0000
,
0010
0100
0002
0003
,
0001
0000
0010
0000
,
0010
0100
2000
3000
,
1000
0000
0001
0000
,
0100
0010
0100
0000
,
0001
1000
1000
0001
,
0100
0010
0110
0000
,
1001
0000
0000
0000
,
1000
0010
2000
3000
,
0001
0010
0100
0010
,
0001
0100
0010
1000
,
0001
0001
1000
0100
,
1000
0001
2000
3000
,
0100
0010
0200
0300
,
1000
0010
0001
0010
,
1000
0100
1000
0010
,
0100
0001
0001
0010
,
0010
0100
2000
3000
,
0001
0100
1000
0100
,
0001
0010
0100
1000
,
0010
0100
0001
1000
,
0100
0010
0002
0003
,
1000
0001
0010
0100
,
1000
0001
0100
0001
,
1000
0000
0100
0000
,
0010
0001
2000
3000
,
0001
0000
0100
0000
,
0010
1000
0002
0003
,
0001
0000
1000
0000
,
0100
0010
0100
1000
,
0010
0010
0100
0100
,
0001
1000
2002
3003
,
1000
1000
0001
0001
,
0010
0100
0220
0330
,
0100
1000
0010
0100
,
0001
1000
2002
3003
,
2000
3002
2003
3002
,
0203
0320
0230
0320
,
2030
3200
0320
0031
,
0000
0000
0000
0000
0000
0000
0000
1000
,
0002
0000
0000
0000
,
0103
0000
0000
0000
;

//--------------- dance-single - OrangeRight ----------------
#NOTES:
     dance-single:
     OrangeRight:
     Medium:
     10:
     0.454203,0.494173,0.127177,0.317942,0,350,336,14,35,0,0,0.454203,0.494173,0.127177,0.317942,0,350,336,14,35,0,0:
0000
0000
0000
0000
,
0000
0000
0000
0000
,
2000
3002
2003
3200
,
2300
3002
2003
3200
,
2300
3002
2003
3200
,
0320
0032
0203
0320
,
1030
0000
0001
1000
0100
0000
0010
0000
,
0001
0000
1000
0001
0100
0000
0010
0000
,
1000
0000
0001
0010
0100
0000
1000
0000
,
0001
1000
0001
1001
,
1000
0000
0100
1000
0100
0000
0010
0000
,
0001
0100
0001
0100
0001
0000
1000
0000
,
0001
0000
0010
0001
0010
0000
0100
1000
,
0100
1000
0010
0100
,
0001
0000
1000
0001
1000
0000
0010
0000
,
1000
0100
1000
0100
1000
0000
0001
0000
,
0100
0000
0010
1000
0010
0000
1000
0100
,
1000
0010
0100
0001
,
1000
0100
1000
0000
0010
0000
0100
0000
,
0001
0010
0001
0010
0002
0000
1003
0000
,
0001
0010
0001
0000
0100
0000
0010
0000
,
1000
1000
0001
0000
0001
0001
1000
0000
,
0001
1000
0001
0000
0010
0000
0100
0000
,
1000
0010
1000
0000
0002
0000
1003
0000
,
1000
0010
0100
0000
0001
0010
0100
0000
,
1000
0100
0010
0100
,
1000
0001
0100
0000
0001
1000
0100
0000
,
0010
0100
0010
0100
1000
0000
1000
0000
,
0001
1000
0010
0000
1000
0001
0010
0000
,
0100
0010
0100
0010
0001
0000
0001
0000
,
1000
0001
1000
0000
0010
0000
0100
0000
,
0001
0010
0001
0010
0001
0000
1000
0000
,
1001
1001
0110
0110
,
1001
0110
2002
3003
,
1001
0000
0000
0000
,
1000
0000
0100
1000
0001
0100
0001
0000
,
0010
0001
0100
0000
0010
1000
0100
0000
,
2000
0000
3020
0000
0130
0001
0100
0000
,
0001
0010
0100
0000
1000
0100
1000
0000
,
0002
0203
2300
0000
,
3100
0000
0001
1000
0002
0000
0003
0000
,
1000
0100
0010
0000
0001
0100
0010
0000
,
1000
0010
1000
0010
0100
0001
0100
0000
,
0002
0000
0013
0010
0010
0000
0100
0100
,
0100
0000
1000
0001
2000
0000
3000
0000
,
0001
0100
0010
0000
0100
0010
1000
0000
,
0100
1000
0001
0000
0100
0001
1000
0000
,
0010
1000
0010
0000
0100
0001
0100
0000
,
0001
0010
0001
0010
0200
0000
0300
0000
,
1000
0100
1000
0100
0010
0001
0010
0001
,
1000
0010
1000
0010
0100
0001
1000
0000
,
0001
1000
0100
0000
1000
0001
0010
0000
,
0100
0010
0100
0010
0001
0000
0001
0000
,
1000
0001
0100
0000
0001
1000
0010
0000
,
0100
0010
0100
0010
1000
0000
1000
0000
,
0001
1000
0001
0000
0010
0000
0100
0000
,
1000
0010
1000
0010
1000
0000
0001
0000
,
1000
0010
0100
0000
0001
0010
0100
0000
,
1000
0001
1000
0001
2000
0000
3000
0000
,
0001
0100
0010
0000
1000
0100
0010
0000
,
0001
1000
0001
1000
0002
0000
0003
0000
,
1000
0010
0001
0000
0001
0010
1000
0000
,
1000
0001
1000
0001
2002
0000
3003
0000
,
1000
0100
0010
0011
,
0001
0100
0010
1010
,
1000
0001
1000
1001
,
0000
0000
0000
0000
0000
0000
0000
0001
,
2002
0000
3003
0000
,
0100
0000
0000
0000
;

//--------------- dance-single - OrangeRight ----------------
#NOTES:
     dance-single:
     OrangeRight:
     Hard:
     12:
     0.6268,0.648601,0.317942,0.33611,0.090841,483,448,35,37,0,0,0.6268,0.648601,0.317942,0.33611,0.090841,483,448,35,37,0,0:
0000
0000
0000
0000
,
0000
0000
0000
0000
,
2000
3200
0320
0032
,
2003
3020
0230
0302
,
2003
3002
0023
0230
,
2300
3200
0302
0203
,
1300
0000
0010
0000
1000
0000
0000
1000
0001
0000
0100
0000
0001
0000
0000
0000
,
1000
0000
0100
0000
1000
0000
0000
1000
0001
0000
0010
0000
0001
0000
0000
0000
,
0100
0000
0001
0000
0100
0000
0000
0001
1000
0000
0010
0000
1000
0000
0000
0000
,
1010
0000
0000
0000
1001
0000
0000
0000
1100
0000
0000
0100
0010
0000
0001
0000
,
1000
1000
0001
0100
0001
0100
0010
0100
,
0010
1000
0100
1000
0010
0000
1010
0000
,
1000
1000
0001
0100
0010
0100
0001
1000
,
0001
0001
0010
0010
0100
0100
1000
1000
,
0001
0001
1000
0010
1000
0010
0100
0010
,
0100
0001
0010
0001
0100
0000
0101
0000
,
0001
0001
0010
0100
0010
0001
0100
0010
,
1000
0100
0010
0001
1000
0010
0100
0001
,
1000
1000
0001
0100
0010
0100
0001
1000
,
0001
0010
0100
1000
0100
0000
1100
0000
,
0100
0100
1000
0010
0100
0001
0010
0001
,
1000
1000
0001
0001
0100
0100
0010
0100
,
0001
0001
1000
0010
0001
0010
1000
0100
,
0010
0001
0100
0010
1000
0000
1001
0000
,
1000
0010
0100
0010
1000
0001
0010
0001
,
1000
0100
0010
0001
0100
0001
0010
0100
,
1000
0100
0010
0100
1000
0100
0001
0100
,
1000
0000
0010
0000
0100
0000
0001
0010
0002
0000
0000
0000
1003
0000
0000
0000
,
0001
0100
0010
0100
0001
0100
1000
0100
,
0010
0000
1000
0000
0100
0000
1000
0001
2000
0000
0000
0000
3001
0000
0000
0000
,
0001
0001
0010
1000
0010
0001
0100
0010
,
1000
0000
0100
0000
0010
0000
0100
0000
1000
0000
0000
1000
0010
0000
0100
0000
,
0101
1001
1100
1001
,
0011
0000
1010
0000
1001
1000
0100
0010
,
0110
0000
0100
0000
0100
0000
0100
0100
,
2000
0000
3001
0100
0001
0020
0000
0031
,
0100
0000
0010
1000
0010
0000
0100
0000
0001
0000
1000
0000
0100
0000
0010
0000
,
0110
0000
0000
0000
1001
0000
0000
0000
0001
1000
0001
0000
0100
0000
0000
0000
,
0010
0000
1000
0100
1000
0000
0001
0000
0100
0000
0010
0000
1000
0000
0100
0000
,
2000
3002
0023
0001
,
0130
1000
0010
0100
0002
0000
1000
0000
,
1003
0100
0010
0001
1000
0010
0100
0010
,
1000
0000
0001
0000
0100
0010
0000
0000
1000
0000
0100
0000
0100
0000
0010
0000
,
0012
0000
1003
1000
1000
0001
0001
0100
,
0010
0000
1000
0100
1000
0000
0001
0000
2000
0000
0000
0000
3001
0000
0010
0000
,
0001
1000
0010
0100
0001
1000
0100
1000
,
0001
0100
0010
1000
0100
0010
0001
1000
,
0001
0100
0010
1000
0100
1000
0010
0100
,
0001
0010
1000
0010
0002
0000
1003
0000
,
1000
0010
1000
0000
0010
0000
0100
0000
0001
0010
0001
0000
0010
0000
0100
0000
,
1000
0001
1000
0001
1000
0000
0010
0000
0100
0000
0001
0000
0010
0000
0100
0000
,
1000
0100
0001
0100
1000
0100
0010
0100
,
1000
0000
0010
0000
0100
0000
0001
0010
0002
0000
0000
0000
1003
0000
0000
0000
,
0001
0010
1000
0010
0001
0010
0100
0010
,
0001
0000
0000
0001
0100
0000
0010
0000
1000
0001
1000
0001
1000
0000
0000
0000
,
1000
1000
0001
0100
1000
0100
0001
0010
,
0001
0100
0010
1000
0200
0000
1300
0010
,
1000
0100
0001
0100
0010
0100
1000
0010
,
0100
0001
1000
0001
2002
0000
3003
1000
,
0001
0100
1000
0100
0010
0100
0001
0010
,
0100
1000
0001
0100
0220
0000
0330
0100
,
0010
1000
0100
0001
0100
1000
0010
0001
,
0010
1000
0100
0010
0022
0000
0033
0000
,
0101
0101
1100
1100
,
1010
1010
0011
0011
,
0101
1100
1010
1001
,
0000
0000
0000
0000
0000
0000
0000
0110
,
2002
0000
3003
0000
,
0100
0000
0000
0000
;

//--------------- dance-single - OrangeRight ----------------
#NOTES:
     dance-single:
     OrangeRight:
     Challenge:
     15:
     0.779931,0.80303,0.345194,0.227101,0.363362,601,563,38,25,0,0,0.779931,0.80303,0.345194,0.227101,0.363362,601,563,38,25,0,0:
0000
0000
0000
0000
,
0000
0000
0000
0000
,
2000
3020
0032
0023
,
2030
3200
0302
0203
,
2300
3020
0032
0023
,
2030
0000
3002
0000
0013
0100
1000
0010
,
1000
0000
1000
0000
0100
0000
0100
1000
0010
0000
0010
0100
0001
0000
1000
0000
,
0001
0000
0001
0000
0010
0000
0010
0001
0100
0000
0100
0010
1000
0000
0001
0000
,
1000
0000
0001
1000
0010
0000
1000
0001
0100
0000
0001
1000
0010
0000
1000
0000
,
1100
0000
1000
0000
1001
0000
0001
0000
0101
0000
0100
0001
1000
0000
0010
0000
,
1000
1000
0001
0010
1000
0010
0001
0010
,
0100
1000
0010
0100
0101
0000
0011
0000
,
0001
0001
0100
1000
0100
0010
0100
0001
,
1000
0010
1010
1000
0001
0010
0011
0001
,
1000
1000
0001
0100
1000
0100
0010
0100
,
0001
0010
0100
1000
1100
0000
1010
0000
,
0010
0010
1000
0100
0001
0100
1000
0010
,
1000
0000
0100
0000
0010
0000
0001
0000
1000
0000
0010
0000
0100
0000
0001
0100
,
0001
0001
1000
0010
0001
0010
1000
0010
,
0100
0001
0010
0100
1100
0000
1010
0000
,
1000
1000
0100
0001
0100
0010
0100
1000
,
0001
0010
0011
0001
1000
0010
1010
1000
,
0001
0001
1000
0100
0001
1000
0010
0001
,
1000
0010
0100
1000
1100
0000
0101
0000
,
0001
0010
0100
0001
0100
1000
0010
0100
,
0001
0000
0010
0000
0100
0000
1000
0000
0010
0000
1000
0000
0100
0000
0010
0001
,
0010
0001
0101
0100
0010
1000
1100
0100
,
0010
0000
0001
0000
1000
0000
0010
0100
0001
0000
0010
0000
0100
0000
1000
0000
,
0010
1000
1100
0100
0010
0001
0101
0100
,
0010
0000
1000
0000
0001
0000
0010
0000
0100
0000
1000
0100
1000
0000
0001
0100
,
0001
0000
1000
0010
1000
0000
0001
0000
1000
0000
0001
0100
0001
0000
1000
0000
,
0001
0000
0010
0001
1000
0000
0010
0000
1000
0000
0100
1000
0001
0000
0100
0000
,
0101
0110
1010
1100
,
0110
0000
0000
0000
0011
0000
0000
0000
1001
0000
1000
0100
1000
0100
0010
0001
,
0100
0000
0100
0000
0100
0000
0100
0100
,
0002
0000
1000
0000
1003
0100
0010
0001
0100
0000
0010
0000
0100
0000
0001
0000
,
0010
0000
0000
0000
0000
0000
0001
0000
0100
0000
0010
0000
0100
0000
0000
0000
0000
0000
0001
0000
0000
0000
0000
0000
0010
0000
0000
0000
0000
0000
0100
0000
0000
0000
0000
0000
1000
0000
0000
0000
0000
0000
0001
0000
0000
1000
0000
0000
,
0002
0000
0100
0000
2003
0000
0010
0000
3001
0100
0010
0100
0001
0000
0010
0001
,
1000
0000
0000
0000
0000
0000
0010
0000
1000
0000
0010
0000
0100
0000
0000
0000
0000
0000
0001
0000
0000
0000
0000
0000
0010
0000
0000
0000
0000
0000
0100
0000
0000
0000
0000
0000
1000
0000
0000
0000
0000
0000
0010
0000
0000
1000
0000
0000
,
0002
0000
0010
0000
2003
0000
0100
0000
3002
0000
0100
0000
1003
0000
0001
1000
,
0001
0000
0100
0001
0010
0000
0100
0000
2000
0000
0010
0000
3001
0000
1000
0001
,
0100
0000
0010
0000
1000
0000
0100
0000
0001
0000
0100
0000
0010
0000
0100
1000
,
0001
0000
0100
0000
0010
1000
0001
0000
0010
0000
0100
0000
1000
0000
0001
0000
,
2001
0000
3001
0001
0001
1000
1000
0100
,
0001
0000
0000
0000
0000
0000
0100
0000
1000
0000
0010
0000
0100
0000
0000
0000
0000
0000
0001
0000
0000
0000
0000
0000
2000
0000
0000
0000
0000
0000
0001
0000
0000
0000
0000
0000
3001
0000
0000
0000
0000
0000
1000
0000
0000
0001
0000
0000
,
1000
0000
0100
0000
0001
0000
0100
0000
1000
0000
0010
0000
0001
0000
0010
1000
,
0100
0000
0010
0000
0001
0000
0100
0010
1000
0000
0001
0000
0010
0000
0001
1000
,
0001
0000
0100
0000
1000
0000
0100
0000
0010
0000
0100
0000
0001
0000
1000
0100
,
1000
0010
0001
0010
1000
0100
0010
0001
,
1000
0001
1000
0000
0001
0100
0001
0000
0100
0010
0100
0000
0010
1000
0010
0000
,
1000
0100
0010
0001
0100
0010
0100
0001
0010
0000
0001
0100
0010
0000
1000
0000
,
0100
0000
1000
0000
1010
0000
0010
0000
0100
0000
0001
0000
0011
0000
0010
0001
,
1000
0000
0010
0000
0001
0000
0010
0000
1010
0000
1000
0000
0100
0000
0010
0001
,
0100
0000
0001
0000
0011
0000
0010
0000
0100
0000
1000
0000
1010
0000
0010
1000
,
0100
0000
0010
0001
0100
0000
0001
0000
1000
0100
0010
0001
0100
0010
1000
0001
,
1000
0000
1000
0000
0010
0000
0001
0000
0010
0000
0100
0000
0010
0000
1000
0001
,
0010
0000
1000
0000
0010
0000
0001
0000
0100
0000
0010
0000
1000
0000
0001
0010
,
0001
0000
0100
0000
1000
0000
0100
0000
0010
0000
0100
0000
0001
0000
0010
0100
,
1000
0000
0010
0000
0001
0000
0010
0000
1010
0000
1000
0100
0010
0000
0001
0000
,
1000
0000
0010
0000
0001
0000
0010
0000
0100
0000
0010
0000
1000
0000
0100
0010
,
0001
0000
0100
0000
1000
0000
0100
0000
0101
0000
0001
0000
0010
0000
0100
1000
,
0001
0000
0100
0000
1000
0000
0100
0000
0001
0000
0010
0000
1000
0000
0010
0001
,
0100
0000
0010
0000
1000
0000
0001
0000
1001
0000
1000
0010
1000
0001
0010
0100
,
1000
0000
1000
0000
0010
0000
0010
0100
0001
0000
0001
0010
0100
0000
0100
0010
,
0001
0000
0001
0000
0100
0000
0100
0010
1000
0000
1000
0100
0010
0000
0010
0100
,
1000
0000
0001
1000
0010
0000
1000
0001
0010
0000
0100
0000
1100
0000
0000
0000
,
0000
0000
0000
0000
0000
0000
0000
1010
,
0202
0000
0000
0000
0000
0000
0000
0000
0000
0000
0000
0000
0303
0000
0000
0000
0000
0000
0000
0000
0000
0001
0010
0100
,
1000
0000
0000
0000
;
