#VERSION:0.83;
#TITLE:The 88's Instigation;
#SUBTITLE:;
#ARTIST:MYUKKE.;
#TITLETRANSLIT:;
#SUBTITLETRANSLIT:;
#ARTISTTRANSLIT:;
#GENRE:;
#CREDIT:chronon;
#MUSIC:The 88's Instigation.ogg;
#BANNER:The 88's Instigation.png;
#BACKGROUND:The 88's Instigation-bg.png;
#CDTITLE:;
#SAMPLESTART:72.889;
#SAMPLELENGTH:14.222;
#SELECTABLE:YES;
#OFFSET:0.000;
#BPMS:0.000=135.000;
#STOPS:;
#BGCHANGES:;
#FGCHANGES:;

//--------------- dance-single - chronon ----------------
#NOTEDATA:;
#STEPSTYPE:dance-single;
#DESCRIPTION:chronon;
#DIFFICULTY:Beginner;
#METER:2;
#RADARVALUES:0,0,0,0,0;
#NOTES:
0000
0000
0000
0000
,
0000
0000
0000
0000
,
0000
0000
0000
0000
,
0000
0000
0000
0000
,
0000
0000
0000
0000
,
1000
0000
0000
0000
,
0100
0000
0000
0000
,
0010
0000
0000
0000
,
0001
0000
0000
0000
,
1000
0000
1000
0000
,
0000
0000
0000
0000
,
0001
0000
0001
0000
,
0000
0000
0000
0000
,
0100
0000
0100
0000
,
0000
0000
0000
0000
,
0010
0000
0010
0000
,
1000
0000
0001
0000
,
1000
0000
1000
0000
,
1000
0000
0000
0000
,
0001
0000
0001
0000
,
0001
0000
0000
0000
,
1000
0000
1000
0000
,
1000
0000
0000
0000
,
0002
0000
0000
0003
,
0000
0000
0000
0000
,
1000
0000
0100
0000
,
0100
0000
0000
0000
,
0010
0000
0001
0000
,
0001
0000
0000
0000
,
0001
0000
0100
0000
,
0100
0000
0000
0000
,
0010
0000
1000
0000
,
1000
0000
0000
0000
,
0002
0000
0000
0003
,
2000
0000
0000
3000
,
0002
0000
0000
0003
,
0000
0000
0000
0000
,
1000
0000
0000
0000
,
0100
0000
0000
0000
,
0010
0000
0000
0000
,
0001
0000
0000
0000
,
1000
0000
1000
0000
,
0010
0000
0010
0000
,
0100
0000
0100
0000
,
0001
0000
0000
0000
,
0001
0000
0001
0000
,
0010
0000
0010
0000
,
0100
0000
0100
0000
,
1000
0000
0000
0000
,
0001
0000
0001
0000
,
0001
0000
0000
0000
,
1000
0000
0010
0000
,
0100
0000
0000
0000
,
0010
0000
0100
0000
,
0001
0000
0000
0000
,
2000
0000
0000
3000
,
0000
0000
0000
0000
,
1001
0000
0000
0000
,
0000
0000
0000
0000
,
0000
0000
0000
0000
,
0000
0000
0000
0000
,
0001
0000
0010
0000
,
0010
0000
0000
0000
,
0100
0000
0100
0000
,
1000
0000
0001
0000
,
1000
0000
0000
0000
;

//--------------- dance-single - chronon ----------------
#NOTEDATA:;
#STEPSTYPE:dance-single;
#DESCRIPTION:chronon;
#DIFFICULTY:Easy;
#METER:5;
#RADARVALUES:0,0,0,0,0;
#NOTES:
0000
0000
0000
0000
,
0000
0000
0000
0000
,
0000
0000
0000
0000
,
0000
0000
0000
0000
,
0000
0000
0000
0000
,
0001
0010
0100
0000
,
1000
0010
0100
0000
,
0001
0001
1000
1000
,
0000
0000
0000
0000
,
0001
0010
0100
0010
,
0001
0000
1000
0000
,
1000
0010
0100
0010
,
1000
0000
1000
0000
,
0001
0100
0010
0100
,
0001
0000
0001
0000
,
1000
0100
0010
0100
,
1000
0000
0001
1000
,
0001
0010
0001
0010
,
0001
0010
0001
0000
,
1000
0010
1000
0010
,
1000
0000
0001
0000
,
1000
0100
1000
0100
,
1000
0100
1000
0000
,
0001
0001
1000
1000
,
0000
0000
0000
0000
,
0001
0000
0100
0010
,
1000
0000
0100
0010
,
0001
0000
0010
0100
,
1000
0000
0010
0010
,
1000
0000
0010
0100
,
0001
0000
0010
0100
,
1000
0000
0001
1000
,
0000
0000
0000
0000
,
0002
0000
0003
0000
,
0020
0000
0030
0000
,
0200
0000
0300
0000
,
2000
0000
3000
0000
,
0001
0000
0001
0000
,
1000
0000
1000
0000
,
0001
0001
1000
1000
,
0000
0000
0000
0000
,
1000
0100
0010
0000
,
0100
0010
0001
0000
,
0001
0100
0010
0000
,
0100
0010
1000
0000
,
1000
0010
0100
0000
,
0010
0100
0001
0000
,
1000
0000
0001
1000
,
0000
0000
0000
0000
,
0002
0003
0002
0003
,
0002
0003
1000
0001
,
1000
0100
0100
1000
,
0001
0100
0100
0001
,
1000
0010
0010
1000
,
0001
0010
0010
0001
,
1000
1000
0001
0001
,
0000
0000
0000
0000
,
1001
0000
0000
0000
,
0000
0000
0000
0000
,
0000
0000
0000
0000
,
0000
0000
0000
0000
,
1000
0010
0100
0001
,
1000
0001
0010
0100
,
1000
1000
0001
0001
,
0100
0100
0100
0001
,
1000
0000
0000
0000
;

//--------------- dance-single - chronon ----------------
#NOTEDATA:;
#STEPSTYPE:dance-single;
#DESCRIPTION:chronon;
#DIFFICULTY:Medium;
#METER:9;
#RADARVALUES:0,0,0,0,0;
#NOTES:
0000
0000
0000
0000
,
0000
0000
0000
0000
,
0000
0000
0000
0000
,
0000
0000
0000
0000
,
0000
0000
0000
0000
,
2000
0000
3001
0000
0010
0100
1000
0020
,
0000
0130
0001
0000
0100
0001
1000
0000
,
0001
0010
0100
0000
0010
0100
1000
0010
,
0000
0010
0000
0010
0000
0010
0010
0010
,
2000
3000
0002
0003
0100
0010
0100
0000
,
0001
0010
0100
0000
0001
0100
1000
0000
,
0001
0001
1000
0000
0010
1000
0010
0000
,
1000
0010
0001
0010
,
2000
3000
0002
0003
0010
0001
0010
0000
,
0100
0000
1000
0000
0001
0000
0000
0100
0000
0001
0000
1000
0000
0000
0000
0000
,
0002
0000
1003
0000
0010
0100
0001
0000
,
1000
0000
0001
0000
0010
0100
1000
0000
,
0001
0001
0010
0000
0001
0001
1000
0000
,
0001
0001
0010
0000
0001
0000
1000
0000
,
1000
1000
0010
0000
1000
1000
0001
0000
,
1000
0010
0100
0001
,
1000
1000
0100
0000
1000
1000
0001
0000
,
1000
1000
0100
0000
1000
0000
0001
0000
,
1000
0000
0010
0000
0100
0000
0000
0000
0010
0000
0100
0000
0001
0000
0020
0030
,
0000
0000
0200
0300
0000
0000
0002
0003
0000
0000
0100
0000
1000
0000
0000
0000
,
0002
0000
1003
0100
0010
0100
1000
0020
,
0000
0130
0001
0000
0100
0001
1000
0000
,
2000
0000
3001
0010
0100
0010
0001
0200
,
0000
0301
0100
0000
0010
1000
0001
0000
,
0002
0000
1003
0010
0100
0010
1000
0200
,
0000
1300
0100
0000
0010
0001
1000
0000
,
0001
0100
0001
0000
1000
0100
1000
0010
,
0000
0010
0000
0010
0000
0010
0010
0000
,
2000
0000
3020
0000
,
0230
0000
0302
0000
,
2003
0000
3200
0000
,
0320
0000
0032
0003
,
1000
1000
1000
0000
,
0001
0001
0001
0000
,
0100
0000
0010
0000
1000
0000
0001
0010
,
0000
0010
0000
0010
0000
0010
0010
0000
,
0001
0010
0100
0000
1000
0000
1001
0000
,
1000
0010
0100
0000
0001
0000
1001
0000
,
1000
0010
0100
0000
0001
0000
1001
0000
,
0001
0010
0100
0000
1000
0001
1000
0000
,
0001
0100
0010
0000
1000
0000
1001
0000
,
1000
0100
0010
0000
0001
0000
1001
0000
,
1000
0000
0001
0100
0010
0100
0001
0010
,
0000
0100
1000
0000
0001
0000
1001
0000
,
1000
1000
0001
0000
1000
1000
0001
0000
,
1000
1000
0001
0000
1000
0000
0100
0000
,
1000
0100
1000
0000
0001
0010
0001
0000
,
1000
0010
1000
0000
0001
0100
0001
1000
,
0001
0010
0001
0000
1000
0100
1000
0000
,
0001
0100
0001
0000
1000
0010
1000
0001
,
1000
0100
0010
0000
0100
0010
0001
0100
,
0000
0010
0100
0000
0001
0000
1000
0000
,
0001
0100
0010
0010
,
1000
0100
0010
0001
,
1000
0000
0100
0000
0010
0000
0010
0001
,
0000
1000
0001
0000
1000
0001
1000
0000
,
0002
0000
1003
0001
0100
0010
1000
0200
,
0000
1300
0100
0000
0100
1000
0001
0000
,
1000
0010
0100
0000
0010
0100
0001
0010
,
0000
0010
0100
2000
0000
3001
0001
0002
,
0003
0000
0000
0000
;

//--------------- dance-single - chronon (regular chart) ----------------
#NOTEDATA:;
#STEPSTYPE:dance-single;
#DESCRIPTION:chronon (regular chart);
#DIFFICULTY:Hard;
#METER:14;
#RADARVALUES:0,0,0,0,0;
#NOTES:
0000
0000
0000
0000
,
0000
0000
0000
0000
,
0000
0000
0000
0000
,
0000
0000
0000
0000
,
0000
0000
0000
0000
,
0002
0000
0000
0000
0013
0000
0100
1000
0020
0000
0230
0000
0301
1000
0002
0000
,
0000
0000
1003
0001
0010
0000
0001
1000
0010
0000
0100
0000
0001
1000
0100
0000
,
1000
0100
0010
0000
0100
0010
0001
0000
1000
0100
0010
0001
0100
0000
0101
0000
,
0000
0110
0000
2010
0000
3001
0001
0001
,
1000
0100
1000
0100
0001
0100
1000
0002
,
0010
0000
1003
0001
1000
0000
0010
0200
1000
0000
0320
0000
0001
0000
0130
0000
,
0001
1000
0000
1000
0200
0000
0320
0000
0031
1000
0001
0000
0200
0000
0320
0000
,
1030
0001
0010
0000
0001
0010
0200
0000
0001
0000
0320
0000
1000
0000
0130
0000
,
0010
0000
1001
0000
0010
0000
1001
0000
1000
0000
0001
0100
0010
0000
1000
0000
,
0001
0000
0010
0000
0100
0000
0010
0001
0000
0010
0000
0100
0002
0000
0203
0000
,
0310
0001
1000
0100
1000
0000
0100
0010
0000
0010
0001
0000
0200
0000
0000
0000
,
0301
0000
0100
0020
0000
0000
0130
0000
2000
0000
3100
0000
0001
0000
0000
0000
,
0001
0100
0010
0000
0101
0000
0000
0000
1000
0100
0010
0000
1100
0000
0000
0000
,
0001
0100
0010
0000
0101
0000
1000
0001
0000
1000
0100
0000
1100
0000
0000
0000
,
1000
0100
0010
0000
1100
0000
0000
0000
0001
0100
0010
0000
0101
0000
0000
0000
,
0001
0100
0001
0000
1000
0100
1000
0000
0100
1000
0020
0000
0130
0001
0020
0000
,
0031
0010
0100
0000
0011
0000
0000
0000
1000
0010
0100
0000
1010
0000
0000
0000
,
0001
0010
0100
0000
0011
0000
1000
0001
0000
1000
0010
0000
1000
0001
1000
0000
,
0001
0010
0100
0000
0010
0100
1000
0000
0001
0010
0100
1000
0010
0000
1020
0030
,
0000
0000
0201
0300
0000
0000
2001
3000
0000
0000
0010
0000
1001
0000
0000
0000
,
0002
0000
0000
0000
1003
0010
0100
0001
0020
0000
0230
0000
1300
0001
2000
0000
,
0000
0000
3001
1000
0010
0000
1000
0001
0010
0000
0100
0000
1000
0000
0001
0000
,
2000
0000
0000
0000
3001
0100
0010
0100
2000
0000
3200
0000
0301
1000
0002
0000
,
0000
0000
1003
0001
0010
0000
0001
0000
0011
0000
0000
0000
1001
0000
0000
0000
,
2000
0000
0000
0000
3001
0010
0100
1000
0020
0000
0230
0000
0301
1000
0002
0000
,
0000
0000
1003
0001
0010
0000
0001
1000
0010
0000
0100
0000
0001
1000
0001
0000
,
1000
0000
0100
1000
0000
0100
1000
0000
0001
0000
0100
0001
0100
0000
0101
0000
,
0000
0000
0110
0000
0000
0000
2010
0000
0000
0000
3002
0003
0002
0003
0000
0000
,
2000
0010
3002
0010
,
2003
0100
3002
0100
,
2003
0010
3002
0100
,
1003
0000
0100
0000
0010
0001
0100
0000
,
0001
0001
0100
0100
,
0010
0010
1000
1000
,
0001
0010
0100
1000
0100
1000
0010
1010
,
0000
0110
0000
0102
0000
1003
0001
0000
,
1000
0000
0100
0000
0010
0000
0200
0000
0001
0000
0000
0010
0000
0000
1300
0000
,
0001
0000
1000
0000
0010
0000
0001
0000
0010
0000
0100
0001
0000
0001
1000
0000
,
0001
0000
0010
0000
0100
0000
0020
0000
1000
0000
0000
0100
0000
0000
0031
0000
,
1000
0000
0001
0010
0100
0000
1000
0010
0100
0000
0010
0000
1001
0000
0000
0000
,
0001
0000
0100
0000
0010
0000
0200
0000
1000
0000
0000
0010
0000
0000
0301
0000
,
1000
0000
0001
0000
0010
0000
0100
0000
1000
0100
0000
0010
0000
0100
1000
0000
,
0001
0000
0010
0000
0100
0000
0010
0001
0200
0000
0320
0000
0130
0000
0101
0000
,
0000
0000
0001
0100
0001
0100
0001
0000
0020
0000
0130
0000
1001
0000
0000
0000
,
1000
0200
0010
0000
1300
0000
0000
0000
0001
0200
0010
0000
0301
0000
0000
0000
,
1000
0200
0010
0000
1300
0000
0001
1000
0000
0001
0100
0000
0010
0000
0010
0000
,
1000
0000
0010
1000
0001
1000
0100
0000
0010
0000
0100
1000
0001
1000
0020
0000
,
0000
0130
0001
0100
1000
0100
0001
1000
,
0001
0000
0100
0010
0100
0001
0010
0000
0100
0000
0010
0100
0010
0001
0200
0000
,
0000
0310
1000
0010
0001
0010
1000
0001
,
1000
0010
0100
0000
0010
0100
0001
0000
1000
0010
0100
0001
0010
0000
0011
0000
,
0000
0000
0001
0010
0100
0000
1000
0010
0200
0000
0000
0000
0310
0000
0000
0000
,
1000
0000
0000
0000
0001
0000
0000
0100
0000
0000
0100
0000
0001
0000
1000
0000
,
0001
2000
3200
0320
,
0031
0000
0000
0000
1000
0000
0000
0100
0000
0000
0100
0000
1000
0000
1001
0000
,
0000
0000
0001
0000
1000
0000
0010
1000
0001
0000
1000
0000
0200
0000
0000
0000
,
1300
0000
0100
0000
1000
0100
0010
0001
0200
0000
0320
0000
1030
0001
1000
0000
,
0001
0000
1000
0001
0010
0000
0001
1000
0010
0000
0100
0000
0001
1000
0100
0000
,
1000
0100
0010
0000
0100
0010
0001
0000
1000
0100
0010
0001
0100
0000
0201
0000
,
0000
0310
1000
0200
0000
0310
0010
0010
,
2000
3000
0000
0000
0000
0000
0000
0000
0000
0000
0000
0000
0000
0000
0000
0000
;

//--------------- dance-single - chronon (center panel tech chart) ----------------
#NOTEDATA:;
#STEPSTYPE:dance-single;
#DESCRIPTION:chronon (center panel tech chart);
#DIFFICULTY:Challenge;
#METER:15;
#RADARVALUES:0,0,0,0,0;
#NOTES:
0000
0000
0000
0000
,
0000
0000
0000
0000
,
0000
0000
0000
0000
,
0000
0000
0000
0000
,
0000
0000
0000
0000
,
2000
0000
0000
0000
3001
1000
0010
1000
0200
0000
0320
0000
0031
1000
0002
0000
,
0000
0000
1003
0001
0100
0000
0001
0100
0010
1000
0001
1000
0100
0010
0001
0000
,
1000
0100
1000
0100
0010
0001
0010
0001
1000
0100
0010
0001
0100
0000
0101
0000
,
0000
0110
0000
1010
0000
1001
1001
1001
,
0001
0100
0001
2000
0MMM
3002
MMM0
2003
,
0001
0000
3100
1000
0100
0010
0001
2000
0MMM
0000
3002
0000
MMM0
0000
1003
0000
,
0001
0100
0000
0200
M0MM
0000
0301
0000
1000
0001
1000
0200
M0MM
0000
1300
0000
,
0001
0010
0100
1000
0001
1000
0010
0200
M0MM
0000
0301
2000
0MMM
0000
3001
0000
,
1000
0000
0110
0000
0001
0000
0110
0000
1001
0000
1000
0001
0100
0010
1000
0000
,
0001
0000
1000
0000
0100
0000
M100
0001
0000
1000
0000
0001
MMM0
0000
0MMM
0000
,
1000
0010
0100
0001
1000
0000
0001
1000
0010
1000
0100
0000
2000
0000
0000
0000
,
3100
0010
0001
2000
0000
3001
1000
0100
0002
0000
0103
0010
0002
0000
0000
0000
,
1003
0010
0100
0000
MMMM
0000
0000
0000
0001
0010
0100
0000
MMMM
0000
0000
0000
,
1000
0010
0100
0000
MMMM
0000
0001
0010
0000
0100
1000
0000
0001
0000
0100
0000
,
0001
0100
0010
0000
MMMM
0000
0000
0000
1000
0100
0010
0000
MMMM
0000
0000
0000
,
0001
0100
0010
0100
0001
1000
0100
0010
0100
1000
0MMM
0000
0100
0001
MMM0
0000
,
0001
0010
0100
0000
MMMM
0000
0000
0000
1000
0010
0100
0000
MMMM
0000
0000
0000
,
0001
0010
0100
0000
MMMM
0000
1000
0010
0000
0100
0001
0000
0010
0100
1000
0000
,
0001
0010
0001
0010
0100
1000
0100
1000
0001
0010
0100
1000
0010
0000
1020
0030
,
0000
0000
0201
0300
0000
0000
2001
3000
2002
0000
3003
0000
MMMM
0000
0000
0000
,
1000
0000
0000
0000
0000
0000
0100
0000
0000
0000
0000
0000
1000
0000
0000
0100
0000
0000
0010
0000
0000
0001
0000
0000
0200
0000
0000
0000
0000
0000
0320
0000
0000
0000
0000
0000
1030
0000
0010
0000
1000
0000
0010
0000
0000
0000
0000
0000
,
1000
0000
0001
1000
0010
0100
0001
1000
0001
0000
0010
0000
0011
0000
0000
0000
,
0001
0000
0000
0000
0000
0000
0010
0000
0000
0000
0000
0000
0001
0000
0000
0010
0000
0000
0100
0000
0000
0010
0000
0000
2000
0000
0000
0000
0000
0000
3020
0000
0000
0000
0000
0000
0031
0000
0010
0000
0001
0000
0010
0000
0000
0000
0000
0000
,
0001
0000
1000
0001
0010
0100
1000
0001
1000
0000
0001
0000
MMMM
0000
0000
0000
,
1000
0000
0000
0000
0000
0000
0010
0000
0000
0000
0000
0000
1000
0000
0000
0010
0000
0000
0100
0000
0000
0001
0000
0000
0020
0000
0000
0000
0000
0000
0230
0000
0000
0000
0000
0000
1300
0000
0100
0000
1000
0000
0100
0000
0000
0000
0000
0000
,
1000
0000
0001
1000
0100
0010
0100
1000
0001
1000
0010
0100
0001
1000
0100
0010
,
0001
0000
0010
0100
0000
0010
0100
1000
0001
0000
1000
0010
1000
0000
1010
0000
,
0000
0000
0110
0000
0000
0000
0101
0000
0000
0000
2002
3003
2002
3003
0000
0000
,
0002
0100
2003
0100
,
3002
0010
2003
0010
,
3002
0100
2003
0010
,
3001
0000
0010
0000
0100
1000
0010
0000
,
1000
0010
1000
0000
0010
0100
0010
0000
,
0100
0001
0100
0000
0001
1000
0001
0000
,
1000
0100
1000
0100
0010
0001
0010
0001
1000
0100
0010
0001
0100
0000
0101
0000
,
0000
0000
0110
0000
0000
0000
1010
0000
0000
0000
1000
0001
1000
0000
0000
0000
,
0001
0000
0010
0000
0100
0000
0002
0000
0103
0000
0010
MM0M
0000
MMM0
0001
0000
,
1000
0000
0010
0000
0100
0000
2000
0000
3100
0010
0100
M0MM
0000
MMM0
0001
1000
,
0001
0000
0010
0000
0100
0000
0010
0000
2000
0000
3010
MM0M
0000
MMM0
0001
0000
,
1000
0000
0001
1000
0010
0100
0000
0001
1000
0000
0001
0000
MMMM
0000
0000
0000
,
1000
0000
0010
0000
0100
0000
2000
0000
3100
0000
0010
MM0M
0000
0MMM
1000
0000
,
0001
0000
0010
0000
0100
0000
1000
0000
0001
1000
0000
0MMM
0000
MMM0
0001
1000
,
0001
0000
1000
0010
1000
0001
0100
0001
0020
0000
0130
1000
0100
0000
1100
0000
,
0000
0000
1000
0100
1000
0001
1000
0000
0020
0000
0130
0000
MMMM
0000
0000
0000
,
0001
0200
0010
0000
M3MM
0000
0000
0000
1000
0200
0010
0000
M3MM
0000
0001
1000
,
0001
0200
0010
0000
M3MM
0000
1000
0100
0000
0010
0001
0000
0100
0000
0100
0000
,
0001
MMM0
0MMM
1000
0001
1000
0100
0000
1000
0MMM
MMM0
0001
1000
0001
0200
0000
,
0301
MMM0
0MMM
1000
0001
1000
0100
0010
0002
0000
0203
0000
0320
0000
0230
0000
,
0301
MMM0
0MMM
1000
0010
1000
0100
0000
1000
0MMM
MMM0
0001
0010
0001
0200
0000
,
0301
MMM0
0MMM
1000
0001
0010
0100
0010
2000
0000
3020
0000
0130
0010
0001
0000
,
1000
0100
1000
0100
0010
0001
0010
0001
1000
0100
0010
0001
0100
0000
0101
0000
,
0000
0000
0001
0100
0001
1000
0001
0000
0020
0000
0130
0000
MMMM
0000
0000
0000
,
0001
0000
0000
0000
1000
0000
0000
0010
0000
0000
0010
0000
1000
0000
0001
0000
,
1000
0002
0023
0230
,
1300
0000
0000
0000
0001
0000
0000
0010
0000
0000
0010
0000
0001
0000
1001
0000
,
0000
0000
1000
0010
0100
0000
0001
0010
0100
0000
0010
0001
0100
0010
1000
0001
,
1000
0000
0000
0000
0000
0000
0001
0000
0000
1000
0000
0000
0001
0000
0000
0100
0000
0000
0010
0000
0000
1000
0000
0000
0200
0000
0000
0000
0000
0000
0320
0000
0000
0000
0000
0000
0031
0000
0010
0000
0100
0000
1000
0000
0000
0000
0000
0000
,
0001
0000
1000
0001
0010
0100
1000
0001
1000
0010
0100
0010
0001
0010
0100
0010
,
1000
0010
1000
0010
0100
0001
0100
0001
1000
0010
0100
0001
0010
0000
0021
0000
,
0000
0130
1000
1010
0000
0110
0110
0110
,
MMMM
0000
0000
0000
;
