#VERSION:0.83;
#TITLE:That's Not How This Works;
#SUBTITLE:(Sabrina's Version);
#ARTIST:Charlie Puth feat. Sabrina Carpenter, Dan + Shay;
#TITLETRANSLIT:;
#SUBTITLETRANSLIT:;
#ARTISTTRANSLIT:;
#GENRE:;
#ORIGIN:;
#CREDIT:;
#BANNER:That's Not How This Works-bn.png;
#BACKGROUND:That's Not How This Works-bg.png;
#PREVIEWVID:;
#JACKET:;
#CDIMAGE:;
#DISCIMAGE:;
#LYRICSPATH:;
#CDTITLE:That's Not How This Works-jacket.png;
#MUSIC:That's Not How This Works.ogg;
#OFFSET:-0.222000;
#SAMPLESTART:22.104000;
#SAMPLELENGTH:23.382000;
#SELECTABLE:YES;
#GASongDataVersion:1;
#GASongData:{"SyncOffset"\:0,"DefaultChartType"\:"dance_single","DefaultChartIndex"\:4};
#BPMS:0.000000=85.000000,
111.000000=83.500000,
112.000000=85.000000;
#STOPS:;
#DELAYS:;
#WARPS:;
#TIMESIGNATURES:0.000000=4=4;
#TICKCOUNTS:;
#COMBOS:;
#SPEEDS:;
#SCROLLS:111.000000=1.018000,
112.000000=0.700000,
119.125000=0.750000,
119.250000=0.800000,
119.375000=0.850000,
119.500000=0.900000,
119.750000=0.950000,
120.000000=1.000000;
#FAKES:;
#LABELS:;
#LASTSECONDHINT:0.000000;
#KEYSOUNDS:;
#ATTACKS:;

//---------------dance-single - Highflyer----------------
#NOTEDATA:;
#CHARTNAME:;
#STEPSTYPE:dance-single;
#DESCRIPTION:Highflyer;
#CHARTSTYLE:;
#DIFFICULTY:Beginner;
#METER:1;
#RADARVALUES:;
#CREDIT:;
#GAChartDataVersion:1;
#GAChartData:{"MusicOffset"\:0,"ShouldUseChartMusicOffset"\:false,"ExpressedChartConfig"\:"a19d532e-b0ce-4759-ad1c-02ecbbdf2efd","Patterns"\:{}};
#OFFSET:-0.222000;
#BPMS:0.000000=85.000000,
111.000000=83.500000,
112.000000=85.000000;
#STOPS:;
#DELAYS:;
#WARPS:;
#TIMESIGNATURES:0.000000=4=4;
#TICKCOUNTS:;
#COMBOS:;
#SPEEDS:;
#SCROLLS:111.000000=1.018000,
112.000000=0.700000,
119.125000=0.750000,
119.250000=0.800000,
119.375000=0.850000,
119.500000=0.900000,
119.750000=0.950000,
120.000000=1.000000;
#FAKES:;
#LABELS:;
#DISPLAYBPM:85.000000;
#NOTES:
0000
0000
0000
0000
,
0000
0000
0000
0000
,
1000
0000
0000
0000
,
0001
0000
0000
0000
,
0100
0000
0100
0000
,
0010
0000
0010
0000
,
1000
0000
0000
0000
,
0001
0000
0000
0000
,
0010
0000
0010
0000
,
0100
0000
0100
0000
,
1000
0000
0000
0001
,
0001
0000
0000
0100
,
0100
0000
0010
0000
,
1000
0000
0001
0000
,
0010
0000
0000
0100
,
0100
0000
0000
1000
,
1000
0000
0000
0000
,
0001
0000
0000
0000
,
0100
0000
0000
0100
,
0100
0000
0000
0010
,
0010
0000
0000
0000
,
1000
0000
0000
0000
,
0001
0000
0010
0000
,
0100
0000
0010
0000
,
0001
0000
1000
0000
,
0010
0010
0010
0000
,
0100
0000
0000
0000
,
0001
0000
0000
0000
,
1000
0000
0001
0000
,
0010
0000
0100
0000
,
0010
0000
0000
0100
,
0100
0000
0000
1000
,
1000
0000
0001
0000
,
0100
0000
0010
0000
,
0100
0000
0000
0010
,
0010
0000
0000
1000
,
1000
0000
0000
0000
,
0001
0000
0000
0000
,
0010
0000
0000
0100
,
0100
0000
0000
1000
,
1000
0000
0000
0000
,
0001
0000
0000
0000
,
0100
0010
0100
0000
;

//---------------dance-single - Highflyer----------------
#NOTEDATA:;
#CHARTNAME:;
#STEPSTYPE:dance-single;
#DESCRIPTION:Highflyer;
#CHARTSTYLE:;
#DIFFICULTY:Easy;
#METER:4;
#RADARVALUES:;
#CREDIT:;
#GAChartDataVersion:1;
#GAChartData:{"MusicOffset"\:0,"ShouldUseChartMusicOffset"\:false,"ExpressedChartConfig"\:"a19d532e-b0ce-4759-ad1c-02ecbbdf2efd","Patterns"\:{}};
#OFFSET:-0.222000;
#BPMS:0.000000=85.000000,
111.000000=83.500000,
112.000000=85.000000;
#STOPS:;
#DELAYS:;
#WARPS:;
#TIMESIGNATURES:0.000000=4=4;
#TICKCOUNTS:;
#COMBOS:;
#SPEEDS:;
#SCROLLS:111.000000=1.018000,
112.000000=0.700000,
119.125000=0.750000,
119.250000=0.800000,
119.375000=0.850000,
119.500000=0.900000,
119.750000=0.950000,
120.000000=1.000000;
#FAKES:;
#LABELS:;
#DISPLAYBPM:85.000000;
#NOTES:
0000
0000
0000
0000
,
0000
0000
0000
0000
,
1000
0000
0001
0000
,
1000
0000
0000
0010
0000
0000
0000
0000
,
0100
0000
0010
0000
,
1000
0000
0100
0000
,
0010
0000
0000
0000
,
0100
0000
0000
1001
,
0001
0100
0010
1000
,
0100
0010
0100
1000
,
0010
0010
1001
0000
,
0001
0001
0110
0000
,
1000
0010
0001
0010
,
1000
0100
0010
0100
,
0010
0010
1001
0000
,
0100
0100
1001
0000
,
0001
0001
0001
0000
,
1000
1000
1000
0000
,
0001
1000
0001
0110
,
0100
0010
0100
1001
,
1000
0000
0001
0000
,
0010
0000
0000
0100
0000
0000
1001
0000
,
1000
0010
0100
0010
,
1000
0001
0010
0100
,
0010
0000
0001
0000
,
1000
0001
0100
0000
,
0010
0000
0000
0000
,
0100
0000
0000
0000
,
0001
0000
0010
0000
,
0100
0100
1000
0001
,
0100
0010
0100
1001
,
0010
0100
0010
1001
,
1000
0010
0001
0010
,
1000
0100
0010
0100
,
1000
0010
1000
0101
,
1000
0100
1000
0011
,
1000
1000
1000
0000
,
0010
0010
0010
0000
,
0100
0001
0100
1010
,
1000
0100
1000
0011
,
1000
1000
1000
0000
,
0010
0010
0010
0000
,
0100
0001
0010
0000
;

//---------------dance-single - Highflyer----------------
#NOTEDATA:;
#CHARTNAME:;
#STEPSTYPE:dance-single;
#DESCRIPTION:Highflyer;
#CHARTSTYLE:;
#DIFFICULTY:Medium;
#METER:6;
#RADARVALUES:;
#CREDIT:;
#GAChartDataVersion:1;
#GAChartData:{"MusicOffset"\:0,"ShouldUseChartMusicOffset"\:false,"ExpressedChartConfig"\:"a19d532e-b0ce-4759-ad1c-02ecbbdf2efd","Patterns"\:{}};
#OFFSET:-0.222000;
#BPMS:0.000000=85.000000,
111.000000=83.500000,
112.000000=85.000000;
#STOPS:;
#DELAYS:;
#WARPS:;
#TIMESIGNATURES:0.000000=4=4;
#TICKCOUNTS:;
#COMBOS:;
#SPEEDS:;
#SCROLLS:111.000000=1.018000,
112.000000=0.700000,
119.125000=0.750000,
119.250000=0.800000,
119.375000=0.850000,
119.500000=0.900000,
119.750000=0.950000,
120.000000=1.000000;
#FAKES:;
#LABELS:;
#DISPLAYBPM:85.000000;
#NOTES:
0000
0000
0000
0000
,
0000
0000
0000
0000
,
0001
0000
0000
0010
0100
0000
0000
0000
,
0010
0000
0000
0001
0000
0000
1000
0000
,
0010
0100
0010
1000
,
0001
0010
0100
0000
,
0010
0000
0000
0000
,
0001
0000
0000
1000
,
0010
0100
0010
1000
,
0001
0000
1000
0001
1000
0000
0001
0000
,
0010
0000
0100
0010
0100
0000
1001
0000
,
1000
0000
0010
0100
0010
0000
1000
0000
,
0001
0100
1000
0100
,
0001
0000
1000
0001
1000
0000
0100
0000
,
0010
0000
0001
1000
0001
0000
0110
0000
,
0001
0000
1000
0001
1000
0000
0001
0000
,
0010
0000
0010
0000
0010
0010
0000
0000
,
0100
0000
0100
0000
0100
0100
0000
0000
,
1000
0000
0001
0100
0001
0000
0011
0000
,
0001
0000
1000
0100
1000
0000
0020
0000
,
0130
0000
0000
0010
1000
0000
0000
0000
,
0001
0000
0000
0010
0000
0000
1001
0000
,
0001
0100
0010
1000
,
0100
0000
0010
0000
0001
0000
1000
0010
,
0200
0301
0200
0310
,
1000
0100
0002
0103
,
0010
0000
0001
0000
0100
0000
0010
1000
,
0000
0001
1000
0001
0000
0000
1000
0000
,
0010
0100
0010
1000
,
0001
0010
0100
1000
,
0001
0100
0001
1000
0100
0000
1001
0000
,
1000
0100
1000
0001
0100
0000
0020
0000
,
0230
0000
0310
1000
0100
0000
0010
0000
,
0100
0000
0010
0001
0100
0000
0010
0000
,
0100
0000
0010
0100
0020
2030
3200
0000
,
0310
0000
0100
0010
0100
0000
1001
0000
,
0001
0000
0001
0000
0001
0001
0000
0000
,
1000
0000
1000
0000
1000
1000
0000
0000
,
0001
0010
0100
1000
0100
0000
1001
0000
,
1000
0010
0100
0001
0100
0000
0020
0000
,
1030
0000
1000
0000
1000
1000
0000
0000
,
0100
0000
0100
0000
0100
0100
0000
0000
,
0010
0010
0100
0100
1000
0000
0000
0000
;

//---------------dance-single - Highflyer----------------
#NOTEDATA:;
#CHARTNAME:;
#STEPSTYPE:dance-single;
#DESCRIPTION:Highflyer;
#CHARTSTYLE:;
#DIFFICULTY:Hard;
#METER:8;
#RADARVALUES:;
#CREDIT:;
#GAChartDataVersion:1;
#GAChartData:{"MusicOffset"\:0,"ShouldUseChartMusicOffset"\:false,"ExpressedChartConfig"\:"a19d532e-b0ce-4759-ad1c-02ecbbdf2efd","Patterns"\:{}};
#OFFSET:-0.222000;
#BPMS:0.000000=85.000000,
111.000000=83.500000,
112.000000=85.000000;
#STOPS:;
#DELAYS:;
#WARPS:;
#TIMESIGNATURES:0.000000=4=4;
#TICKCOUNTS:;
#COMBOS:;
#SPEEDS:;
#SCROLLS:111.000000=1.018000,
112.000000=0.700000,
119.125000=0.750000,
119.250000=0.800000,
119.375000=0.850000,
119.500000=0.900000,
119.750000=0.950000,
120.000000=1.000000;
#FAKES:;
#LABELS:;
#DISPLAYBPM:85.000000;
#NOTES:
0000
0000
0000
0000
,
0000
0000
0000
0000
,
1000
0000
0000
0001
0100
0000
0000
0000
,
0010
0000
0000
0100
0000
0000
0001
0000
,
1000
1000
0100
0100
,
0010
0001
0200
0300
,
0020
0000
0030
0000
,
0200
0000
0300
1001
,
0002
0000
0013
0100
2000
0000
3010
0100
,
0010
1000
0100
0010
0001
0000
1000
0010
,
1000
0100
0001
0100
1000
0000
0001
0000
,
1000
0010
0001
0010
1000
0000
0001
0000
,
0020
0000
0130
1000
0020
0000
0130
0010
,
0100
0100
0010
0010
1000
0000
0001
1000
,
0001
0100
1000
0100
0001
0000
1000
0000
,
0001
0010
1000
0010
0001
0000
2000
3020
,
0030
0100
0000
0000
0001
0000
0000
0010
0000
0000
0100
0000
0000
0010
0000
0001
,
0000
1000
0000
0000
0010
0000
0000
0100
0000
0000
0010
0000
0000
0000
1000
0000
,
0001
0100
1000
0100
0001
0000
1000
0000
,
0001
0010
1000
0010
0001
0000
0200
0320
,
1030
0000
0000
0001
0010
0000
0000
0000
,
0100
0000
0000
0010
0000
0000
1001
0000
,
1000
0010
0100
0010
1000
0100
0010
0000
,
0100
0010
0001
0100
1000
0000
0100
0010
,
2000
0000
3100
0010
0002
0000
1003
0010
,
0200
0000
0302
0000
0023
0000
0130
0100
,
2000
0000
3002
0000
0203
0000
0310
0200
,
0000
0320
2030
3200
0000
0300
1001
0000
,
0002
0000
1003
0010
0200
0000
0310
1000
,
0100
0100
0010
0010
0001
0000
1000
0001
,
1000
0010
0001
0010
1000
0000
0001
0000
,
1000
0100
0001
0100
1000
0000
0010
0000
,
0200
0000
0310
1000
0100
0000
0010
0001
,
0100
0100
0010
0010
1000
0000
0001
1000
,
0001
0000
0100
0000
1000
0000
0100
0000
0001
0000
1000
0010
1000
0000
0000
0000
,
0001
0010
1000
0010
0001
0000
0100
0000
,
0010
1000
0000
0000
0001
0000
0000
0010
0000
0000
0100
0000
0000
0010
0000
0001
,
0000
1000
0000
0000
0010
0000
0000
0100
0000
0000
0010
0000
1000
0000
0001
0000
,
1000
0100
0001
0100
1000
0000
0001
0000
,
1000
0010
0001
0010
1000
0000
0002
0000
,
0003
0010
0000
0000
0100
0000
0000
0010
0000
0000
0001
0000
0000
1000
0000
0010
,
0000
0100
0000
0000
0010
0000
0000
1000
0000
0000
0001
0000
0000
0000
1000
0000
,
0001
0100
1000
0001
0010
0000
0000
0000
;

//---------------dance-single - FS XO MA----------------
#NOTEDATA:;
#CHARTNAME:That's Not How Charting Works;
#STEPSTYPE:dance-single;
#DESCRIPTION:FS XO MA;
#CHARTSTYLE:;
#DIFFICULTY:Challenge;
#METER:12;
#RADARVALUES:;
#CREDIT:Highflyer;
#GAChartDataVersion:1;
#GAChartData:{"MusicOffset"\:0,"ShouldUseChartMusicOffset"\:false,"ExpressedChartConfig"\:"a19d532e-b0ce-4759-ad1c-02ecbbdf2efd","Patterns"\:{}};
#OFFSET:-0.222000;
#BPMS:0.000000=85.000000,
111.000000=83.500000,
112.000000=85.000000;
#STOPS:;
#DELAYS:;
#WARPS:;
#TIMESIGNATURES:0.000000=4=4;
#TICKCOUNTS:;
#COMBOS:;
#SPEEDS:;
#SCROLLS:111.000000=1.018000,
112.000000=0.700000,
119.125000=0.750000,
119.250000=0.800000,
119.375000=0.850000,
119.500000=0.900000,
119.750000=0.950000,
120.000000=1.000000;
#FAKES:;
#LABELS:;
#DISPLAYBPM:85.000000;
#NOTES:
0000
0000
0000
0000
,
0000
0000
0000
0000
,
1000
0000
0000
0001
0100
0000
0000
0000
,
0010
0000
0000
1000
0000
0000
0100
0000
,
0020
0031
2000
3010
,
0200
0310
2000
3000
,
0200
0000
0000
0300
,
0020
0000
0000
0000
0000
0030
1001
0000
,
2000
0000
3001
0100
2000
0000
3100
0001
,
0010
0000
0M00
0000
0010
0000
0000
0000
1000
0000
0000
0000
0100
0000
0000
0000
0001
0000
0000
0000
0000
0000
0000
0000
0100
0000
1000
0000
0100
00M0
0100
0000
,
0001
0100
1000
0100
0001
0000
MMMM
0000
,
1000
0100
0001
0100
1000
0000
1001
0000
,
0002
0000
1003
0010
0002
0000
0013
1000
,
0100
0000
00M0
0000
0100
0000
0000
0000
0001
0000
0000
0000
0010
0000
0000
0000
1000
0000
0000
0000
0000
0000
0000
0000
0010
0000
0001
0000
0010
0M00
0010
0000
,
1000
0010
0001
0010
1000
0000
MMMM
0000
,
0001
0000
0010
0000
1000
0000
0010
0000
0001
0000
0000
0000
1000
0001
1000
0000
,
0001
0100
00M0
0100
1000
0000
1000
0100
00M0
0100
0001
0000
0000
2000
0000
3001
,
1000
0000
0010
0000
0M00
0000
0010
0000
0001
0000
0000
0000
0001
0000
0010
0000
0M00
0000
0010
0000
2000
0000
0000
0000
3000
0000
0000
0000
0100
00M0
0100
0000
,
0001
0010
1000
0001
0100
0000
MMMM
0000
,
1000
0000
0010
0000
0001
0000
1000
0000
0100
0000
0000
0000
0001
1000
0001
0010
,
0100
0000
0000
0010
0000
0001
1000
0000
0010
0100
0000
0001
1000
0000
0100
0010
0000
0001
1000
0000
0001
0000
0000
0000
,
1000
0000
0000
0010
0000
0000
0100
0000
0000
0001
0000
0000
0010
0000
0000
0100
0000
0000
1000
0000
0000
0001
0000
0000
0200
0000
0000
0000
0000
0000
0000
0000
0000
0000
0300
0000
1001
0000
0000
0000
0000
0000
0000
0000
0000
0000
0000
0000
,
1000
0000
0000
0001
0000
0000
0100
0000
0000
0010
0000
0000
0100
0000
0000
0000
0000
0000
0010
0000
1000
0000
0001
0000
1000
0000
0000
0000
0000
0000
0100
0000
0000
1000
0000
0000
0001
0000
0000
0000
1000
0000
0000
0000
0000
0001
0000
0000
,
0100
0000
0010
1000
0001
0010
0100
1000
0002
0000
0010
0000
1003
0000
1000
0100
,
0002
0000
0000
0103
1000
0010
0002
0000
0000
0013
1000
0100
,
0010
0000
0000
0000
0000
0000
0000
0000
0001
0000
0000
0000
0100
0000
0000
0000
0000
0000
0010
0000
0000
0000
0000
0000
0100
0000
0000
0001
0000
0000
0020
0000
0000
0000
0000
0000
0130
0000
0000
0000
0000
0000
0010
0000
0000
0000
0000
0000
,
0002
0000
0203
0000
2300
0000
3002
0023
,
0000
0000
2030
0000
3200
0000
0302
0000
0000
0000
0000
0003
1001
0000
0000
0000
,
0002
0000
1003
0100
0002
0000
0103
1000
,
0010
0000
0M00
0000
0010
0000
0000
0000
0001
0000
0000
0000
0100
0000
0000
0000
1000
0000
0000
0000
0000
0000
0000
0000
0100
0000
0001
0000
0010
0M00
0010
0000
,
1000
0100
0101
0100
1100
0000
MMMM
0000
,
0101
0100
1100
0100
0101
0000
2000
0000
,
3020
0000
0000
0000
1030
0000
0100
0000
0001
0100
0010
0000
0001
0000
0100
0000
,
1000
0000
0000
0000
0100
0000
0000
0000
0010
0000
1000
0000
0100
0000
0000
0000
0001
0000
0100
0000
0010
0000
0000
0000
0001
0000
1000
0000
0010
0M00
0010
0000
,
0001
0000
0010
0000
1000
0000
0001
0000
0100
1000
0001
0100
0020
0000
0000
0000
,
1030
0000
0010
0000
0001
0000
1000
0000
0100
0001
1000
0000
MMMM
0000
1000
0000
,
0001
0010
0M00
0010
1000
0000
1000
0100
00M0
0100
0001
0000
1001
2000
0000
3001
,
1000
0000
0010
0000
0M00
0000
0010
0000
0001
0000
0000
0000
0001
0000
0100
0000
00M0
0000
0100
0000
1000
0000
0002
0000
0003
0000
0000
0000
0100
00M0
0100
0000
,
1000
0010
0001
1000
0200
0301
MMMM
0000
,
0001
0000
0010
0000
1000
0000
0001
0000
0100
1000
0001
0100
0010
0100
0001
2000
,
0000
3010
0000
0000
0100
0000
0000
0010
0000
0000
1000
0000
0000
0002
0000
0023
,
0000
0000
0130
0000
0000
0000
0000
0000
0010
0000
0000
0000
0000
0000
0100
0000
0000
0000
0000
0000
1000
0000
0000
0000
0000
0000
0000
0000
0100
00M0
0100
0000
,
0001
1000
0010
0001
0100
0000
0000
0000
;

//---------------dance-double - Highflyer----------------
#NOTEDATA:;
#CHARTNAME:;
#STEPSTYPE:dance-double;
#DESCRIPTION:Highflyer;
#CHARTSTYLE:;
#DIFFICULTY:Easy;
#METER:4;
#RADARVALUES:;
#CREDIT:;
#GAChartDataVersion:1;
#GAChartData:{"MusicOffset"\:0,"ShouldUseChartMusicOffset"\:false,"ExpressedChartConfig"\:"a19d532e-b0ce-4759-ad1c-02ecbbdf2efd","Patterns"\:{}};
#OFFSET:-0.222000;
#BPMS:0.000000=85.000000,
111.000000=83.500000,
112.000000=85.000000;
#STOPS:;
#DELAYS:;
#WARPS:;
#TIMESIGNATURES:0.000000=4=4;
#TICKCOUNTS:;
#COMBOS:;
#SPEEDS:;
#SCROLLS:111.000000=1.018000,
112.000000=0.700000,
119.125000=0.750000,
119.250000=0.800000,
119.375000=0.850000,
119.500000=0.900000,
119.750000=0.950000,
120.000000=1.000000;
#FAKES:;
#LABELS:;
#DISPLAYBPM:85.000000;
#NOTES:
00000000
00000000
00000000
00000000
,
00000000
00000000
00000000
00000000
,
00010000
00000000
00001000
00000000
,
00010000
00000000
00000000
00000010
00000000
00000000
00000000
00000000
,
00000100
00000000
00000010
00000000
,
00001000
00000000
00000100
00000000
,
00010000
00000000
00000000
00000000
,
00000100
00000000
00000000
00011000
,
00001000
01000000
00010000
00100000
,
01000000
10000000
01000000
00100000
,
00001000
00001000
00101000
00000000
,
00001000
00001000
01001000
00000000
,
01000000
00100000
00010000
00100000
,
10000000
00010000
01000000
00001000
,
01000000
01000000
00011000
00000000
,
00000100
00000100
00011000
00000000
,
00001000
00001000
00001000
00000000
,
00010000
00010000
00010000
00000000
,
00001000
00010000
00001000
00001010
,
00001000
00000010
00001000
00000101
,
00000100
00000000
00000001
00000000
,
00000010
00000000
00000000
00000100
00000000
00000000
00001010
00000000
,
00001000
00000001
00000010
00000001
,
00000100
00000010
00010000
00000100
,
00010000
00000000
00001000
00000000
,
01000000
00001000
00010000
00000000
,
00000010
00000000
00000000
00000000
,
00010000
00000000
00000000
00000000
,
00001000
00000000
00100000
00000000
,
01000000
01000000
10000000
00010000
,
01000000
00100000
01000000
01010000
,
01000000
00001000
00100000
00010100
,
00010000
00001000
00000100
00001000
,
00010000
00000100
00001000
00000100
,
00000010
00000001
00000010
00000110
,
00010000
00001000
00010000
01010000
,
10000000
10000000
10000000
00000000
,
00100000
00100000
00100000
00000000
,
01000000
00001000
01000000
00011000
,
00010000
00000100
00010000
00010010
,
00000010
00000010
00000010
00000000
,
00000100
00000100
00000100
00000000
,
00000001
00000100
00010000
00000000
;

//---------------dance-double - Highflyer----------------
#NOTEDATA:;
#CHARTNAME:;
#STEPSTYPE:dance-double;
#DESCRIPTION:Highflyer;
#CHARTSTYLE:;
#DIFFICULTY:Medium;
#METER:6;
#RADARVALUES:;
#CREDIT:;
#GAChartDataVersion:1;
#GAChartData:{"MusicOffset"\:0,"ShouldUseChartMusicOffset"\:false,"ExpressedChartConfig"\:"a19d532e-b0ce-4759-ad1c-02ecbbdf2efd","Patterns"\:{}};
#OFFSET:-0.222000;
#BPMS:0.000000=85.000000,
111.000000=83.500000,
112.000000=85.000000;
#STOPS:;
#DELAYS:;
#WARPS:;
#TIMESIGNATURES:0.000000=4=4;
#TICKCOUNTS:;
#COMBOS:;
#SPEEDS:;
#SCROLLS:111.000000=1.018000,
112.000000=0.700000,
119.125000=0.750000,
119.250000=0.800000,
119.375000=0.850000,
119.500000=0.900000,
119.750000=0.950000,
120.000000=1.000000;
#FAKES:;
#LABELS:;
#DISPLAYBPM:85.000000;
#NOTES:
00000000
00000000
00000000
00000000
,
00000000
00000000
00000000
00000000
,
00001000
00000000
00000000
01000000
00010000
00000000
00000000
00000000
,
01000000
00000000
00000000
00001000
00000000
00000000
00010000
00000000
,
00000100
00000010
00000100
00010000
,
00000010
00001000
00000001
00000000
,
00001000
00000000
00000000
00000000
,
00000100
00000000
00000000
00010000
,
00001000
01000000
00001000
00100000
,
00010000
00000000
00100000
00010000
00100000
00000000
00010000
00000000
,
10000000
00000000
00100000
10000000
00100000
00000000
01010000
00000000
,
01000000
00000000
00001000
00100000
00001000
00000000
00010000
00000000
,
00000010
00000100
00001000
00000100
,
00000001
00000000
00000010
00000001
00000010
00000000
00000100
00000000
,
00010000
00000000
00000010
00001000
00000010
00000000
00011000
00000000
,
00000100
00000000
00001000
00000100
00001000
00000000
00000100
00000000
,
00010000
00000000
00010000
00000000
00010000
00010000
00000000
00000000
,
00001000
00000000
00001000
00000000
00001000
00001000
00000000
00000000
,
00100000
00000000
01000000
10000000
01000000
00000000
01100000
00000000
,
01000000
00000000
10000000
00100000
10000000
00000000
00020000
00000000
,
00130000
00000000
00000000
00010000
01000000
00000000
00000000
00000000
,
00001000
00000000
00000000
00010000
00000000
00000000
01001000
00000000
,
00001000
00010000
00000010
00001000
,
00000100
00000000
00000010
00000000
00000001
00000000
00000100
00000010
,
00020000
00030100
00020000
00031000
,
00100000
01000000
00020000
01030000
,
00100000
00000000
00001000
00000000
00010000
00000000
00000100
00001000
,
00000000
00000001
00001000
00000001
00000000
00000000
00001000
00000000
,
00000010
00010000
00000010
00000100
,
00000001
00001000
00000100
00010000
,
00001000
01000000
00001000
00010000
00000010
00000000
00011000
00000000
,
00010000
00000100
00010000
00001000
00100000
00000000
02000000
00000000
,
03200000
00000000
01300000
10000000
00010000
00000000
01000000
00000000
,
00010000
00000000
01000000
00001000
00010000
00000000
00000010
00000000
,
00010000
00000000
00000010
00010000
00000020
00002030
00003002
00000000
,
00000103
00000000
00000001
00000100
00000001
00000000
00001100
00000000
,
00000100
00000000
00000100
00000000
00000100
00000100
00000000
00000000
,
00001000
00000000
00001000
00000000
00001000
00001000
00000000
00000000
,
00000100
00010000
00001000
00100000
00001000
00000000
00110000
00000000
,
00100000
00001000
01000000
00010000
01000000
00000000
00200000
00000000
,
10300000
00000000
10000000
00000000
10000000
10000000
00000000
00000000
,
00010000
00000000
00010000
00000000
00010000
00010000
00000000
00000000
,
01000000
01000000
00010000
00010000
10000000
00000000
00000000
00000000
;

//---------------dance-double - Highflyer----------------
#NOTEDATA:;
#CHARTNAME:;
#STEPSTYPE:dance-double;
#DESCRIPTION:Highflyer;
#CHARTSTYLE:;
#DIFFICULTY:Hard;
#METER:9;
#RADARVALUES:;
#CREDIT:;
#GAChartDataVersion:1;
#GAChartData:{"MusicOffset"\:0,"ShouldUseChartMusicOffset"\:false,"ExpressedChartConfig"\:"a19d532e-b0ce-4759-ad1c-02ecbbdf2efd","Patterns"\:{}};
#OFFSET:-0.222000;
#BPMS:0.000000=85.000000,
111.000000=83.500000,
112.000000=85.000000;
#STOPS:;
#DELAYS:;
#WARPS:;
#TIMESIGNATURES:0.000000=4=4;
#TICKCOUNTS:;
#COMBOS:;
#SPEEDS:;
#SCROLLS:111.000000=1.018000,
112.000000=0.700000,
119.125000=0.750000,
119.250000=0.800000,
119.375000=0.850000,
119.500000=0.900000,
119.750000=0.950000,
120.000000=1.000000;
#FAKES:;
#LABELS:;
#DISPLAYBPM:85.000000;
#NOTES:
00000000
00000000
00000000
00000000
,
00000000
00000000
00000000
00000000
,
00010000
00000000
00000000
00001000
00100000
00000000
00000000
00000000
,
01000000
00000000
00000000
00100000
00000000
00000000
00001000
00000000
,
00010000
00010000
00000100
00000100
,
00001000
00000010
00020000
00030000
,
00000200
00000000
00000300
00000000
,
00020000
00000000
00030000
01001000
,
00002000
00000000
00013000
00000010
00000200
00000000
00000301
00000010
,
00000001
00001000
00000010
00010000
00000100
00000000
00001000
00000010
,
00001000
00000100
00000001
00000100
00001000
00000000
00000001
00000000
,
00001000
00000010
00000001
00000010
00001000
00000000
00000100
00000000
,
00020000
00000000
00031000
00100000
02000000
00000000
13000000
01000000
,
10000000
10000000
01000000
01000000
00100000
00000000
00001000
00100000
,
00001000
00010000
00100000
00010000
00001000
00000000
01000000
00000000
,
00001000
00010000
01000000
00010000
00001000
00000000
02000000
03020000
,
00030000
00100000
00000000
00000000
00001000
00000000
00000000
00010000
00000000
00000000
00000100
00000000
00000000
00010000
00000000
00001000
,
00000000
00100000
00000000
00000000
00010000
00000000
00000000
01000000
00000000
00000000
00010000
00000000
00000000
00000000
10000000
00000000
,
00100000
01000000
10000000
01000000
00010000
00000000
10000000
00000000
,
00010000
00100000
10000000
00100000
00010000
00000000
02000000
03002000
,
00013000
00000000
00000000
00000100
00001000
00000000
00000000
00000000
,
00000010
00000000
00000000
00001000
00000000
00000000
00000101
00000000
,
00000100
00000010
00010000
00000010
00001000
00000100
00010000
00000000
,
00000100
00010000
00000010
00000100
00001000
00000000
00000100
00000001
,
00002000
00000000
00003010
00010000
00000200
00000000
00001300
00000010
,
00020000
00000000
00032000
00000000
02003000
00000000
03010000
00010000
,
20000000
00000000
30200000
00000000
02300000
00000000
03001000
02000000
,
00000000
03002000
00203000
00320000
00000000
00030000
11000000
00000000
,
02000000
00000000
03100000
00010000
02000000
00000000
03010000
00100000
,
00001000
00001000
00010000
00010000
00000100
00000000
00001000
00000100
,
00001000
00000010
00000001
00000010
00001000
00000000
00000001
00000000
,
00001000
00000100
00000001
00000100
00001000
00000000
00000010
00000000
,
00000200
00000000
00000310
00010000
00001000
00000000
01000000
00100000
,
10000000
10000000
00010000
00010000
01000000
00000000
00001000
01000000
,
00001000
00000000
00010000
00000000
00100000
00000000
00010000
00000000
00001000
00000000
00100000
00010000
00100000
00000000
00000000
00000000
,
00001000
00010000
01000000
00010000
00001000
00000000
01000000
00000000
,
00010000
00100000
00000000
00000000
00001000
00000000
00000000
00010000
00000000
00000000
00000100
00000000
00000000
00010000
00000000
00000010
,
00000000
00000100
00000000
00000000
00000001
00000000
00000000
00000010
00000000
00000000
00000001
00000000
00001000
00000000
00000010
00000000
,
00001000
00000100
00000001
00000100
00001000
00000000
00000001
00000000
,
00001000
00000010
00000001
00000010
00001000
00000000
00000200
00000000
,
00000300
00010000
00000000
00000000
00000010
00000000
00000000
00010000
00000000
00000000
00001000
00000000
00000000
00100000
00000000
01000000
,
00000000
10000000
00000000
00000000
01000000
00000000
00000000
00100000
00000000
00000000
00010000
00000000
00000000
00000000
00100000
00000000
,
00010000
01000000
10000000
00010000
00100000
00000000
00000000
00000000
;

//---------------dance-double - FS XO MA----------------
#NOTEDATA:;
#CHARTNAME:;
#STEPSTYPE:dance-double;
#DESCRIPTION:FS XO MA;
#CHARTSTYLE:;
#DIFFICULTY:Challenge;
#METER:12;
#RADARVALUES:;
#CREDIT:Highflyer;
#GAChartDataVersion:1;
#GAChartData:{"MusicOffset"\:0,"ShouldUseChartMusicOffset"\:false,"ExpressedChartConfig"\:"a19d532e-b0ce-4759-ad1c-02ecbbdf2efd","Patterns"\:{}};
#OFFSET:-0.222000;
#BPMS:0.000000=85.000000,
111.000000=83.500000,
112.000000=85.000000;
#STOPS:;
#DELAYS:;
#WARPS:;
#TIMESIGNATURES:0.000000=4=4;
#TICKCOUNTS:;
#COMBOS:;
#SPEEDS:;
#SCROLLS:111.000000=1.018000,
112.000000=0.700000,
119.125000=0.750000,
119.250000=0.800000,
119.375000=0.850000,
119.500000=0.900000,
119.750000=0.950000,
120.000000=1.000000;
#FAKES:;
#LABELS:;
#DISPLAYBPM:85.000000;
#NOTES:
00000000
00000000
00000000
00000000
,
00000000
00000000
00000000
00000000
,
00010000
00000000
00000000
00001000
01000000
00000000
00000000
00000000
,
00010000
00000000
00000000
00100000
00000000
00000000
00001000
00000000
,
02000000
03010000
00200000
01300000
,
20000000
31000000
00200000
00300000
,
00002000
00000000
00000000
00003000
,
00020000
00000000
00000000
00000000
00000000
00030000
00001010
00000000
,
00002000
00000000
00003010
00000100
00002000
00000000
00003100
00000001
,
00000010
00000000
00000M00
00000000
00000010
00000000
00000000
00000000
00001000
00000000
00000000
00000000
00000100
00000000
00000000
00000000
00000001
00000000
00000000
00000000
00000000
00000000
00000000
00000000
00000100
00000000
00001000
00000000
00000100
000000M0
00000100
00000000
,
00000001
00000100
00001000
00000100
00000010
00000000
0000MMMM
00000000
,
00000001
00000100
00001000
00010000
01000000
00000000
11000000
00000000
,
00020000
00000000
01030000
00100000
00020000
00000000
00130000
10000000
,
01000000
00000000
00M00000
00000000
01000000
00000000
00000000
00000000
00010000
00000000
00000000
00000000
00100000
00000000
00000000
00000000
10000000
00000000
00000000
00000000
00000000
00000000
00000000
00000000
00100000
00000000
00010000
00000000
00100000
0M000000
00100000
00000000
,
10000000
00100000
00010000
00001000
00000100
00000000
MMMM1100
00000000
,
00001000
00000000
00010000
00000000
01000000
00000000
00010000
00000000
00001000
00000000
00000000
00000000
00100000
00001000
00100000
00000000
,
00001000
00010000
00M00000
00010000
01000000
00000000
01000000
00010000
00M00000
00010000
00001000
00000000
00000000
02000000
00000000
03001000
,
01000000
00000000
00010000
00000000
00M00000
00000000
00010000
00000000
00001000
00000000
00000000
00000000
00001000
00000000
00010000
00000000
00M00000
00000000
00010000
00000000
00200000
00000000
00000000
00000000
00300000
00000000
00000000
00000000
01000000
000M0000
01000000
00000000
,
00010000
00100000
10000000
00010000
01000000
00000000
MMMM0000
00000000
,
10000000
00000000
00100000
00000000
00010000
00000000
10000000
00000000
01000000
00000000
00000000
00000000
00010000
10000000
00010000
00100000
,
00001000
00000000
00000000
00100000
00000000
00010000
01000000
00000000
00001000
00100000
00000000
00010000
01000000
00000000
00001000
00100000
00000000
00010000
01000000
00000000
00010000
00000000
00000000
00000000
,
01000000
00000000
00000000
00001000
00000000
00000000
00010000
00000000
00000000
00000100
00000000
00000000
00001000
00000000
00000000
00000001
00000000
00000000
00000100
00000000
00000000
00000010
00000000
00000000
00002000
00000000
00000000
00000000
00000000
00000000
00000000
00000000
00000000
00000000
00003000
00000000
00000110
00000000
00000000
00000000
00000000
00000000
00000000
00000000
00000000
00000000
00000000
00000000
,
00000100
00000000
00000000
00000010
00000000
00000000
00001000
00000000
00000000
00000001
00000000
00000000
00001000
00000000
00000000
00000000
00000000
00000000
00000001
00000000
00000100
00000000
00000010
00000000
00000100
00000000
00000000
00000000
00000000
00000000
00000001
00000000
00000000
00000100
00000000
00000000
00000010
00000000
00000000
00000000
00000100
00000000
00000000
00000000
00000000
00000010
00000000
00000000
,
00001000
00000000
00000100
00010000
00000010
00001000
00000100
00000010
00000002
00000000
00001000
00000000
00000013
00000000
00000010
00000100
,
00000002
00000000
00000000
00000103
00001000
00000010
00000002
00000000
00000000
00000013
00001000
00000100
,
00010000
00000000
00000000
00000000
00000000
00000000
00000000
00000000
00001000
00000000
00000000
00000000
01000000
00000000
00000000
00000000
00000000
00000000
00010000
00000000
00000000
00000000
00000000
00000000
01000000
00000000
00000000
00100000
00000000
00000000
20000000
00000000
00000000
00000000
00000000
00000000
31000000
00000000
00000000
00000000
00000000
00000000
10000000
00000000
00000000
00000000
00000000
00000000
,
00020000
00000000
02030000
00000000
23000000
00000000
30020000
00230000
,
00000000
00000000
20300000
00000000
32000000
00000000
03020000
00000000
00000000
00000000
00000000
00030000
01100000
00000000
00000000
00000000
,
00020000
00000000
00130000
01000000
00020000
00000000
01030000
00100000
,
00001000
00000000
00000M00
00000000
00001000
00000000
00000000
00000000
00000001
00000000
00000000
00000000
00000100
00000000
00000000
00000000
00001000
00000000
00000000
00000000
00000000
00000000
00000000
00000000
00000100
00000000
00000001
00000000
00000100
000000M0
00000100
00000000
,
00001000
00000100
00001100
00010000
00011000
00000000
MMMMMMMM
00000000
,
00001010
00001000
00001001
00001000
00001100
00000000
00002000
00000000
,
00003002
00000000
00000000
00000000
00000013
00000000
00000100
00000000
00000001
00000100
00001000
00000000
00000001
00000000
00000100
00000000
,
00001000
00000000
00000000
00000000
00000100
00000000
00000000
00000000
00000010
00000000
00010000
00000000
00001000
00000000
00000000
00000000
00010000
00000000
00000010
00000000
00001000
00000000
00000000
00000000
00000100
00000000
00001000
00000000
00000010
00000M00
00000010
00000000
,
00000001
00000000
00000010
00000000
00001000
00000000
00000001
00000000
00000100
00001000
00000001
00000100
00000020
00000000
00000000
00000000
,
00001030
00000000
00000010
00000000
00000001
00000000
00001000
00000000
00000100
00000010
00001000
00000000
0000MMMM
00000000
00001000
00000000
,
00000010
00010000
00M00000
00010000
10000000
00000000
10000000
01000000
00M00000
01000000
00010000
00000000
10010000
20000000
00000000
30010000
,
10000000
00000000
00100000
00000000
0M000000
00000000
00100000
00000000
00010000
00000000
00000000
00000000
00010000
00000000
01000000
00000000
00M00000
00000000
01000000
00000000
00100000
00000000
00020000
00000000
00030000
00000000
00000000
00000000
00100000
M0000000
00100000
00000000
,
01000000
00100000
00010000
10000000
02000000
03010000
MMMM0000
00000000
,
00010000
00000000
00100000
00000000
10000000
00000000
00010000
00000000
01000000
00100000
00010000
10000000
00010000
01000000
00001000
00200000
,
00000000
00310000
00000000
00000000
01000000
00000000
00000000
00010000
00000000
00000000
00100000
00000000
00000000
00002000
00000000
00023000
,
00000000
00000000
00030100
00000000
00000000
00000000
00000000
00000000
00010000
00000000
00000000
00000000
00000000
00000000
00000100
00000000
00000000
00000000
00000000
00000000
00001000
00000000
00000000
00000000
00000000
00000000
00000000
00000000
00000100
000000M0
00000100
00000000
,
00000001
00001000
00000010
00000001
00000100
00000000
00000000
00000000
;
