#TITLE:たまゆら;
#SUBTITLE:;
#ARTIST:佐々木博史;
#TITLETRANSLIT:Tamayura;
#SUBTITLETRANSLIT:;
#ARTISTTRANSLIT:Hirofumi Sasaki;
#GENRE:JAPANESQUE PROGRESSIVE;
#CREDIT:;
#MUSIC:Tamayura.ogg;
#BANNER:Tamayura.png;
#BACKGROUND:Tamayura-bg.png;
#CDTITLE:;
#SAMPLESTART:28.000;
#SAMPLELENGTH:15.000;
#SELECTABLE:YES;
#OFFSET:0.000;
#BPMS:0.000=180.000;
#STOPS:;
#BGCHANGES:0.000=Tamayura.mp4=1.000=0=0=0=StretchNoLoop====,
99999.000=-nosongbg-=1.000=0=0=0=StretchNoLoop====
;
#FGCHANGES:;

//--------------- dance-single - Princess Extra ----------------
#NOTES:
     dance-single:
     Princess Extra:
     Beginner:
     4:
     0,0,0,0,0:
0000
0000
0000
0000
,
0000
0000
0000
0000
,
0000
0000
0000
0000
,
0000
0000
0000
0000
,
0000
0000
0000
0000
,
0000
0000
0000
0000
,
0000
0000
0001
0000
,
0000
0000
0000
0000
,
0000
0000
0000
0000
,
0000
0000
0000
0000
,
0000
0000
0000
0000
,
0000
0000
0000
0000
,
0000
0000
0000
0000
,
0000
1000
0000
0000
,
0000
0000
0000
0000
,
0000
0000
0000
0010
,
0000
0000
0000
0000
,
0000
0000
0000
0100
,
0000
0000
0000
0000
0000
0000
0000
0000
0000
0000
0000
0000
0000
0000
0000
0001
,
0000
0000
0000
0000
,
0000
0000
0000
0000
,
1000
0001
0000
1000
,
0001
0000
0000
0000
,
0100
0000
0010
0000
,
0100
0000
0000
0000
,
0001
1000
0000
0001
,
1000
0000
0000
0000
,
0100
0000
0010
0000
,
0100
0000
0000
0000
,
1000
0010
0000
0100
,
0010
0000
0000
0000
,
1000
0000
1000
0000
,
1000
0000
0000
0000
,
0001
0010
0000
0100
,
0010
0000
0000
0000
,
0001
0000
0001
0000
,
0001
0000
0000
0000
,
0100
0000
0100
0010
,
0000
0010
0000
0000
,
1000
0000
0100
0000
,
1000
0000
0000
0000
,
0010
0000
0010
0100
,
0000
0100
0000
0000
,
0001
0000
0010
0000
,
0001
0000
0000
0000
,
1001
0000
1000
0000
,
0100
0000
0000
0000
,
1000
0000
0010
0000
,
0100
0000
0000
0000
,
0001
0000
0100
0000
,
0001
0000
0000
0000
,
0010
0000
0100
0000
,
1000
0000
0000
0000
,
0010
0000
0100
0000
,
1001
0000
0000
0000
,
0001
0000
0000
0000
,
0000
0000
0010
0000
,
0000
0000
0000
0000
,
0100
0000
0100
0000
,
1000
0000
0000
0000
,
0000
0010
0000
0000
,
0000
0100
0000
0000
,
0001
0000
0000
0000
,
0010
0000
0010
0000
,
0001
0000
0001
0000
,
0100
0000
0010
0100
,
0000
0010
0000
0000
,
1000
0000
0001
0000
,
1000
0000
0000
0000
,
0100
0000
0010
0100
,
0000
0010
0000
0000
,
0001
0000
1000
0000
,
0001
0000
0000
0000
,
1000
0000
0100
1000
,
0000
0100
1000
0000
,
1000
0000
0010
0000
,
0100
0100
0100
0000
,
0001
0001
0001
0000
,
0010
0010
0010
0000
,
0001
0000
1000
0000
,
1001
0000
0000
0000
;

//--------------- dance-single - Princess Extra ----------------
#NOTES:
     dance-single:
     Princess Extra:
     Easy:
     7:
     0,0,0,0,0:
0000
0000
0000
0000
,
0000
0000
0000
0000
,
0000
0000
0000
0000
,
0000
0000
0000
0000
,
0000
0000
0000
0000
,
0000
0000
0000
0000
,
0000
0000
0001
0000
,
0000
0000
0000
0000
0000
0000
0000
0000
0000
1000
0000
0000
0000
0000
0000
0000
,
0000
0000
0100
0000
0000
0000
0000
0000
0000
0000
0000
1000
0000
0000
0000
0000
,
0000
0000
0000
0000
,
0000
0000
0000
0000
,
0000
0000
0000
0000
,
0000
0000
0000
0000
,
0000
0010
0000
0000
,
0000
0000
0100
0000
,
0000
0000
0000
0001
,
0000
0000
0000
0000
0000
0000
0000
0100
0000
0000
0000
0000
0000
0000
0000
0000
,
0000
0000
0000
0000
0000
0000
0000
0010
0000
0000
0000
0000
0000
0000
0000
0000
,
0000
0000
0000
0000
0000
0000
0000
0000
0000
0000
0000
0000
0000
0000
0000
1001
,
0000
0000
0000
0000
,
0000
0000
0000
0000
,
1000
1000
0001
1000
,
1000
0100
0000
1000
,
0010
0100
0001
0010
,
0100
1000
0000
0000
,
0001
0001
1000
0001
,
0001
0100
0000
0010
,
1000
0100
0010
0001
,
0100
0100
0010
0000
,
1000
1000
0001
1000
,
0100
0010
0100
0000
,
0010
0001
0100
0010
,
1000
0100
0010
0000
,
0001
0001
1000
0100
,
0010
0001
0010
0000
,
0100
1000
0010
1000
,
0001
0001
0100
0000
,
0001
0001
0010
0001
,
0001
0100
0000
0010
,
1000
0100
0001
0100
,
1000
0010
0000
0000
,
1000
1000
0100
1000
,
1000
0010
0000
0100
,
0001
0010
0100
1000
,
0010
0010
0010
0000
,
0110
0000
0001
0010
,
1000
0010
0001
0000
,
1000
1000
0001
0001
,
0100
0100
0010
0000
,
1001
0000
1000
0010
,
0001
0010
1000
0000
,
0001
0010
0100
1000
,
0010
0010
0100
0000
,
1001
0000
0110
0000
,
1001
0000
0000
0000
,
0110
0000
0000
0001
,
1000
0100
1000
0000
,
0010
0100
0100
0001
,
0010
0100
1000
0000
,
0010
0010
1000
0001
,
0100
1000
0100
0000
,
0001
0001
0010
0100
,
1000
0001
0010
0000
,
0001
0000
0000
0001
0000
0000
0100
0000
,
0010
0000
0000
0010
0000
0000
1000
0000
,
0100
0100
0001
0100
,
0100
1000
0000
0010
,
0100
0001
0010
0100
,
1000
0010
0000
0000
,
0100
0100
1000
0100
,
0100
0001
0000
0010
,
0100
1000
0100
0010
,
0001
0001
0100
0000
,
0010
0000
0000
1000
0000
0000
0010
0000
,
1000
1000
0001
0010
,
0100
1000
0010
0100
,
0001
0010
1001
0000
,
0001
0100
1000
0100
,
0001
0010
1000
0010
,
0001
0000
0110
0000
,
1001
0000
0000
0000
,
0000
0000
0000
1000
;

//--------------- dance-single - Princess Extra ----------------
#NOTES:
     dance-single:
     Princess Extra:
     Medium:
     9:
     0,0,0,0,0:
0000
0000
0000
0000
,
0000
0000
0000
0000
,
0000
0000
0000
0000
,
0000
0000
0000
0000
,
0000
0000
0000
0000
,
0000
0000
0000
0000
,
0000
0000
1000
0000
,
0000
0000
0000
0000
0000
0000
0000
0000
0000
0001
0000
0000
0000
0000
0000
0000
,
0000
0000
0100
0000
0000
0000
0000
0000
0000
0000
0000
0010
0000
0000
0000
0000
,
0000
0000
0000
0000
,
0000
0000
0000
0000
,
0000
0000
0000
0000
,
0000
0000
0000
0000
,
0000
1000
0000
0000
,
0000
0000
0100
0000
,
0000
0000
0000
0010
,
0000
0000
0000
0000
0000
0000
0000
0001
0000
0000
0000
0000
0000
0000
0100
0000
,
0000
0000
0000
0000
0000
0000
0000
0010
0000
0000
0000
0000
0000
0000
0000
0000
,
0000
0000
1000
0000
0000
0000
0000
0000
0000
0000
0000
0000
0000
0000
0000
1001
,
0000
0000
0000
0000
,
0000
0000
0000
0000
,
0001
0100
0001
0100
0001
0000
1000
0010
,
1000
0010
1000
0000
0000
0001
0000
0001
,
0000
0010
0100
0000
1000
0100
1000
0000
,
0001
0010
0001
0000
0000
0000
0000
0000
,
1000
0100
1000
0100
1000
0000
0001
0010
,
0001
0010
0001
0000
0000
1000
0000
0010
,
0000
0100
0010
0000
0100
0000
0001
0000
,
0010
0001
0010
0000
0100
0000
0000
0000
,
0010
0001
0010
0001
0010
0000
0100
1000
,
0000
1000
0000
0010
1000
0000
0000
0000
,
0010
0100
0010
0000
0100
0000
0001
0000
,
0011
0000
0010
0001
0010
0000
0000
0000
,
0001
1000
0001
1000
0001
0000
1000
0100
,
0000
0100
0000
1000
0010
0000
0000
0000
,
0100
0010
0100
0000
0001
0000
0010
0000
,
0100
0010
0100
0000
1000
0000
0000
0000
,
0001
1000
0010
1000
0001
0000
1000
0001
,
0010
0001
1000
0000
0000
0010
0000
0010
,
0000
0100
0010
0000
0100
0001
0100
0000
,
0010
1000
0010
0000
0000
0000
0000
0000
,
1000
0001
0100
0001
1000
0000
0001
1000
,
0100
1000
0001
0000
0000
0010
0100
0000
,
1000
0010
0100
0001
,
1001
0000
0000
0000
,
1010
0000
0000
0001
1000
0001
1000
0000
,
0100
0000
1000
0001
1000
0000
0000
0000
,
0001
0010
0100
1000
,
0010
0100
0110
0000
,
1001
0000
0000
1000
0001
1000
0001
0000
,
0100
0000
0001
1000
0001
0000
0000
0000
,
0010
0100
1000
0010
,
0100
0010
0100
0000
0001
0000
0000
0000
,
1001
0000
0110
0000
,
1001
0000
0000
0000
,
1000
0000
0100
0010
,
0100
0010
0000
0100
1000
0000
0010
0000
,
0100
0000
0000
0000
0001
0100
0001
0000
,
0010
0010
0001
0100
,
0010
0000
1000
0010
0000
0000
1000
0000
,
0100
1000
0000
0100
1000
0000
0010
0000
,
0100
0000
0001
0010
,
0100
1000
0100
0000
1000
0000
0010
0000
,
0100
0000
0000
0100
0000
0000
0001
0000
0000
0100
0000
0000
0001
0000
0000
0000
,
0010
0000
0000
0010
0000
0000
0010
0000
0000
0001
0000
0000
1000
0000
0000
0000
,
0010
0100
0010
0100
0001
0000
0100
0010
,
0100
0010
1000
0000
0000
0100
0000
1000
,
0000
0010
0000
0100
0000
0001
0000
0010
,
0001
0010
0001
0000
0100
0000
0000
0000
,
0001
1000
0001
1000
0100
0000
1000
0001
,
1000
0001
0010
0000
0000
0100
0000
1000
,
0100
1000
0010
1000
,
0010
0100
0010
0000
0100
0000
0000
0000
,
1001
0000
1000
0100
0000
0010
0001
0000
,
0100
0000
0001
0010
0000
0100
1000
0000
,
0010
0000
0100
0001
0010
0000
0100
1000
,
0010
0110
1000
1001
,
0001
0100
1000
0100
,
0001
0010
1000
0010
,
0110
0001
0011
1000
,
1001
0000
0000
0000
,
0000
0000
0000
1000
;

//--------------- dance-single - Princess Extra ----------------
#NOTES:
     dance-single:
     Princess Extra:
     Hard:
     12:
     0,0,0,0,0:
0000
0000
0000
0000
,
0000
0000
0000
0000
,
0000
0000
0000
0000
,
0000
0000
0000
0000
,
0000
0000
0000
0000
,
0000
0000
0000
0000
,
0000
0000
0001
0000
,
0000
0000
0000
0000
0000
0000
0000
0000
0000
1000
0000
0000
0000
0000
0000
0000
,
0000
0000
0100
0000
0000
0000
0000
0000
0000
0000
0000
0010
0000
0000
0000
0000
,
0000
0000
0000
0000
,
0000
0000
0000
0000
,
0000
0000
0000
0000
,
0000
0000
0000
0000
,
0000
0001
0000
0000
,
0000
0000
0100
0000
,
0000
0000
0000
0010
,
0000
0000
0000
0000
0000
0000
0000
1000
0000
0000
0000
0000
0000
0000
0001
0000
,
0000
0000
0000
0000
0000
0000
0000
0010
0000
0000
0000
0000
0000
0000
0000
0000
,
0000
0000
0100
0000
0000
0000
0000
0000
0000
0000
0000
0000
0000
0000
0000
1001
,
0000
0000
0000
0000
,
0000
0000
0000
0000
,
1000
0100
0010
0100
1000
0000
0001
0010
,
0100
0010
0001
0000
0000
0101
0000
0110
,
0000
0010
1000
0001
0010
0001
1000
0010
,
0100
0001
1000
0000
1000
0000
1000
0000
,
0001
0100
0010
0100
0001
0000
1000
0010
,
0100
0010
1000
0000
0000
1100
0000
0110
,
0000
0010
0001
1000
0010
1000
0001
0010
,
0100
1000
0010
0100
0001
0000
0000
0000
,
0100
0010
1000
0100
0010
0000
0100
0001
,
0000
0100
1000
0001
0010
0000
0100
0000
,
0010
0001
0100
0010
1000
0100
1000
0010
,
0100
0001
1000
0001
0010
0000
0000
0000
,
0100
0010
0001
0100
0010
0000
0100
1000
,
0000
0100
0001
1000
0010
0000
0100
0000
,
0110
0000
1000
0000
0001
0101
0000
0100
,
0001
0001
0010
0001
1000
0000
1000
0000
,
1000
0100
0001
0100
1000
0000
1000
0010
,
0001
0010
1000
0000
0000
1100
0000
0011
,
0000
0001
0100
0001
1000
0100
1000
0010
,
0100
0001
0010
0000
0100
0000
0010
0000
,
0001
0100
1000
0100
0001
0000
0001
0010
,
1000
0010
0001
0000
0001
0100
0010
1000
,
1100
0011
0101
1010
,
1001
0000
1001
0000
0001
0010
0001
0000
,
1100
0000
0000
1000
0010
1000
0100
0000
,
0100
1000
0010
1000
0100
0000
0000
0000
,
0010
0000
0000
0010
0001
0000
0000
0001
1000
0000
0000
1000
0010
0000
0000
0000
,
0100
0001
1000
0010
0100
0000
0001
0000
,
0011
0000
0000
0001
0100
0001
0010
0000
,
0001
0100
0010
1000
0100
0000
1000
0000
,
1010
0101
0011
1100
,
1000
0010
0001
0010
0100
0000
0001
0000
,
1001
0000
0110
0000
,
1001
0000
0000
0000
,
1100
0000
0000
0000
0001
0010
0100
1000
,
0100
0010
0010
0000
0001
0100
1000
0100
,
0001
0000
0010
0100
0000
1000
0001
0001
,
1000
0000
0010
0000
0100
0000
0010
0000
0000
1000
0000
0000
0001
0000
0010
0000
,
0100
1000
0001
0000
0100
0010
1000
0010
,
0001
0000
0010
0000
0000
1000
0000
0000
0001
0000
0000
0000
0100
0000
0010
0000
,
1000
0100
0010
0001
0010
0001
0100
0010
,
0100
0010
1000
0100
0010
0010
0001
0100
,
0001
0000
0000
0001
0000
0000
0010
0000
0000
0100
0000
0000
1000
0000
0010
0000
,
0110
0000
0000
0101
0000
0000
1010
0000
0000
0110
0000
0000
1001
0000
0000
0000
,
1000
0100
0001
0100
1100
0000
1000
0100
,
0001
0100
1100
0000
0001
0100
0100
0010
,
0010
1000
0100
1000
0001
0100
0001
0010
,
0100
1000
0010
0000
1000
0001
1000
0000
,
0001
0100
1000
0100
0101
0000
0001
0100
,
1000
0100
0101
0000
1000
0100
0100
0010
,
0010
0000
0100
0010
0010
0000
0100
0010
,
0010
0001
0100
0000
0110
0000
1001
0000
,
1000
0010
1000
0000
0001
0000
0010
0000
0100
0000
0000
0000
0010
0000
0001
0000
,
0100
0001
0100
0000
0010
0000
1000
0000
0100
0000
0000
0000
0010
0000
0001
0000
,
0101
0000
0000
0000
1100
0000
0000
0000
1000
0000
0010
1000
0010
0000
0100
0000
,
0001
0100
0100
0001
0010
0100
1000
0000
,
0001
0100
1000
0100
0001
0100
1000
0100
,
0001
0000
0010
0000
0100
0010
0100
0000
0010
0000
0100
0000
1000
0000
0010
0000
,
0100
0101
1010
0100
,
1001
0000
0000
0000
,
0000
0000
0000
0001
;

//--------------- dance-single - Princess Extra ----------------
#NOTES:
     dance-single:
     Princess Extra:
     Challenge:
     15:
     0,0,0,0,0:
0000
0000
0000
0000
,
0000
0000
0000
0000
,
0000
0000
0000
0000
,
0000
0000
0000
0000
,
0000
0000
0000
0000
,
0000
0000
0000
0000
,
0000
0000
1000
0000
,
0000
0000
0000
0000
0000
0000
0000
0000
0000
0010
0000
0000
0000
0000
0000
0000
,
0000
0000
0100
0000
0000
0000
0000
0000
0000
0000
0000
0001
0000
0000
0000
0000
,
0000
0000
0000
0010
0000
0100
0000
1000
,
0000
0000
0010
0000
0000
0000
0100
0000
0000
0000
0001
0000
0000
0010
0000
0000
,
0001
0000
0000
0000
,
0000
0000
0000
0000
,
0000
0001
0000
0000
,
0000
0000
0100
0000
,
0000
0000
0000
0010
,
0000
0000
0000
0000
0000
0000
0000
1000
0000
0000
0000
0001
0000
0000
0000
0010
,
0000
0000
0000
0100
0000
0000
0000
1000
0000
0000
0000
0000
0010
0000
0000
0000
,
0000
0000
0100
0000
0000
0000
0000
0000
0000
0001
0000
0000
0000
0000
0000
1001
,
0000
0000
0000
0000
,
0000
0000
0000
0000
,
1000
0100
0010
0001
0011
0000
0001
0100
,
0010
1000
1010
0000
1000
0100
0000
0001
,
0000
0100
0100
1000
1000
0001
0100
0010
,
1000
0100
1100
0000
1000
0001
1000
0000
,
0001
0100
0010
1000
1010
0000
1000
0100
,
0010
0001
0011
0000
0001
0100
0000
1000
,
0000
0100
0001
1000
0100
0100
0010
0001
,
1000
0000
1000
0000
0001
0000
0100
0000
0101
0000
0000
0000
0001
1000
0001
0000
,
1000
0001
0010
0100
0110
0000
0010
1000
,
0000
0010
0001
0100
0101
0000
0100
0000
,
0110
0010
1000
0100
0110
0010
0001
1000
,
1010
0000
0010
0000
1000
0000
0001
0000
0011
0000
0000
0000
1000
0001
1000
0000
,
0001
1000
0010
0100
0110
0000
0010
0001
,
0000
0010
1000
0100
1100
0000
1000
0010
,
0110
0100
0001
0000
1001
1000
0000
0001
,
0010
0100
0010
0000
0100
0010
0100
0000
1000
0000
0000
0000
0000
0000
0000
0000
,
1100
0100
0110
0010
0011
0000
0101
0100
,
0110
0010
1010
0000
0000
0110
0000
1001
,
0000
1100
1000
0010
0100
0001
0010
0100
,
0001
0000
0100
0000
1100
0000
0000
0000
1000
0001
1000
0001
1000
0000
0000
0000
,
0011
0010
0110
0100
1100
0000
1010
0010
,
0110
0100
0101
0000
0000
0001
0010
0001
,
1001
1000
1100
0000
0011
0001
0101
0000
,
0110
0000
0000
0000
0110
0000
0000
0000
0001
1000
0001
1000
0001
0000
0000
0000
,
1001
0000
0000
0000
1000
0000
0100
1000
0100
0000
0010
0000
0011
0000
0000
0000
,
1000
0000
0100
1000
0100
0000
0010
0000
0011
0000
0000
0000
1001
0000
0000
0000
,
0001
0100
1000
0100
0001
0010
1000
0010
,
0001
0000
0100
0010
1000
0000
0100
0010
0001
0000
0000
0000
1001
0000
0000
0000
,
0110
0000
0000
0000
0001
0000
0100
0001
0100
0000
0010
0000
1010
0000
0000
0000
,
1000
0000
0100
0010
0001
0000
1000
0000
0010
0000
0000
0000
1001
0000
0000
0000
,
1000
0100
0001
0100
1000
0010
0001
0010
,
1000
0000
0100
0010
0001
0000
0100
0010
1000
0000
0000
0000
1001
0000
0000
0000
,
0110
0000
1001
0000
,
0110
0000
0000
0000
,
1001
0000
0000
0000
0000
0000
0000
0000
1000
0100
1000
0000
0100
0000
0010
0000
,
0001
0000
0100
0001
0100
0000
0000
0000
0010
0000
0100
0000
1000
0000
0100
0000
,
0010
0000
0100
0000
0001
0000
0010
0000
0000
0000
0100
0000
0010
0100
0010
0000
,
0100
0000
1000
0001
0000
0001
1000
0000
0000
0010
0000
0000
0100
0000
0001
0100
,
0001
0000
0001
0000
0010
0001
0000
0000
0100
0000
0010
0000
1000
0000
0100
0000
,
0010
0000
0001
0000
0100
0001
0000
0000
1000
0010
1000
0000
0100
0000
1000
0000
,
0001
0000
0100
0000
0001
1000
0001
0000
0010
0000
0001
0000
0100
0000
0010
0000
,
1000
0000
0100
0000
0001
0000
0100
0000
1000
0100
0010
0000
0001
0000
0100
0000
,
0101
0000
0000
0011
0000
0000
1010
0000
0000
1100
0000
0000
0110
0000
0001
0000
,
1001
0000
0000
1100
0000
0000
0101
0000
0000
0011
0000
0000
0110
0000
1000
0000
,
1001
0001
0011
0010
0110
0000
1001
1000
,
1010
0010
0110
0000
0000
1001
0001
0011
,
0010
0100
1000
0001
0100
1000
0100
0001
,
0011
0000
0010
0000
0110
0000
0000
0000
1000
0001
1000
0001
1000
0000
0000
0000
,
0101
0001
0011
0010
1001
0000
1100
1000
,
1010
0010
1001
0000
0000
0101
0100
0010
,
1010
0000
0100
0010
1010
0000
0100
0010
,
1010
0000
0100
0000
1001
0000
0000
0000
0001
1000
0001
1000
0001
0000
0000
0000
,
0010
0100
0010
0000
0001
0000
0100
0010
0100
0000
0001
0000
0010
0100
1000
0000
,
0001
0100
0010
0000
1000
0000
0100
0000
0010
0001
1000
0000
0010
0000
0100
0000
,
0001
0010
0100
0000
1000
0001
0100
0000
0010
1000
0100
0000
0010
0001
1000
0000
,
0010
0100
0001
0010
0110
0000
1001
0000
,
0001
0100
0001
0100
0010
0000
1000
0000
0001
0010
0001
0010
0100
0000
1000
0000
,
0010
0100
0010
0100
0001
0000
0100
0010
1000
0000
0100
0010
0001
0000
1000
0000
,
1010
0011
0101
1100
,
1001
0000
0000
0000
,
0000
0000
0000
0001
;

//--------------- dance-double - Princess Extra ----------------
#NOTES:
     dance-double:
     Princess Extra:
     Easy:
     7:
     0,0,0,0,0:
00000000
00000000
00000000
00000000
,
00000000
00000000
00000000
00000000
,
00000000
00000000
00000000
00000000
,
00000000
00000000
00000000
00000000
,
00000000
00000000
00000000
00000000
,
00000000
00000000
00000000
00000000
,
00000000
00000000
00001000
00000000
,
00000000
00000000
00000000
00000000
00000000
00000000
00000000
00000000
00000000
00010000
00000000
00000000
00000000
00000000
00000000
00000000
,
00000000
00000000
00000100
00000000
00000000
00000000
00000000
00000000
00000000
00000000
00000000
00001000
00000000
00000000
00000000
00000000
,
00000000
00000000
00000000
00000000
,
00000000
00000000
00000000
00000000
,
00000000
00000000
00000000
00000000
,
00000000
00000000
00000000
00000000
,
00000000
00000001
00000000
00000000
,
00000000
00000000
00000100
00000000
,
00000000
00000000
00000000
00000010
,
00000000
00000000
00000000
00000000
00000000
00000000
00000000
00001000
00000000
00000000
00000000
00000000
00000000
00000000
00000000
00000000
,
00000000
00000000
00000000
00000000
00000000
00000000
00000000
00000100
00000000
00000000
00000000
00000000
00000000
00000000
00000000
00000000
,
00000000
00000000
00000000
00000000
00000000
00000000
00000000
00000000
00000000
00000000
00000000
00000000
00000000
00000000
00000000
00011000
,
00000000
00000000
00000000
00000000
,
00000000
00000000
00000000
00000000
,
00001000
00001000
00010000
00001000
,
00001000
00100000
00000000
00010000
,
00100000
01000000
10000000
00100000
,
01000000
00001000
00000000
00000000
,
00010000
00010000
00001000
00010000
,
00010000
00000010
00000000
00001000
,
00000100
00000010
00000001
00000100
,
00001000
00001000
00010000
00000000
,
00001000
00001000
00010000
00001000
,
00100000
00010000
00100000
00000000
,
01000000
10000000
00100000
01000000
,
00010000
00100000
00001000
00000000
,
00010000
00010000
00001000
00010000
,
00000010
00001000
00000010
00000000
,
00000100
00000001
00000010
00000001
,
00000100
00000100
00001000
00000000
,
00010000
00010000
00000010
00010000
,
00010000
00000100
00000000
00010000
,
00001000
01000000
00010000
10000000
,
01000000
00100000
00000000
00000000
,
00001000
00001000
00100000
00001000
,
00001000
01000000
00000000
00010000
,
00100000
01000000
00010000
00001000
,
00000010
00000010
00000010
00000000
,
00000110
00000000
00001000
00000001
,
00000100
00001000
00010000
00000000
,
00100000
00100000
01000000
01000000
,
00010000
10000000
01000000
00000000
,
10010000
00000000
00010000
00100000
,
10000000
00100000
00010000
00000000
,
01000000
00001000
00010000
00000010
,
00010000
00010000
00001000
00000000
,
00011000
00000000
00000100
00000000
,
00001010
00000000
00000000
00000000
,
00000110
00000000
00000000
00000001
,
00000100
00001000
00000100
00000000
,
00001000
00010000
00010000
00001000
,
00100000
00010000
00100000
00000000
,
01000000
01000000
10000000
00100000
,
10000000
01000000
00100000
00000000
,
00001000
00001000
00010000
00000100
,
00001000
00000010
00000100
00000000
,
00000001
00000000
00000000
00000001
00000000
00000000
00000010
00000000
,
00000100
00000000
00000000
00000100
00000000
00000000
00010000
00000000
,
00001000
00001000
01000000
00001000
,
00001000
00100000
00000000
00010000
,
01000000
00100000
10000000
00010000
,
10000000
01000000
00000000
00000000
,
00010000
00010000
00000010
00010000
,
00010000
00000100
00000000
00000010
,
00000100
00000010
00000001
00000100
,
00000001
00000001
00001000
00000000
,
00000100
00000000
00000000
00010000
00000000
00000000
00001000
00000000
,
00010000
00010000
00001000
01000000
,
00100000
10000000
01000000
10000000
,
00100000
10000000
10010000
00000000
,
10000000
01000000
00010000
00001000
,
00000010
00000001
00000100
00001000
,
00011000
00000000
01010000
00000000
,
10010000
00000000
00000000
00000000
,
00000000
00000000
00000000
01000000
;

//--------------- dance-double - Princess Extra ----------------
#NOTES:
     dance-double:
     Princess Extra:
     Medium:
     10:
     0,0,0,0,0:
00000000
00000000
00000000
00000000
,
00000000
00000000
00000000
00000000
,
00000000
00000000
00000000
00000000
,
00000000
00000000
00000000
00000000
,
00000000
00000000
00000000
00000000
,
00000000
00000000
00000000
00000000
,
00000000
00000000
00001000
00000000
,
00000000
00000000
00000000
00000000
00000000
00000000
00000000
00000000
00000000
00010000
00000000
00000000
00000000
00000000
00000000
00000000
,
00000000
00000000
01000000
00000000
00000000
00000000
00000000
00000000
00000000
00000000
00000000
10000000
00000000
00000000
00000000
00000000
,
00000000
00000000
00000000
00000000
,
00000000
00000000
00000000
00000000
,
00000000
00000000
00000000
00000000
,
00000000
00000000
00000000
00000000
,
00000000
00100000
00000000
00000000
,
00000000
00000000
01000000
00000000
,
00000000
00000000
00000000
00001000
,
00000000
00000000
00000000
00000000
00000000
00000000
00000000
00010000
00000000
00000000
00000000
00000000
00000000
00000000
00000010
00000000
,
00000000
00000000
00000000
00000000
00000000
00000000
00000000
00000100
00000000
00000000
00000000
00000000
00000000
00000000
00000000
00000000
,
00000000
00000000
00000001
00000000
00000000
00000000
00000000
00000000
00000000
00000000
00000000
00000000
00000000
00000000
00000000
00001001
,
00000000
00000000
00000000
00000000
,
00000000
00000000
00000000
00000000
,
00001000
00000100
00001000
00000100
00001000
00000000
00000001
00000100
,
00000001
00000100
00000001
00000000
00000000
00000010
00000000
00000010
,
00000000
00000100
00001000
00000000
00000100
00010000
00001000
00000000
,
00100000
00001000
00100000
00000000
00000000
00000000
00000000
00000000
,
00010000
01000000
00010000
01000000
00010000
00000000
10000000
01000000
,
10000000
01000000
10000000
00000000
00000000
00100000
00000000
01000000
,
00000000
00100000
00010000
00000000
00001000
00000000
00010000
00000000
,
00000100
00001000
00000100
00000000
00000010
00000000
00000000
00000000
,
00000100
00001000
00000100
00001000
00000001
00000000
00000100
00000001
,
00000000
00000001
00000000
00000010
00000001
00000000
00000000
00000000
,
00000100
00000010
00000100
00000000
00001000
00000000
00010000
00000000
,
00011000
00001000
01000000
00000000
,
00010000
10000000
00010000
10000000
00010000
00000000
10000000
01000000
,
00000000
01000000
00000000
10000000
00100000
00000000
00000000
00000000
,
01000000
00100000
01000000
00000000
00100000
00000000
00010000
00000000
,
00001000
00010000
00001000
00000000
00010000
00000000
00000000
00000000
,
00001000
00100000
00010000
00100000
00001000
00000000
00010000
00000010
,
00001000
00000010
00010000
00000000
00000000
00001000
00000000
00010000
,
00000000
00000100
00001000
00000000
00000001
00000100
00000010
00000000
,
00010000
00001000
00010000
00000000
00000000
00000000
00000000
00000000
,
00001000
01000000
00010000
01000000
00001000
00000000
00010000
00000100
,
00001000
00000100
00010000
00000000
00000000
00001000
00010000
00000000
,
00100000
10000000
01000000
00010000
,
00001000
00001000
00001000
00000000
,
00011000
00000000
00000000
00000100
00001000
00000100
00001000
00000000
,
00000010
00000000
00001000
00000100
00001000
00000000
00000000
00000000
,
00000001
00000100
00001000
00010000
,
00100000
01000000
01100000
00000000
,
01010000
00000000
00000000
01000000
00010000
01000000
00010000
00000000
,
00100000
00000000
00010000
01000000
00010000
00000000
00000000
00000000
,
00100000
01000000
00010000
00001000
,
00000010
00000000
00000100
00001000
00000001
00000000
00000000
00000000
,
00001001
00000000
00001100
00000000
,
00011000
00000000
00000000
00000000
,
00100000
00000000
00010000
01000000
,
00100000
01000000
00000000
00100000
10000000
00000000
01000000
00000000
,
00010000
00000000
00000000
00000000
00001000
00010000
00001000
00000000
,
00000010
00000000
00000100
00001000
,
00000001
00000000
00000010
00000100
00000000
00000000
00010000
00000000
,
00001000
00100000
00000000
00100000
00010000
00000000
01000000
00000000
,
00100000
00000000
10000000
01000000
,
00100000
01000000
00100000
00000000
00001000
00000000
00001000
00000000
,
00010000
00000000
00000000
00010000
00000000
00000000
00000100
00000000
00000000
00000010
00000000
00000000
00000001
00000000
00000000
00000000
,
00001000
00000000
00000000
00001000
00000000
00000000
00000001
00000000
00000000
00000100
00000000
00000000
00001000
00000000
00000000
00000000
,
00010000
00001000
00100000
00010000
00100000
00000000
00001000
00010000
,
00000010
00001000
00000010
00000000
00000000
00000100
00000000
00000001
,
00000000
00000010
00000000
00001000
00000000
00010000
00000000
00001000
,
00100000
00001000
00100000
00000000
00001000
00000000
00000000
00000000
,
00010000
00001000
01000000
00010000
01000000
00000000
00001000
00010000
,
00000100
00001000
00000100
00000000
00000000
00000010
00000000
00000001
,
00000010
00000100
00000010
00001000
,
00010000
00001000
00010000
00000000
00001000
00000000
00000000
00000000
,
00011000
00000000
00010000
00100000
00000000
01000000
00100000
00000000
,
10000000
00000000
01000000
10000000
00000000
00100000
10000000
00000000
,
01000000
00010000
00001000
00000100
,
00000010
00000110
00001001
00000001
,
00000010
00000100
00000010
00000000
00000001
00001000
00000001
00000000
,
00000010
00000100
00000010
00000000
00001000
00000000
00010000
00000000
,
00011000
00100000
00110000
01000000
,
10010000
00000000
00000000
00000000
,
00000000
00000000
00000000
10000000
;

//--------------- dance-double - Princess Extra ----------------
#NOTES:
     dance-double:
     Princess Extra:
     Hard:
     13:
     0,0,0,0,0:
00000000
00000000
00000000
00000000
,
00000000
00000000
00000000
00000000
,
00000000
00000000
00000000
00000000
,
00000000
00000000
00000000
00000000
,
00000000
00000000
00000000
00000000
,
00000000
00000000
00000000
00000000
,
00000000
00000000
10000000
00000000
,
00000000
00000000
00000000
00000000
00000000
00000000
00000000
00000000
00000000
01000000
00000000
00000000
00000000
00000000
00000000
00000000
,
00000000
00000000
00010000
00000000
00000000
00000000
00000000
00000000
00000000
00000000
00000000
00001000
00000000
00000000
00000000
00000000
,
00000000
00000000
00000000
00000000
,
00000000
00000000
00000000
00000000
,
00000000
00000000
00000000
00000000
,
00000000
00000000
00000000
00000000
,
00000000
00010000
00000000
00000000
,
00000000
00000000
00000100
00000000
,
00000000
00000000
00000000
00001000
,
00000000
00000000
00000000
00000000
00000000
00000000
00000000
00000001
00000000
00000000
00000000
00000000
00000000
00000000
00000100
00000000
,
00000000
00000000
00000000
00000000
00000000
00000000
00000000
00001000
00000000
00000000
00000000
00000000
00000000
00000000
00000000
00000000
,
00000000
00000000
01000000
00000000
00000000
00000000
00000000
00000000
00000000
00000000
00000000
00000000
00000000
00000000
00000000
10010000
,
00000000
00000000
00000000
00000000
,
00000000
00000000
00000000
00000000
,
10000000
01000000
00010000
01000000
10000000
00000000
00010000
00100000
,
10000000
00100000
00010000
00000000
00100000
00001000
00000000
00011000
,
00000000
00001000
00000010
00000001
00001000
00000010
00010000
00001000
,
01000000
00010000
01000000
00000000
00001000
00010000
00000100
00001000
,
00000001
00000100
00001000
00000100
00000001
00000000
00001000
00000010
,
00000001
00000010
00001000
00000000
00000010
00010000
00000000
00011000
,
00000000
00010000
00100000
10000000
00010000
00100000
00001000
00010000
,
00000100
00001000
00000001
00000100
00001000
00000000
01000000
00010000
,
10000000
01000000
00010000
01000000
10000000
00000000
01000000
00010000
,
00000000
00001000
00010000
00000100
00001000
00000000
00000001
00000100
,
00000010
00010000
00001000
01000000
00010000
10000000
01000000
00100000
,
00001000
00010000
00000100
00001000
00001000
00000000
00000001
00001000
,
00000001
00000100
00001000
00000100
00000001
00000000
00000100
00001000
,
00000000
00010000
00001000
01000000
00010000
00000000
10000000
01000000
,
00010000
00001000
00010000
00000000
00001000
00000010
00000000
00000001
,
00000100
00001000
00010000
00001000
01000000
00000000
10010000
00000000
,
00010000
01000000
10000000
01000000
00010000
00000000
10000000
00100000
,
00010000
00100000
10000000
00000000
01000000
00010000
00000000
00011000
,
00000000
00001000
00000010
00000001
00001000
00000010
00010000
00001000
,
01000000
00010000
01000000
00000000
00001000
00001000
00010000
00000010
,
00001000
00000100
00000001
00000100
00001000
00000000
00000001
00000010
,
00001000
00000010
00000001
00000000
00001000
00000010
00010000
00001000
,
00011000
01010000
10100000
10010000
,
10000000
01000000
00010000
00001000
00000010
00000001
00001000
00000000
,
00001001
00000000
00000001
00000100
00001000
00010000
00001000
00000000
,
00001000
00000100
00001000
00010000
00001000
00000000
00010000
00100000
,
10000000
00000000
00000000
01000000
00010000
00000000
00000000
00010000
00001000
00000000
00000000
00001000
00000010
00000000
00000000
00000000
,
00000001
00001000
00000010
00010000
00001000
00000000
01000000
00000000
,
10010000
00000000
10000000
01000000
00010000
00001000
00010000
00000000
,
00001000
00010000
00000010
00001000
00000001
00000000
00000010
00000000
,
00001100
00011000
00110000
11000000
,
10000000
00100000
00010000
00001000
00000100
00000000
00000001
00000000
,
00001001
00000000
00011000
00000000
,
10010000
00000000
00000000
00000000
,
10000000
01000000
10000000
01000000
00010000
00001000
00010000
00001000
,
00000010
00000001
00000010
00000001
00001000
00000010
00001000
00000010
,
00010000
00001000
01000000
00100000
00000000
10000000
00010000
00010000
,
10000000
00000000
01000000
00000000
00100000
00000000
01000000
00000000
00000000
00010000
00000000
00000000
00001000
00000000
00010000
00000000
,
00001000
00000010
00000001
00001000
00000001
00000100
00000000
00001000
,
00000100
00000000
00000010
00000000
00010000
00000000
00000000
00001000
00000000
00000000
00010000
00000000
00100000
00000000
10000000
00000000
,
00010000
10000000
01000000
00010000
01000000
00010000
00001000
00000010
,
00001000
00000010
00000001
00000100
00000001
00000100
00001000
00001000
,
00010000
00000000
00000000
00100000
00000000
00000000
10000000
00000000
00000000
00010000
00000000
00000000
10000000
00000000
01000000
00000000
,
01100000
00000000
00000000
00110000
00000000
00000000
00011000
00000000
00000000
00001100
00000000
00000000
00001001
00000000
00001000
00000000
,
00000001
00000100
00001000
00000100
00000001
00000000
00001000
00000010
,
00000001
00000010
00001000
00000000
00000001
00000010
00000010
00000100
,
00000100
00010000
00001000
01000000
00010000
10000000
01000000
00010000
,
00001000
00010000
00000100
00000000
00010000
00001000
01000000
00010000
,
10000000
01000000
00010000
01000000
10000000
00000000
00010000
00100000
,
10000000
00100000
00010000
00000000
10000000
00100000
00100000
01000000
,
01000000
00000000
00001000
00010000
00010000
00000000
00000010
00000100
,
00000100
00000001
00000001
00000000
00000011
00000000
00001001
00000000
,
00000001
00000100
00001000
00010000
00100000
10000000
00010000
00010000
,
10000000
00000000
10000000
00000000
01000000
00000000
00000000
00000000
10000000
00000000
01000000
00000000
00100000
00000000
00001000
00010000
,
00001000
00000000
00010000
00000000
00000010
00000000
00000100
00000000
00000000
00000000
00000001
00000010
00000001
00000000
00001000
00000000
,
00001000
00000001
00000001
00000000
00001000
00000010
00010000
00001000
,
00010000
01000000
10000000
01000000
00010000
01000000
10000000
01000000
,
00010000
00001000
00000010
00000001
00000100
00001000
00010000
00001000
,
00011000
01000000
10010000
00001000
,
00011000
00000000
00000000
00000000
,
00000000
00000000
00000000
00010000
;

//--------------- dance-double - Princess Extra ----------------
#NOTES:
     dance-double:
     Princess Extra:
     Challenge:
     15:
     0,0,0,0,0:
00000000
00000000
00000000
00000000
,
00000000
00000000
00000000
00000000
,
00000000
00000000
00000000
00000000
,
00000000
00000000
00000000
00000000
,
00000000
00000000
00000000
00000000
,
00000000
00000000
00000000
00000000
,
00000000
00000000
10000000
00000000
,
00000000
00000000
00000000
00000000
00000000
00000000
00000000
00000000
00000000
01000000
00000000
00000000
00000000
00000000
00000000
00000000
,
00000000
00000000
00010000
00000000
00000000
00000000
00000000
00000000
00000000
00000000
00000000
00001000
00000000
00000000
00000000
00000000
,
00000000
00000000
00000000
00100000
00000000
01000000
00000000
10000000
,
00000000
00000000
00100000
00000000
00000000
00000000
01000000
00000000
00000000
00000000
00010000
00000000
00000000
00100000
00000000
00000000
,
00001000
00000000
00000000
00000000
,
00000000
00000000
00000000
00000000
,
00000000
00010000
00000000
00000000
,
00000000
00000000
00000010
00000000
,
00000000
00000000
00000000
00001000
,
00000000
00000000
00000000
00000000
00000000
00000000
00000000
00000001
00000000
00000000
00000000
00000010
00000000
00000000
00000000
00001000
,
00000000
00000000
00000000
00010000
00000000
00000000
00000000
00001000
00000000
00000000
00000000
00000000
01000000
00000000
00000000
00000000
,
00000000
00000000
00010000
00000000
00000000
00000000
00000000
00000000
00000000
00100000
00000000
00000000
00000000
00000000
00000000
00011000
,
00000000
00000000
00000000
00000000
,
00000000
00000000
00000000
00000000
,
00010000
00000010
00010000
00001000
00011000
00000000
00001000
00100000
,
00001000
00010000
00011000
00000000
00001000
00000010
00000000
00000001
,
00000000
00001000
00000010
00010000
00001000
01000000
00010000
10000000
,
01000000
00100000
00110000
00000000
00100000
00001000
00010000
00000000
,
00001000
01000000
00001000
00010000
00011000
00000000
00010000
00000100
,
00010000
00001000
00011000
00000000
00010000
01000000
00000000
10000000
,
00000000
00010000
01000000
00001000
00010000
00000010
00001000
00000001
,
00000010
00000000
00000100
00000000
00001000
00000000
00000001
00000000
00001001
00000000
00000000
00000000
00000001
00001000
00000001
00000000
,
00001000
00000010
00000100
00000001
00000101
00000000
00000100
00001000
,
00000000
00010000
00100000
10000000
00010000
00000000
00100000
00001000
,
00011000
00010000
00000100
00001000
00001100
00000100
00000010
00000001
,
00000101
00000000
00000100
00000000
00001000
00000000
00010000
00000000
00001000
00000000
00000000
00000000
00010000
00001000
00100000
00000000
,
00010000
00100000
01000000
10000000
11000000
00000000
01000000
00010000
,
00000000
00001000
00000010
00000001
00001000
00000000
00000010
00010000
,
00011000
00001000
01000000
00000000
01010000
01000000
00000000
00010000
,
00110000
00100000
01100000
01000000
11000000
00000000
00010000
00000000
,
10000000
01000000
00010000
00001000
00011000
00000000
00000001
00000100
,
00001000
00010000
00011000
00000000
00000000
01010000
00000000
10100000
,
00000000
11000000
10000000
00010000
00100000
00001000
00010000
00000100
,
00001000
00000000
00000001
00000000
00000101
00000000
00000000
00000000
00000001
00001000
00000001
00001000
00000001
00000000
00000000
00000000
,
00000001
00000100
00001000
00010000
00011000
00000000
10000000
01000000
,
00010000
00001000
00011000
00000000
00010000
00001000
00000010
00000001
,
00000011
00000010
00000110
00000000
00001100
00001000
00001010
00000000
,
00011000
00000000
00000000
00000000
00011000
00000000
00000000
00000000
00010000
00001000
00010000
00001000
00010000
00000000
00000000
00000000
,
01001000
00000000
00010000
01000000
10000000
01000000
00010000
00000000
,
01010000
01000000
10000000
01000000
00010000
00000000
10000000
01000000
,
00010000
00001000
00010000
00100000
10000000
01000000
00010000
00001000
,
00000010
00000001
00001000
00000010
00001010
00000000
00011000
00000000
,
00010010
00000000
00001000
00000010
00000001
00000010
00001000
00000000
,
00000001
00001000
00000001
00000000
00000010
00000100
00000010
00000000
00000001
00000000
00000000
00000000
00001001
00000000
00000000
00000000
,
00000001
00000100
00001000
00010000
00100000
10000000
00010000
00000000
,
10000000
01000000
00010000
00001000
00000010
00000000
00000001
00000000
,
00001001
00000000
00011000
00000000
,
10010000
00000000
00000000
00000000
,
10000000
00000000
00000000
00000000
00000000
00000000
00000000
00000000
00010000
10000000
00010000
00000000
00100000
00000000
00001000
00000000
,
00010000
00001000
00010000
00000000
00000100
00000000
00000000
00000000
00000010
00000000
00000001
00000000
00001000
00000000
00000001
00000000
,
00000100
00000000
00001000
00000000
00010000
00000000
00100000
00000000
00000000
00000000
00010000
00000000
00001000
00010000
00001000
00000000
,
00100000
00000000
00010000
10000000
00000000
10000000
00010000
00000000
00000000
01000000
00000000
00000000
00100000
00000000
10000000
00010000
,
10000000
00000000
01000000
00000000
00100000
00010000
00000000
00000000
00110000
00000000
00000000
00100000
00000000
00000000
00001000
00000000
,
00001000
00000000
00010000
00000000
00000010
00001000
00000000
00000000
00000001
00001000
00000001
00000000
00000010
00000000
00001000
00000000
,
00010000
01000000
10000000
00010000
01000000
00100000
10000000
01000000
,
00010000
00000000
00001000
00000000
00000010
00000000
00000001
00000000
00001000
00000001
00001000
00000000
00000010
00000000
00000100
00000000
,
00000101
00000000
00000000
00001010
00000000
00000000
00011000
00000000
00000000
01010000
00000000
00000000
10100000
00000000
10000000
00000000
,
11000000
00000000
00000000
00110000
00000000
00000000
00011000
00000000
00000000
00001100
00000000
00000000
00000011
00000000
00000001
00000000
,
00000101
00000100
00000010
00001000
00001010
00000000
01010000
01000000
,
00100000
10000000
10100000
00000000
00000000
10010000
00010000
00110000
,
00100000
00001000
00010000
00000010
00001000
00000001
00000010
00001000
,
00010000
01000000
10000000
00000000
00010000
01000000
00100000
10000000
,
11000000
01000000
00100000
00010000
00110000
00000000
00001100
00000100
,
00000010
00000001
00000011
00000000
00000000
00001001
00001000
00000010
,
00001010
00000000
00010000
00001000
00011000
00000000
01000000
00010000
,
01010000
00000000
01000000
00000000
00100000
00000000
00000000
00000000
10000000
00010000
10000000
00010000
10000000
00000000
00000000
00000000
,
00010000
00100000
00001000
00000000
00010000
00000000
00001000
00000000
00000100
00000000
00000001
00000000
00001000
00000000
00000010
00000000
,
00010000
00001000
00100000
00000000
00010000
00000000
00000000
00000000
10000000
00000000
00100000
00000000
01000000
00000000
00001000
00010000
,
00001000
00000000
00010000
00000100
00001000
00000000
00000001
00000000
00000100
00001000
00000100
00000000
00001000
00010000
00001000
00000000
,
00010000
00100000
10000000
00010000
01010000
00000000
00011000
00000000
,
00010000
00001000
00010000
00000000
00100000
00000000
00010000
00000000
00001000
00010000
00001000
00000000
00000010
00000000
00001000
00000000
,
00010000
00001000
00010000
00000000
00100000
00000000
01000000
00100000
10000000
00000000
00010000
00100000
01000000
00000000
10000000
00000000
,
11000000
00110000
00011000
00001100
,
00001001
00000000
00000000
00000000
,
00000000
00000000
00000000
00000001
;
