#TITLE:魂ノ華;
#SUBTITLE:;
#ARTIST:阿部靖広 feat.宏樹&龍哲;
#TITLETRANSLIT:Tamashii no hana;
#SUBTITLETRANSLIT:;
#ARTISTTRANSLIT:;
#GENRE:MOMO VISUAL 2;
#CREDIT:darkanine;
#MUSIC:Tamashii no hana.ogg;
#BANNER:Tamashii no hana.png;
#BACKGROUND:Tamashii no hana-bg.png;
#CDTITLE:;
#SAMPLESTART:40.703;
#SAMPLELENGTH:15.000;
#SELECTABLE:YES;
#OFFSET:0.273;
#BPMS:0.000=205.000
,68.000=102.500
,80.000=205.000
,109.500=123.000
,111.000=102.500
,118.000=136.666
,120.000=205.000
,244.000=102.500
,256.000=205.000
,304.000=102.500
,312.000=130.000
,313.000=150.000
,314.000=170.000
,315.000=190.000
,316.000=205.000
;
#STOPS:80.000=0.293
,81.000=0.293
,118.000=0.439
,119.000=0.439
,288.000=0.293
,288.500=0.293
,289.000=0.293
,289.500=0.293
,300.000=0.292
,300.500=0.292
,301.000=0.292
,301.500=0.292
,312.000=0.124
,313.000=0.185
,314.000=0.232
,315.000=0.269
;
#BGCHANGES:;
#FGCHANGES:;

//--------------- dance-single - darkanine ----------------
#NOTES:
     dance-single:
     darkanine:
     Hard:
     12:
     0,0,0,0,0:
0000
0000
0000
0000
,
0000
0000
0000
0000
,
0000
0000
0000
0000
,
0000
0000
0000
0000
,
0000
0000
0000
0000
,
0000
0000
0000
0000
,
0000
0000
0000
0000
,
1000
0001
0010
0100
,
1000
0010
0100
0001
0100
0010
2000
0000
,
3001
0110
1000
0110
,
0001
1010
1000
0101
,
0001
0100
1000
0000
1000
0100
0001
0000
,
0001
0100
1000
0000
1000
0100
0020
0000
,
1030
0110
0001
0110
,
1000
0011
0001
1100
,
1000
0100
0001
0000
0001
0100
1000
0000
,
1000
0100
0001
0100
0020
0000
0130
0010
,
0001
0000
0000
0001
1001
0000
0000
1000
0000
0100
0000
0000
0110
0000
0000
0000
,
0001
0000
0000
1000
1001
0000
0000
0001
0000
0010
0100
1000
0100
0000
0000
1000
,
0001
0000
0000
0100
0110
0000
0000
1000
0000
1000
0001
0000
0100
0010
0100
0100
,
2002
3003
0000
0000
0220
0330
0000
0000
1001
0000
0000
0000
0110
0000
0000
0000
,
1000
0001
1000
0001
0010
0000
0100
0010
,
0001
0000
1000
0010
0100
0010
1000
0000
,
1001
0000
0001
0000
0100
0010
0100
0000
,
1000
0000
1000
0000
0100
0010
0100
0000
,
0001
0000
1000
0000
0001
0010
0100
1000
,
0001
0000
0001
0010
0100
1000
0001
0000
,
0001
0000
0010
0000
0000
0000
0220
0000
0000
0000
0000
0000
0330
0000
0000
0100
,
0000
0100
0000
0100
1001
0000
0001
0000
1010
0000
0100
0001
0100
0000
0010
1000
,
0010
0000
0100
0001
1001
0000
1000
0000
0022
0033
0000
0000
2200
3300
0000
0000
,
2001
0000
0001
0000
0010
0000
0100
3000
,
1001
0000
1000
0100
0001
0000
0110
0000
,
1001
0000
0001
0100
1000
0000
0110
0000
,
1000
0001
0201
0000
0000
0000
0310
0000
,
1000
0010
0001
0000
0001
0010
1000
0000
,
0100
0001
0100
0000
1000
0100
1000
0000
,
0010
0001
0010
0000
1000
0010
1000
0000
,
0001
0010
0100
1000
0001
0010
0100
1000
,
0001
0000
0001
0000
0100
1000
0100
0000
,
0110
0020
1000
0100
,
0001
0100
1030
0001
,
0011
0020
0001
0100
,
1000
0000
0100
0000
0031
0000
1000
0001
,
0100
0000
0010
0100
0010
0000
0010
0001
,
0010
0000
0010
1000
0010
0000
0010
0100
,
0001
0000
0001
0010
0001
0000
0001
0100
,
0000
0100
1000
0000
0100
0010
0000
1000
,
0002
0010
2003
0100
,
3002
0100
2003
0010
,
3100
0001
0100
0000
1000
0000
1000
0000
,
0001
0100
1000
0000
0100
0010
1000
0000
,
2001
0010
3002
0100
,
2003
0100
3002
0010
,
0103
1000
0100
0000
0001
1000
0000
1000
,
0100
0000
0100
0010
0000
0010
0001
1000
,
1001
0000
0000
1010
0000
0000
0011
0000
,
0000
1100
0000
0000
0101
0000
0101
0000
,
1000
0100
0010
0001
1000
0010
0200
1000
,
0000
0010
0000
0301
0100
0000
0100
0000
,
1001
0000
0001
0011
0000
1000
1010
0000
,
0100
0101
0000
0000
1100
0000
1100
0000
,
0002
0000
0000
0103
0200
0000
0000
0000
2300
0000
0000
3010
0020
0000
0000
0000
,
0032
1000
0000
0000
1003
0000
0001
0000
0010
0000
0100
0000
1000
0000
0001
0000
,
2000
0000
3020
0000
0032
0000
0203
1000
,
1300
0000
0100
0000
0010
0001
0100
0000
,
0010
1000
0100
0000
0001
0100
1000
0000
,
0010
1000
0001
0100
0010
1000
0002
0010
,
0000
1000
0000
0103
0001
0000
1000
0000
,
1010
0000
0011
0000
1010
0000
0001
1000
,
0000
0011
0000
0001
0010
0100
1000
0001
,
1000
0100
0010
0010
0000
0001
0000
0100
,
0000
0020
1000
0130
0001
0020
1030
0020
,
0001
0001
0001
0001
0031
0000
0001
0000
,
1000
0000
0001
0100
0001
0000
1000
0000
0010
0000
0010
0000
0100
0000
0101
0000
,
0000
0011
0000
0100
1000
0000
0200
0000
,
1000
1000
1000
1000
1300
0000
1000
0000
,
0020
0000
0000
0130
0110
0000
0010
0000
1000
0001
0000
0001
1000
0000
0100
0000
,
0220
0000
0300
0100
0100
0000
0030
0010
,
0022
0033
0000
0000
2020
3030
0000
0000
2200
3300
0000
0000
2002
3003
0000
0000
,
0001
0000
1000
0010
0100
0001
0100
0110
,
0000
0000
0002
0000
0000
0003
0001
0000
,
1000
0000
0001
0010
0100
1000
0100
0101
,
0000
0110
0000
2200
0000
0300
0000
0000
,
3000
0000
0000
0000
;
