#TITLE:Tail Spin;
#SUBTITLE:;
#ARTIST:Des-ROW feat.DENNIS GUNN;
#TITLETRANSLIT:;
#SUBTITLETRANSLIT:;
#ARTISTTRANSLIT:;
#GENRE:;
#CREDIT:;
#BANNER:banner.png;
#BACKGROUND:;
#LYRICSPATH:;
#CDTITLE:;
#MUSIC:Tail Spin.mp3;
#OFFSET:-0.555000;
#SAMPLESTART:1.300000;
#SAMPLELENGTH:12.000000;
#SELECTABLE:YES;
#DISPLAYBPM:119.000000:190.000000;
#BPMS:0.000000=118.500999
,196.000000=94.849998
,200.000000=189.699997
;
#STOPS:
;
#BGCHANGES:0.000=Tail Spin.mp4=1.000=0=0=0=StretchNoLoop====,
99999=-nosongbg-=1.000=0=0=0 // don't automatically add -songbackground-
;
#KEYSOUNDS:;
#ATTACKS:;

//---------------dance-single - ----------------
#NOTES:
     dance-single:
     :
     Beginner:
     2:
     0.088246,0.123980,0.000000,0.000000,0.000000,71.000000,71.000000,0.000000,0.000000,0.000000,0.000000,0.088246,0.123980,0.000000,0.000000,0.000000,71.000000,71.000000,0.000000,0.000000,0.000000,0.000000:
// measure 0
0000
0000
0000
0000
,  // measure 1
0000
0000
0000
0000
,  // measure 2
0000
0000
0000
0000
,  // measure 3
0000
0000
0000
0000
,  // measure 4
0000
0000
0000
0000
,  // measure 5
1000
0000
0000
0000
,  // measure 6
0001
0000
0000
0000
,  // measure 7
0100
0000
0000
0000
,  // measure 8
0010
0000
0000
0000
,  // measure 9
1000
0000
0000
0000
,  // measure 10
0100
0000
0000
0000
,  // measure 11
0010
0000
0000
0000
,  // measure 12
0001
0000
0000
0000
,  // measure 13
0100
0000
0000
0000
,  // measure 14
0010
0000
0000
0000
,  // measure 15
1000
0000
0000
0000
,  // measure 16
0001
0000
0000
0000
,  // measure 17
1000
0000
1000
0000
,  // measure 18
1000
0000
0000
0000
,  // measure 19
0001
0000
0001
0000
,  // measure 20
0001
0000
0000
0000
,  // measure 21
0100
0000
0100
0000
,  // measure 22
0100
0000
0000
0000
,  // measure 23
0010
0000
0010
0000
,  // measure 24
0010
0000
0000
0000
,  // measure 25
1000
0000
0001
0000
,  // measure 26
1000
0000
0001
0000
,  // measure 27
0100
0000
0100
0000
,  // measure 28
0010
0000
0010
0000
,  // measure 29
0100
0000
0001
0000
,  // measure 30
0100
0000
0001
0000
,  // measure 31
1000
0000
1000
0000
,  // measure 32
0100
0000
0100
0000
,  // measure 33
1000
0000
0000
0000
,  // measure 34
0010
0000
0000
0000
,  // measure 35
0100
0000
0000
0000
,  // measure 36
0001
0000
0000
0000
,  // measure 37
0010
0000
0000
0000
,  // measure 38
0100
0000
0000
0000
,  // measure 39
1000
0000
0000
0000
,  // measure 40
0001
0000
0000
0000
,  // measure 41
1000
0000
1000
0000
,  // measure 42
0010
0000
0000
0000
,  // measure 43
1000
0000
1000
0000
,  // measure 44
0100
0000
0100
0000
,  // measure 45
0010
0000
0010
0000
,  // measure 46
0001
0000
0000
0000
,  // measure 47
0100
0000
0100
0000
,  // measure 48
0001
0000
0001
0000
,  // measure 49
0010
0000
0000
0000
,  // measure 50
0001
0000
0000
0000
,  // measure 51
0100
0000
0000
0000
,  // measure 52
0010
0000
0000
0000
,  // measure 53
1000
0000
0000
0000
,  // measure 54
0100
0000
0000
0000
,  // measure 55
0010
0000
0000
0000
,  // measure 56
0001
0000
0000
0000
,  // measure 57
1000
0000
0000
0000
;

//---------------dance-single - ----------------
#NOTES:
     dance-single:
     :
     Easy:
     5:
     0.208808,0.278737,0.078303,0.008700,0.000000,168.000000,159.000000,9.000000,1.000000,0.000000,0.000000,0.208808,0.278737,0.078303,0.008700,0.000000,168.000000,159.000000,9.000000,1.000000,0.000000,0.000000:
0000
0000
0000
0000
,
0000
0000
0000
0000
,
0000
0000
0000
0000
,
0000
0000
0000
0000
,
0000
0000
0000
0000
,
1000
0100
0000
0100
,
0010
0001
0000
0001
,
0100
0010
0000
0010
,
0100
0001
0000
1000
,
0100
0010
0000
0010
,
0100
1000
0000
1000
,
0010
0100
0000
0100
,
0010
1000
0000
1000
,
0001
1000
0000
0100
,
0010
0001
0000
1000
,
0010
0100
0000
0010
,
1000
0100
0010
0001
,
1000
0100
0001
0010
,
1000
0000
0000
0000
,
0001
0100
1000
0010
,
0001
0000
0000
0000
,
1000
0100
0001
0010
,
1000
0000
0000
0000
,
0001
0100
1000
0010
,
0001
0000
0000
0000
,
1000
1000
1001
0000
,
0001
0001
1001
0000
,
0010
0010
0100
0000
,
0100
0100
0010
0000
,
1000
1000
1100
0000
,
0001
0001
0101
0000
,
1000
1000
0010
0000
,
0001
0001
0010
0000
,
1000
0100
0000
0100
,
0010
0001
0000
0001
,
0100
0010
0000
0010
,
0100
0001
0001
0000
,
0001
0010
0000
0010
,
0100
1000
0000
1000
,
0010
0100
0000
0100
,
0010
1000
0001
0000
,
1000
0100
0010
0000
,
0001
0001
1001
0000
,
0001
0100
0010
0000
,
1000
1000
1001
1001
,
1000
0010
0100
0000
,
0001
0001
1001
0000
,
0001
0010
0100
0000
,
1000
1000
0001
0001
,
1001
0000
0000
0000
,
1000
1000
1000
0000
,
0001
0001
0001
0000
,
0100
0100
0100
0000
,
0010
0010
0010
0000
,
0100
0001
0010
0000
,
0010
0001
0100
0000
,
0010
1000
0100
1000
,
0010
0100
0001
1000
,
0200
0300
0000
0000
;

//---------------dance-single - ----------------
#NOTES:
     dance-single:
     :
     Medium:
     9:
     0.331856,0.378465,0.156606,0.008700,0.000000,267.000000,249.000000,18.000000,1.000000,0.000000,0.000000,0.331856,0.378465,0.156606,0.008700,0.000000,267.000000,249.000000,18.000000,1.000000,0.000000,0.000000:
0000
0000
0000
0000
,
0000
0000
0000
0000
,
0000
0000
0000
0000
,
0000
0000
0000
0000
,
0000
0000
0000
0000
,
1000
0000
0100
0000
0000
0010
0001
0000
,
0001
0000
0100
0100
0000
0010
0000
0010
,
1000
0001
0000
0001
0000
0100
0100
0000
,
0001
0000
0010
0100
0100
1000
0001
0000
,
0100
0000
1001
0000
0000
1000
0010
0000
,
0100
0000
1001
0000
0000
0001
0000
0010
,
0100
0000
0011
0000
0000
1000
0010
0000
,
0100
0000
1010
0000
0000
1000
0001
0100
,
0000
0100
0110
0000
0000
0001
1000
0100
,
0010
0100
0100
0100
1000
0010
0000
0010
,
0100
0001
1000
0000
0000
0001
0000
1000
,
0010
1000
0000
0100
0010
0001
0010
0001
,
1000
0010
0001
0100
,
1000
0000
0000
0000
0000
1000
0100
0010
,
0001
0010
1000
0100
,
0001
0000
0000
0000
0000
0001
0100
0010
,
1000
0010
0001
0100
,
1000
0000
0000
0000
0000
1000
0010
0100
,
0001
0010
1000
0100
,
0001
0000
0000
0001
1000
0010
0100
0001
,
0000
1000
0000
1000
0100
0000
0010
0000
,
0000
0001
0000
0001
0100
0000
0010
0000
,
1000
0100
1000
0000
0010
0000
0100
0000
,
0001
0010
0001
0000
0000
0001
0000
0001
,
1000
0000
0100
0000
0000
1000
0000
1000
,
0001
0000
0100
0000
0000
0100
0001
0100
,
0010
0000
0000
0000
0000
1000
0100
1000
,
0010
0000
0000
0100
0001
0010
0001
0100
,
0010
0000
1001
0000
0000
0001
1000
0000
,
0100
0000
1001
0000
0000
1000
0001
0000
,
0010
0000
1100
0000
0000
0001
0000
1000
,
0010
0000
0101
0000
0000
0001
0000
1000
,
0100
0000
0100
0000
1000
0010
0000
0010
,
0100
0100
0100
0000
0001
0010
0000
0001
,
0100
0100
0000
0001
1000
0100
0000
0100
,
1000
0010
0000
0010
0100
0100
0001
0001
,
1000
0100
0001
0000
0001
0010
1000
0000
,
1000
0100
0001
0000
0110
0000
1001
0000
,
0001
0100
1000
0000
1000
0010
0001
0000
,
0001
0100
1000
0000
0110
0000
1001
0000
,
1000
0100
0001
0000
0001
0010
1000
0000
,
1000
0100
0001
0000
0110
0000
1001
0000
,
0001
0100
1000
0000
1000
0010
0001
0000
,
0001
0100
1000
0000
0110
0000
0110
0000
,
1001
0000
0000
0000
,
1000
0100
1000
0100
,
0010
0001
0010
0001
,
1000
0010
1000
0010
,
0100
0001
0100
0001
,
1000
0100
0001
0010
,
1000
0100
0001
0010
,
1000
0010
0001
0100
,
1000
0010
0001
0200
,
0300
0000
0000
0000
;

//---------------dance-single - ----------------
#NOTES:
     dance-single:
     :
     Hard:
     13:
     0.497162,0.633494,0.243610,0.026101,0.208808,400.000000,372.000000,28.000000,3.000000,0.000000,0.000000,0.497162,0.633494,0.243610,0.026101,0.208808,400.000000,372.000000,28.000000,3.000000,0.000000,0.000000:
0000
0000
0000
0000
,
0000
0000
0000
0000
,
0000
0000
0000
0000
,
0000
0000
0000
0000
,
0000
0000
0000
0000
,
1000
0000
1100
0000
0000
0001
0010
0100
,
1000
0000
0101
0001
0001
1000
0100
1000
,
0010
0100
0000
0100
0000
0001
0010
0000
,
0001
0000
0000
0000
1000
0000
0100
0000
1000
0000
0010
0100
0001
0000
1000
0001
,
1000
0000
1010
0000
0000
0001
0100
0000
,
0001
0000
0011
0000
0000
1000
0000
0100
,
1000
0000
0110
0000
0000
0001
1000
0000
,
0010
0000
0110
0000
0000
0100
0001
0001
,
0000
1000
1000
0000
0000
0001
0010
0100
,
1000
0000
0001
0000
0001
0000
1000
0000
1000
0000
0010
0100
0000
0000
0010
0100
,
0001
0010
0001
0000
0001
0100
0000
0001
,
1000
0000
0100
0000
0000
0000
0100
0010
0001
0000
1000
0001
0100
0000
0001
0000
,
1000
0000
1000
0000
0100
0001
0000
0000
1000
0000
1000
0000
0100
0001
0000
0000
,
1000
0000
1000
0000
0100
0001
0000
0000
0100
0000
0100
0000
0010
0000
0010
0000
,
0001
0000
0001
0000
0100
1000
0000
0000
0001
0000
0001
0000
0100
1000
0000
0000
,
0001
0000
0001
0000
0100
1000
0000
0000
0100
0000
0100
0000
0010
0000
1000
0000
,
0001
0000
0001
0000
0010
1000
0000
0000
0001
0000
0001
0000
0010
1000
0000
0000
,
0001
0000
0001
0000
0010
1000
0000
0000
0010
0000
0010
0000
0100
0000
0100
0000
,
1000
0000
1000
0000
0010
0001
0000
0000
1000
0000
1000
0000
0010
0001
0000
0000
,
1000
1000
0001
0001
1000
0100
1000
0001
,
0000
0000
0200
0000
0000
0310
0000
0000
1001
0000
0000
0000
0001
0000
1000
0000
,
0000
0000
0020
0000
0000
0130
0000
0000
0110
0000
0001
0000
1000
0000
0100
0000
,
1000
0000
1000
0000
0010
0100
0000
0000
0001
0000
0001
0000
0010
0100
0000
0000
,
1000
0000
0001
0000
0100
0001
0000
0000
1000
0100
1000
0000
0001
0100
0001
0000
,
1000
0000
0010
0000
0110
0000
0000
0000
0001
0000
0010
0000
0100
0010
0000
0000
,
0001
0000
0100
0000
0110
0000
0000
0000
1000
0000
0001
0000
0100
0001
0000
1000
,
0000
0100
0010
0000
0001
1000
0100
1000
,
0001
0100
0010
0100
0001
0001
1000
1000
,
0100
0000
0011
0000
0000
1000
0010
0000
,
0100
0000
1010
0000
0000
0001
0010
0000
,
0100
0000
0110
0000
0000
1000
0001
0000
,
1000
0000
0101
0000
0100
0001
1000
1000
,
0100
0010
1001
0000
0000
0001
0100
0100
,
0001
0000
0100
0000
0110
0000
0000
0010
1000
0100
1000
0100
1000
0000
0010
0100
,
0001
0000
0001
0000
0000
0000
1000
0010
0000
0000
1000
0000
0000
0000
0100
0000
,
1000
0000
1000
0000
0000
0000
0001
0010
0100
0000
0100
0010
0001
0100
0010
0100
,
0001
0000
1000
0000
0100
1000
0000
0000
0001
0000
1000
0000
0100
1000
0000
0000
,
0001
0100
1000
0010
0001
0000
0110
0000
,
1000
0000
0001
0000
1000
0100
0000
0000
1000
0000
0001
0000
1000
0100
0010
0000
,
0001
0100
1000
0001
1000
0100
0001
0001
,
0010
0000
0010
0000
0001
0100
0000
0000
0010
0000
0010
0000
1000
0100
0000
0000
,
1000
0100
0001
0010
1000
0000
0110
0000
,
1000
0000
1000
0000
0010
0100
0000
0000
0001
0000
0001
0000
0010
0100
0010
0000
,
0001
1000
0100
0001
1000
0010
1000
0001
,
0110
0000
0000
0000
,
1001
0000
0001
0100
0010
1000
0100
1000
,
0000
0000
0010
0000
0100
0000
0000
0000
0001
0000
1000
0100
1000
0000
0000
0000
,
0010
0100
0001
0000
0000
1000
0100
1000
,
0010
0000
0100
0000
0100
0000
1000
0000
0100
0000
0001
0010
0001
0000
0010
0000
,
0100
0100
0010
0010
0100
0100
0010
0010
,
0001
0000
1000
0001
1000
0000
0010
0000
0100
0000
0001
0100
0001
0000
0010
0000
,
0100
0010
0100
0010
0100
0010
0100
0010
,
1001
1001
0110
0110
1001
1001
0110
0110
,
0200
0300
0000
0000
;
