#VERSION:0.83;
#TITLE:Tagawa 3000;
#SUBTITLE:;
#ARTIST:Golin;
#TITLETRANSLIT:;
#SUBTITLETRANSLIT:;
#ARTISTTRANSLIT:;
#GENRE:UK Garage;
#ORIGIN:;
#CREDIT:;
#BANNER:Tagawa 3000-bn.png;
#BACKGROUND:Tagawa 3000-bg.png;
#PREVIEWVID:;
#JACKET:Tagawa 3000-jacket.png;
#CDIMAGE:;
#DISCIMAGE:;
#LYRICSPATH:;
#CDTITLE:cdtitle.png;
#MUSIC:Tagawa 3000.ogg;
#OFFSET:-0.228000;
#SAMPLESTART:31.570999;
#SAMPLELENGTH:14.328000;
#SELECTABLE:YES;
#DISPLAYBPM:67.000000:134.000000;
#BPMS:0.000=67.000,
32.000=134.000,
156.000=67.000,
158.000=134.000;
#STOPS:31.000=2.687;
#DELAYS:;
#WARPS:;
#TIMESIGNATURES:0.000=4=4;
#TICKCOUNTS:0.000=4;
#COMBOS:0.000=1;
#SPEEDS:0.000=1.000=0.000=0;
#SCROLLS:0.000=1.000;
#FAKES:;
#LABELS:0.000=Song Start;
#BGCHANGES:-0.428=Tagawa 3000.avi=1.000=1=0=0=StretchNoLoop==CrossFade==,
99999=-nosongbg-=1.000=0=0=0 // don't automatically add -songbackground-
;
#KEYSOUNDS:;
#ATTACKS:
;

//---------------dance-single - ----------------
#NOTEDATA:;
#CHARTNAME:;
#STEPSTYPE:dance-single;
#DESCRIPTION:;
#CHARTSTYLE:;
#DIFFICULTY:Beginner;
#METER:2;
#RADARVALUES:0.090635,0.114324,0.000000,0.000000,0.000000,77.000000,77.000000,0.000000,0.000000,0.000000,0.000000,0.000000,0.000000,0.000000,0.090635,0.114324,0.000000,0.000000,0.000000,77.000000,77.000000,0.000000,0.000000,0.000000,0.000000,0.000000,0.000000,0.000000;
#CREDIT:iamthek3n;
#NOTES:
// measure 0
0000
0000
0000
0000
,  // measure 1
0000
0000
0000
0000
,  // measure 2
0000
0000
0000
0000
,  // measure 3
0000
0000
0000
0000
,  // measure 4
0000
0000
0000
0001
,  // measure 5
0000
1000
0000
0001
,  // measure 6
0000
1000
0000
0001
,  // measure 7
0000
1000
0000
0000
,  // measure 8
0001
0000
0000
0000
,  // measure 9
1000
0000
0000
0000
,  // measure 10
0001
0000
0000
0000
,  // measure 11
1000
0000
0000
0000
,  // measure 12
0100
0000
0000
0000
,  // measure 13
0010
0000
0000
0000
,  // measure 14
0100
0000
0000
0000
,  // measure 15
0010
0000
0000
0000
,  // measure 16
0001
0000
0000
0000
,  // measure 17
1000
0000
0000
0000
,  // measure 18
0001
0000
0000
0000
,  // measure 19
1000
0000
0000
0000
,  // measure 20
0010
0000
0000
0000
,  // measure 21
0100
0000
0000
0000
,  // measure 22
0010
0000
0000
0000
,  // measure 23
0100
0000
0000
0000
,  // measure 24
0001
0000
1000
0000
,  // measure 25
0001
0000
0100
0000
,  // measure 26
0001
0000
1000
0000
,  // measure 27
0001
0000
0000
0000
,  // measure 28
1000
0000
0100
0000
,  // measure 29
1000
0000
0001
0000
,  // measure 30
1000
0000
0100
0000
,  // measure 31
1000
0000
0001
0000
,  // measure 32
0100
0000
0001
0000
,  // measure 33
1000
0000
0001
0000
,  // measure 34
0100
0000
0010
0000
,  // measure 35
0100
0000
0001
0000
,  // measure 36
1000
0000
0100
0000
,  // measure 37
0010
0000
0100
0000
,  // measure 38
1000
0000
0001
0000
,  // measure 39
1000
0000
0010
0000
,  // measure 40
0000
0000
0100
0000
,  // measure 41
0000
0000
0010
0000
,  // measure 42
0000
0000
0100
0000
,  // measure 43
0000
0000
0001
0000
,  // measure 44
0000
0000
1000
0000
,  // measure 45
0000
0000
0001
0000
,  // measure 46
0000
0000
1000
0000
,  // measure 47
0000
0000
0100
0000
,  // measure 48
0010
0000
0100
0000
,  // measure 49
0010
0000
0001
0000
,  // measure 50
1000
0000
0001
0000
,  // measure 51
1000
0000
0010
0000
,  // measure 52
0100
0000
0010
0000
,  // measure 53
0100
0000
0001
0000
,  // measure 54
1000
0000
0001
0000
,  // measure 55
1000
0000
0001
0000
;

//---------------dance-single - ----------------
#NOTEDATA:;
#CHARTNAME:;
#STEPSTYPE:dance-single;
#DESCRIPTION:;
#CHARTSTYLE:;
#DIFFICULTY:Easy;
#METER:6;
#RADARVALUES:0.268374,0.297241,0.041198,0.173030,0.000000,228.000000,223.000000,5.000000,21.000000,0.000000,0.000000,0.000000,0.000000,0.000000,0.268374,0.297241,0.041198,0.173030,0.000000,228.000000,223.000000,5.000000,21.000000,0.000000,0.000000,0.000000,0.000000,0.000000;
#CREDIT:iamthek3n;
#DISPLAYBPM:67.000000:134.000000;
#NOTES:
// measure 0
0000
0000
0000
0000
,  // measure 1
0000
0000
0000
0000
,  // measure 2
0000
0000
0000
0000
,  // measure 3
0000
0000
0000
0000
,  // measure 4
0000
0000
0000
0101
,  // measure 5
0000
0100
0000
0001
,  // measure 6
0000
1000
0000
0100
,  // measure 7
0000
1000
0000
0001
,  // measure 8
0110
0000
0010
0000
0000
0010
1000
0000
,  // measure 9
0001
0000
1000
0000
0000
1000
0001
0000
,  // measure 10
0100
0000
0001
0000
0000
0001
1000
0000
,  // measure 11
0001
0000
0010
0000
0000
0010
0100
0000
,  // measure 12
0010
0000
0001
0000
0000
0001
2000
0000
,  // measure 13
0100
0000
3001
0000
0000
0001
0100
0000
,  // measure 14
0001
0000
1000
0000
0000
0100
1000
0000
,  // measure 15
0001
0000
0010
0000
0100
1000
0200
0000
,  // measure 16
0310
0001
0000
0001
,  // measure 17
0010
0100
0000
0100
,  // measure 18
1000
0001
0000
0001
,  // measure 19
1000
0100
0010
0100
2000
0000
3002
0000
,  // measure 20
0023
0130
1000
0001
,  // measure 21
1000
0000
0100
0000
1000
0100
0020
0000
,  // measure 22
0032
1003
0001
0000
,  // measure 23
0001
0000
0010
0100
2000
0000
3100
0000
,  // measure 24
1100
0001
1000
0100
,  // measure 25
1000
0100
1000
0000
0001
0100
0001
0000
,  // measure 26
1000
0000
0100
0000
0010
0100
0010
0000
,  // measure 27
0001
0000
1000
0000
0001
0000
0010
0100
,  // measure 28
0010
0001
1000
0001
,  // measure 29
1000
0100
1000
0000
0001
0100
0001
0000
,  // measure 30
1000
0000
0001
0000
0100
0010
0100
0000
,  // measure 31
0001
0000
0010
0000
0100
0000
1000
0100
,  // measure 32
1000
0001
0100
0001
,  // measure 33
1000
0010
1000
0000
0001
0010
0001
0000
,  // measure 34
0100
0000
0001
0000
0100
0010
0100
0000
,  // measure 35
0001
0000
0010
0000
0100
0000
1000
0100
,  // measure 36
1000
0001
1000
0010
,  // measure 37
1000
0000
0001
0000
0010
0100
2000
0000
,  // measure 38
3001
0000
1000
0000
0100
0010
0002
0000
,  // measure 39
0003
0000
1001
1000
,  // measure 40
0000
1000
0001
1000
,  // measure 41
0000
0010
0100
0010
,  // measure 42
0000
0000
1000
0000
0100
1000
0001
1000
,  // measure 43
0020
0000
0230
0000
0302
0000
1003
0100
,  // measure 44
0010
0000
0100
0000
1000
0000
0001
1000
,  // measure 45
0010
0000
1000
0000
0001
0000
0010
0100
,  // measure 46
1000
0000
0001
0000
1000
0001
0100
0001
,  // measure 47
2000
0000
3001
0000
0021
0000
0130
0010
,  // measure 48
0001
0000
1000
0000
0001
0000
1000
0001
,  // measure 49
0100
0000
0001
0000
0010
0000
0001
1000
,  // measure 50
0010
0000
1000
0000
0100
0010
0001
0010
,  // measure 51
0200
2300
3002
1003
,  // measure 52
0001
1000
0010
1000
,  // measure 53
0001
0010
0200
0000
2300
0000
3001
0000
,  // measure 54
1000
0000
0001
0000
1000
0001
0100
0001
,  // measure 55
2000
3100
1000
0000
;

//---------------dance-single - ----------------
#NOTEDATA:;
#CHARTNAME:;
#STEPSTYPE:dance-single;
#DESCRIPTION:;
#CHARTSTYLE:;
#DIFFICULTY:Medium;
#METER:10;
#RADARVALUES:0.387258,0.411565,0.271905,0.214228,0.185390,329.000000,296.000000,33.000000,26.000000,0.000000,0.000000,0.000000,0.000000,0.000000,0.387258,0.411565,0.271905,0.214228,0.185390,329.000000,296.000000,33.000000,26.000000,0.000000,0.000000,0.000000,0.000000,0.000000;
#CREDIT:iamthek3n;
#DISPLAYBPM:67.000000:134.000000;
#NOTES:
// measure 0
0000
0000
0000
0000
,  // measure 1
0000
0000
0000
0000
,  // measure 2
0000
0000
0000
0000
,  // measure 3
0000
0000
0000
0000
,  // measure 4
0000
0000
0000
0101
,  // measure 5
0000
1000
0001
1000
,  // measure 6
0000
0010
0100
0020
,  // measure 7
0000
2000
0000
3030
,  // measure 8
0011
0000
0000
1000
0000
0000
0001
0000
0000
1000
0000
0000
2002
0000
3003
0000
,  // measure 9
0220
0330
0010
0000
1000
0010
1000
0000
,  // measure 10
0001
0000
0000
0010
0000
0000
1000
0000
0000
0010
0000
0000
0022
0000
0033
0000
,  // measure 11
2020
3030
1000
0000
0001
0010
0001
0000
,  // measure 12
1000
0000
0100
0000
0010
0100
0020
0000
,  // measure 13
0001
0000
0130
0000
1000
0010
0001
0010
,  // measure 14
1000
1010
0001
0011
,  // measure 15
1000
0000
0001
0000
1000
0100
0020
0000
,  // measure 16
0031
0000
0000
0000
0001
0000
1000
0000
0001
0000
0000
0010
0000
0000
0100
0000
,  // measure 17
1000
0100
0000
0000
1100
0000
0100
0000
0010
0000
0000
0001
0000
0000
1000
0000
,  // measure 18
0001
0100
0000
0000
0101
0000
0001
0000
1000
0000
0000
0010
0000
0000
1000
0000
,  // measure 19
0001
0010
0000
0000
0110
0000
0000
0000
0200
0000
0000
0000
2300
0000
0000
0000
,  // measure 20
3002
0000
0000
0000
0103
0000
0001
0000
1000
0000
0000
0010
0000
0000
1000
0000
,  // measure 21
0001
0010
0000
0000
0011
0000
0010
0000
0001
0000
0000
1000
0000
0000
0001
0000
,  // measure 22
1000
0010
0000
0000
1010
0000
0001
0000
1000
0000
0000
0010
0000
0000
0100
0000
,  // measure 23
0110
0001
1000
0001
0020
0000
0130
0000
,  // measure 24
1100
0000
0000
0000
0001
0000
0000
1000
0010
0000
1000
0000
0001
0000
0000
0000
,  // measure 25
1000
0000
0001
0100
0001
0000
1000
0100
,  // measure 26
1000
0000
0000
0000
1100
0000
0000
0001
1000
0000
0001
0000
0100
0000
0000
0000
,  // measure 27
0101
0000
0000
0000
0110
0000
0010
1000
0000
0000
0001
0000
0010
0000
0100
0000
,  // measure 28
1000
0000
0000
0000
1100
0000
0000
1000
0001
0000
1000
0000
0010
0000
0000
0000
,  // measure 29
1000
0000
0001
0010
0001
0000
1000
0010
,  // measure 30
1000
0000
0000
0000
1001
0000
0000
0001
1000
0000
0100
0000
0010
0000
0000
0000
,  // measure 31
0011
0000
0000
0000
0101
0000
1000
0001
0000
0000
0100
0000
0001
0000
1000
0000
,  // measure 32
1001
0000
0000
0000
0001
0000
0010
0100
0000
0000
1000
0000
0010
0000
1000
0000
,  // measure 33
0010
0000
0100
0001
0010
0000
0100
1000
,  // measure 34
0001
0000
0000
0000
1000
0000
0000
0000
0010
0000
0100
0000
0001
0000
0000
0100
,  // measure 35
0001
0000
0000
0000
1000
0000
0001
0010
0000
0000
0100
0000
0010
0000
0001
0000
,  // measure 36
1000
0000
0000
0000
0001
0000
0000
0010
0100
0000
0010
0000
0001
0000
1000
0000
,  // measure 37
0001
0000
1000
0000
0010
0100
0002
0000
,  // measure 38
2003
0000
0000
0000
3010
0000
0000
1000
0000
0000
0001
0000
1000
0000
0000
1100
,  // measure 39
0000
0000
0000
0000
1001
0000
0100
0001
,  // measure 40
0010
0000
0000
0100
0000
0000
1000
0000
0001
1000
0000
0000
1001
0000
0100
0000
,  // measure 41
1000
0000
0000
0001
0000
0000
0010
0000
0100
0010
0000
0000
0011
0000
0001
0000
,  // measure 42
1000
0000
0000
0010
0000
0000
1000
0000
0100
0000
0001
0000
0100
0000
0010
0000
,  // measure 43
0002
0000
0203
0000
0320
0000
0031
0010
,  // measure 44
1000
0000
0000
0001
0000
0000
0100
0000
0010
1000
0000
0000
1010
0000
0010
0000
,  // measure 45
1000
0000
0000
0001
0000
0000
1000
0000
0100
0010
0000
0000
0110
0000
0001
0000
,  // measure 46
1000
0000
0000
0001
0000
0000
0100
0000
0010
0000
1000
0000
0001
0000
0010
0000
,  // measure 47
0200
0000
1300
0000
1001
0000
1000
0001
,  // measure 48
1000
0000
0100
0000
0010
0000
0001
1000
,  // measure 49
0001
0000
0000
0010
0000
0000
1000
0000
0010
0100
0000
0000
1100
0000
1000
0000
,  // measure 50
0001
0000
0000
0100
0000
0000
0001
0000
1000
0010
1000
0000
0100
0000
0010
0000
,  // measure 51
0002
0000
2003
0000
3200
0000
0301
0100
,  // measure 52
1000
0000
0000
0001
0000
0000
0010
0000
0100
0010
0000
0000
0110
0000
0100
0000
,  // measure 53
1000
0000
0000
0001
0000
0000
0100
0000
0010
0100
0000
0000
1001
0000
0001
0000
,  // measure 54
1000
0000
0001
0100
0000
0001
0010
0100
,  // measure 55
2000
3001
1000
0000
;

//---------------dance-single - ----------------
#NOTEDATA:;
#CHARTNAME:;
#STEPSTYPE:dance-single;
#DESCRIPTION:;
#CHARTSTYLE:;
#DIFFICULTY:Hard;
#METER:12;
#RADARVALUES:0.470831,0.480159,0.181270,0.189509,0.296623,400.000000,378.000000,22.000000,23.000000,0.000000,0.000000,0.000000,0.000000,0.000000,0.470831,0.480159,0.181270,0.189509,0.296623,400.000000,378.000000,22.000000,23.000000,0.000000,0.000000,0.000000,0.000000,0.000000;
#CREDIT:iamthek3n;
#DISPLAYBPM:67.000000:134.000000;
#NOTES:
// measure 0
0000
0000
0000
0000
,  // measure 1
0000
0000
0000
0000
,  // measure 2
0000
0000
0000
0000
,  // measure 3
0000
0000
0000
0000
,  // measure 4
0000
0000
0000
2100
,  // measure 5
0010
3002
0100
2003
,  // measure 6
0001
3020
0100
2030
,  // measure 7
0001
3200
0010
0300
,  // measure 8
0011
0000
0010
0200
0000
0300
1000
0000
0001
0200
0000
0300
0101
0000
0000
0000
,  // measure 9
1100
0000
0100
1000
0000
1000
0001
0000
,  // measure 10
1001
0000
0001
0200
0000
0300
0010
0000
1000
0200
0000
0300
1100
0000
0000
0000
,  // measure 11
0101
0000
0001
1000
0000
1000
0001
0000
,  // measure 12
0001
0010
0000
0100
1000
0000
0100
0000
0001
0000
0100
0000
2000
0000
0000
0000
,  // measure 13
3001
0100
0000
1000
0100
0000
0001
0000
1000
0000
0001
0000
0010
0000
0100
0000
,  // measure 14
1000
0100
1000
0000
1001
0000
0001
0100
0001
0000
1000
0000
0010
0000
1000
0000
,  // measure 15
0010
0100
0000
0001
0010
0000
1000
0000
0010
0000
0100
0000
2000
0000
0000
0000
,  // measure 16
3100
0000
0000
0000
1100
0000
1000
0000
0001
0000
0000
0100
0010
0000
0100
0000
,  // measure 17
0001
0100
0000
0001
1000
0000
0100
0000
0010
0000
0000
0100
1000
0000
0001
0000
,  // measure 18
0100
0010
0000
0001
0010
0000
1000
0000
0001
0000
0000
0010
0100
0000
0010
0000
,  // measure 19
0001
1000
0100
0010
0002
0100
0203
0010
,  // measure 20
0320
0000
0000
0000
1030
0000
0010
0000
1000
0000
0000
0001
0100
0000
0001
0000
,  // measure 21
1000
0010
0000
0100
0010
0000
1000
0000
0001
0000
0000
0100
0010
0000
0100
0000
,  // measure 22
0001
0010
0000
0100
1000
0000
0100
0000
1000
0000
0001
0000
0100
0000
1000
0000
,  // measure 23
0001
0010
1000
0001
2000
0000
3001
0000
,  // measure 24
0110
0000
0000
0000
0000
0000
0000
0000
0000
0000
0000
0000
0010
0000
0000
0000
0000
0000
0000
0000
0000
0100
0000
0000
0001
0000
0000
0000
0000
0000
1000
0000
0000
0000
0000
0000
0001
0000
0000
0000
0000
0000
0100
0000
0000
0000
0100
0000
,  // measure 25
0001
1000
0010
0100
0001
0010
0100
1000
,  // measure 26
0001
0000
0000
0000
1001
0000
0000
0001
0100
0000
0001
0000
1000
0000
0100
0000
,  // measure 27
1100
0000
0000
0000
0011
0000
1000
0001
0000
0000
1000
0000
0100
0000
1000
0000
,  // measure 28
0001
0000
0000
0000
0000
0000
0000
0000
0000
0000
0000
0000
0010
0000
0000
0000
0000
0000
0000
0000
0000
0010
0000
0000
0001
0000
0000
0000
0000
0000
1000
0000
0000
0000
0000
0000
0001
0000
0000
0000
0000
0000
1000
0000
0000
0000
1000
0000
,  // measure 29
0001
0010
0100
1000
0010
0100
0001
1000
,  // measure 30
0100
0000
0000
0000
1001
0000
0000
0100
1000
0000
0001
0000
1000
0000
0010
0000
,  // measure 31
1010
0000
0000
0000
0101
0000
0100
0001
0000
0000
1000
0000
0100
0000
0010
0000
,  // measure 32
0001
0000
0000
0000
0000
0000
0000
0000
0000
0000
0000
0000
1000
0000
0000
0000
0000
0000
0001
0000
0000
0010
0000
0000
0000
0000
0000
1000
0000
0000
0010
0000
0000
0000
0000
0000
0001
0000
0000
0000
0000
0000
0100
0000
0000
0000
0100
0000
,  // measure 33
0001
1000
0010
0100
1000
0001
0100
0010
,  // measure 34
0001
0000
0000
0000
1001
0000
0000
1000
0010
0000
1000
0000
0001
0000
0010
0000
,  // measure 35
0011
0000
0000
0000
1010
0000
0010
1000
0000
0000
0001
0000
0010
0000
1000
0000
,  // measure 36
0001
0000
0000
0000
0000
0000
0100
0000
0000
0000
0000
0000
0010
0000
0000
0000
0000
0000
0001
0000
0000
0010
0000
0000
0000
0000
0000
0000
0000
0000
0010
0000
0000
0000
0000
0000
0100
0000
0000
0000
0000
0000
1000
0000
0000
0000
0001
0000
,  // measure 37
1000
0100
0001
1000
0100
0010
2000
0000
,  // measure 38
3001
0000
0000
0000
0000
0000
0000
0000
0000
0000
0000
0000
1000
0000
0000
0000
0000
0000
0001
0000
0000
0010
0000
0000
0000
0000
0000
0000
0000
0000
0010
0000
0000
0000
0000
0000
0100
0000
0000
0000
0000
0000
1000
0000
0000
0000
0100
0000
,  // measure 39
0000
0000
0000
0000
0101
0000
0001
1000
,  // measure 40
0001
0000
0000
0010
0000
0000
0100
0000
1000
0100
0000
0010
0001
0000
1000
0000
,  // measure 41
0001
0000
0000
0100
0000
0000
0001
0000
0010
0100
0000
1000
0010
0000
1000
0000
,  // measure 42
0001
0000
0000
1000
0000
0000
0010
0000
0001
0000
0010
0000
0100
0000
0010
0000
,  // measure 43
2000
0000
0000
0000
3002
0000
0100
0000
0103
0001
0000
1000
0100
0000
1000
0000
,  // measure 44
0100
0000
0000
0010
0000
0000
0001
0000
0010
1000
0000
0010
0001
0000
1000
0000
,  // measure 45
0010
0000
0000
0010
0100
0000
0001
0000
0010
0100
0000
1000
0001
0000
1000
0000
,  // measure 46
0001
0000
0000
0001
0100
0000
0001
0000
1000
0000
0001
0000
0100
0000
0010
0000
,  // measure 47
2000
0000
3001
1000
1001
0000
0100
1000
,  // measure 48
0001
0000
0000
0010
0001
0000
1000
0000
0001
1000
0000
0000
1001
0000
0100
0000
,  // measure 49
0001
0000
0000
1000
0100
0000
0010
0000
0001
0100
0000
1000
0100
0000
0001
0000
,  // measure 50
0100
0000
0000
0100
0001
0000
1000
0000
0100
0000
0001
0000
1000
0000
0010
0000
,  // measure 51
0002
0000
0000
0000
2003
0000
0100
0000
3100
1000
0000
0001
0100
0000
0001
0000
,  // measure 52
1000
0000
0000
1000
0001
0000
0100
0000
1000
0100
0000
0010
0100
0000
0001
0000
,  // measure 53
1000
0000
0001
0000
0020
0000
0000
0000
0130
0010
0000
0100
1000
0000
0001
0000
,  // measure 54
0100
0000
0000
0100
0001
0000
1000
0000
0001
0000
1000
0000
0010
0000
0100
0000
,  // measure 55
1000
0001
0100
0010
0001
0000
0000
0000
;

//---------------dance-single - ----------------
#NOTEDATA:;
#CHARTNAME:marked doublesteps and footswitches galore oh my;
#STEPSTYPE:dance-single;
#DESCRIPTION:;
#CHARTSTYLE:;
#DIFFICULTY:Challenge;
#METER:14;
#RADARVALUES:0.516737,0.548753,0.238947,0.148312,0.416097,439.000000,410.000000,29.000000,18.000000,39.000000,0.000000,0.000000,0.000000,0.000000,0.516737,0.548753,0.238947,0.148312,0.416097,439.000000,410.000000,29.000000,18.000000,39.000000,0.000000,0.000000,0.000000,0.000000;
#CREDIT:k3n -FUKUOKA-;
#DISPLAYBPM:67.000000:134.000000;
#NOTES:
// measure 0
0000
0000
0000
0000
,  // measure 1
0000
0000
0000
0000
,  // measure 2
0000
0000
0000
0000
,  // measure 3
0000
0000
0000
0000
,  // measure 4
0000
0000
0000
1001
,  // measure 5
1000
0001
0100
0001
,  // measure 6
1000
0000
0000
0000
0100
0000
0000
0000
0010
0000
0000
0000
0100
0000
0000
0100
,  // measure 7
1000
0000
0001
0200
0000
0000
0000
0000
0301
0000
0000
0000
0000
0000
0100
0000
0001
0000
1000
0002
0000
0000
0000
0000
0003
0000
0000
0000
0000
0000
0000
0000
,  // measure 8
1000
0000
0100
0010
000M
0000
1000
0000
0100
0010
000M
0000
1000
0000
0000
0000
,  // measure 9
0001
0000
0000
0100
0000
0000
00M0
0000
0000
0100
0000
0000
1000
0000
0000
0000
0000
0000
0001
0000
0000
0100
0000
0000
0000
0000
0000
0000
0000
0000
0001
0000
0000
0000
0000
0000
1000
0000
0000
0000
0001
0000
0000
0000
0000
0000
1000
0000
,  // measure 10
0001
0000
0100
0010
M000
0000
0001
0000
0100
0010
M000
0000
0001
0000
0000
0000
,  // measure 11
0001
0010
0M00
0010
1000
0000
0001
0100
0000
0000
0001
0000
1001
0000
0100
0000
,  // measure 12
1100
0000
0000
0000
0000
0000
1000
0000
0000
0000
0000
0000
0001
0000
0000
0000
0000
0000
0100
0000
0000
0010
0000
0000
M000
0000
0000
0000
0010
0000
0001
0000
0000
0000
0000
0000
0011
0000
0000
0000
0000
0000
0000
0000
0000
0001
0000
0000
,  // measure 13
1000
0000
0000
0000
0000
0000
0001
0000
0000
0000
0000
0000
0010
0000
0000
0000
0000
0000
0001
0000
0000
0100
0000
0000
00M0
0000
0000
0000
0100
0000
1000
0000
0000
0000
0000
0000
1100
0000
0000
0000
0000
0000
0100
0000
0000
0000
0000
0000
,  // measure 14
1000
0001
0100
0000
0101
0000
0100
0001
1000
0000
0001
0000
0011
0000
1000
0000
,  // measure 15
1100
0100
1000
0001
0100
0010
2000
0001
,  // measure 16
3002
0000
0000
0000
1003
0000
0000
0000
0100
0000
0000
0100
0010
0000
0100
0000
,  // measure 17
1000
0000
0000
0001
0000
0000
0000
0000
0000
0000
0000
0000
1001
0000
0000
0000
0000
0000
0001
0000
0000
0010
0000
0000
0M00
0000
0000
0000
0010
0000
1000
0000
0000
0000
0000
0000
1001
0000
0000
0000
0000
0000
1000
0000
0000
0000
0000
0000
,  // measure 18
0001
0000
0000
0100
0000
0000
0000
0000
0000
0001
0000
0000
1000
0000
0000
0000
0000
0000
0100
0000
0000
0010
0000
0000
000M
0000
0000
0000
0010
0000
1000
0000
0000
0000
0000
0000
0001
0000
0000
0000
0000
0000
1000
0000
0000
0000
0000
0000
,  // measure 19
0100
0001
1000
0010
0002
0010
2003
0010
,  // measure 20
3001
0000
0000
0000
0000
0000
0000
0000
0000
0000
0000
0000
1001
0000
0000
0000
0000
0000
0001
0000
0000
0100
0000
0000
00M0
0000
0000
0000
0100
0000
1000
0000
0000
0000
0000
0000
1100
0000
0000
0000
0000
0000
0001
0000
0000
0000
0000
0000
,  // measure 21
1000
0001
0000
0100
0010
0000
0001
0000
0010
0000
1000
0000
0020
0000
0100
0000
,  // measure 22
0130
0000
0000
0001
0000
0000
0000
0000
0000
1000
0000
0000
0001
0000
0000
0000
0000
0000
1000
0000
0000
0010
0000
0000
0M00
0000
0000
0000
0010
0000
0001
0000
0000
0000
0000
0000
0000
0000
0000
0000
0000
0000
0001
0000
0000
0000
0000
0000
,  // measure 23
1000
0100
000M
0100
0001
0000
1000
0000
0002
0000
0000
0000
0013
0000
0000
0000
,  // measure 24
1001
0000
0010
1000
0001
1000
0100
0010
,  // measure 25
100M
0000
0100
0000
1000
0000
0010
0M00
0001
0000
0100
0000
0010
0000
0100
000M
,  // measure 26
1000
0000
0000
0000
1001
0000
0000
1000
0100
0000
1000
0000
0001
0000
0010
0000
,  // measure 27
0220
0000
0330
0000
1001
0000
0010
0001
0000
0000
1000
0000
0100
0000
0010
0000
,  // measure 28
1001
0000
0000
0000
1000
0000
0000
1000
0001
0000
1000
0000
0100
0000
0010
000M
,  // measure 29
1000
0000
0001
0000
1000
0000
0010
0M00
0001
0000
0100
0000
0010
0000
0100
000M
,  // measure 30
1000
0000
0000
0000
1100
0000
0000
0100
1000
0000
0001
0000
1000
0000
0000
0000
,  // measure 31
2002
0000
3003
0000
0110
0000
0010
1000
0000
0000
0001
0000
0010
0000
0100
0000
,  // measure 32
1001
0000
0000
0000
0000
0000
0000
0000
0000
0000
0000
0000
1000
0000
0000
0000
0000
0000
0000
0000
0000
0100
0000
0000
0010
0000
0000
0000
0000
0000
0100
0000
0000
0000
0000
0000
1000
0000
0000
0000
0000
0000
0001
0000
0000
0000
1000
0000
,  // measure 33
0100
0000
1000
0000
0001
0000
0100
000M
1000
0000
0010
0000
1000
0000
0100
00M0
,  // measure 34
0001
0000
0000
0000
0011
0000
0000
0001
0100
0000
0010
0000
1000
0000
0010
0000
,  // measure 35
1010
0000
0001
0000
0101
0000
0100
0001
0000
0000
1000
0000
0100
0000
0010
0000
,  // measure 36
0001
0000
0000
0000
0000
0000
1000
0000
0000
0000
0000
0000
0001
0000
0000
0000
0000
0000
1000
0000
0000
0100
0000
0000
00M0
0000
0000
0000
0100
0000
0001
0000
0000
0000
0000
0000
1000
0000
0000
0000
0000
0000
0001
0000
0000
0000
1000
0000
,  // measure 37
0010
1000
0001
0100
1000
0100
0002
0100
,  // measure 38
1003
0000
0000
0000
0000
0000
0001
0000
0000
0000
0000
0000
1000
0000
0000
0000
0000
0000
0100
0000
0000
0010
0000
0000
M000
0000
0000
0000
0010
0000
1000
0000
0000
0000
0000
0000
0001
0000
0000
0000
0000
0000
1000
0000
0000
0000
0010
0000
,  // measure 39
0000
000M
00M0
0M00
M000
0000
00M0
0000
1001
0000
0000
0000
0100
0000
1000
0000
,  // measure 40
0001
0000
0000
0010
0001
0000
1000
0000
0001
0100
00M0
0100
1000
0000
0001
0000
,  // measure 41
0100
0000
0000
0100
0001
0000
1000
0000
0100
0010
000M
0010
1000
0000
0001
0100
,  // measure 42
0000
0000
0000
0100
0000
0000
0001
0000
0000
1000
0000
0001
0100
0000
0000
0001
0000
0000
0010
0000
0000
0100
0000
0000
,  // measure 43
2000
0100
3002
0100
1003
0000
1001
0001
,  // measure 44
1000
0000
0000
0010
1000
0000
0001
0000
1000
0010
0M00
0010
0001
0000
1000
0000
,  // measure 45
0001
0000
0000
0001
1000
0000
0100
0000
1000
0010
0M00
0010
0001
0000
1000
0000
,  // measure 46
0001
0000
0000
0000
0000
0000
0000
0000
0000
1000
0000
0000
0100
0000
0000
0000
0000
0000
0010
0000
0000
0000
0010
0000
0100
0000
0000
0000
0000
0000
1000
0000
0000
0000
0000
0000
0001
0000
0000
0000
0000
0000
0010
0000
0000
0100
0000
0000
,  // measure 47
M000
0000
0000
0000
0100
0000
0001
0000
0000
0000
0000
0000
1000
0000
0000
0000
0000
0000
0010
0000
0000
0000
0000
0000
1001
0000
0000
0000
0000
0000
0000
0000
0000
0000
0000
0000
0001
0000
0000
0000
0000
0000
1000
0000
0000
0100
0000
0000
,  // measure 48
00M0
0000
0000
0000
0100
0000
0001
0000
0000
0000
0000
0000
2001
0000
0000
0000
0000
0000
3000
0000
0000
0000
0000
0000
2000
0000
0000
0010
0000
0000
3000
0000
0000
0000
0000
0000
1010
0000
0000
0000
0000
0000
1000
0000
0000
0000
0000
0000
,  // measure 49
0001
0000
0000
0000
0000
0000
0010
0000
0000
0000
0000
0000
0001
0000
0000
0000
0000
0000
0100
0000
0000
0000
0100
0000
0001
0000
0000
0000
0000
0000
1000
0000
0000
0000
0000
0000
0001
0000
0000
0000
0000
0000
1000
0000
0000
0100
0000
0000
,  // measure 50
00M0
0000
0000
0000
0100
0000
0001
0000
0000
0000
0000
0000
1000
0000
0000
0000
0000
0000
0010
0000
0000
0000
0010
0000
0100
0000
0000
0000
0000
0000
0010
0000
0000
0000
0000
0000
1000
0000
0000
0000
0000
0000
0001
0000
0000
0100
0000
0000
,  // measure 51
00M0
0000
0000
0000
0100
0000
1000
0000
0000
0000
0000
0000
0001
0000
0000
0000
0000
0000
1000
0000
0000
0000
0000
0000
0100
0000
0000
0000
0000
0000
0010
0000
0000
0000
0000
0000
0001
0000
0000
0000
0000
0000
0100
0000
0000
0010
0000
0000
,  // measure 52
000M
0000
0000
0000
0010
0000
0001
0000
0000
0000
0000
0000
1000
0000
0000
0000
0000
0000
0100
0000
0000
0000
0000
0000
0010
0000
0000
0100
0000
0000
M000
0000
0000
0100
0000
0000
0001
0000
0000
0000
0000
0000
1000
0000
0000
0000
0000
0000
,  // measure 53
0001
0000
0000
0000
0000
0000
0100
0000
0000
0000
0000
0000
0001
0000
0000
0000
0000
0000
1000
0000
0000
0000
1000
0000
0100
0000
0000
0000
0000
0000
0010
0000
0000
0000
0000
0000
0100
0000
0000
0000
0000
0000
1000
0000
0000
0010
0000
0000
,  // measure 54
000M
0000
0010
0001
0000
0000
1000
0000
0000
0100
0000
0000
1000
0000
0000
0001
0000
0000
0100
0000
0000
0010
0000
0000
,  // measure 55
2000
0001
3001
1000
1000
0000
0000
0000
;
