#TITLE:TWILIGHT ZONE (R-C Extended Club MIX);
#SUBTITLE:;
#ARTIST:2 UNLIMITED;
#TITLETRANSLIT:;
#SUBTITLETRANSLIT:;
#ARTISTTRANSLIT:;
#GENRE:;
#CREDIT:;
#MUSIC:TWILIGHT ZONE (R-C Extended Club MIX).ogg;
#BANNER:TWILIGHT ZONE (R-C Extended Club MIX).png;
#BACKGROUND:TWILIGHT ZONE (R-C Extended Club MIX)-bg.png;
#CDTITLE:;
#SAMPLESTART:17.393;
#SAMPLELENGTH:15.000;
#SELECTABLE:YES;
#OFFSET:0.000;
#BPMS:0.000=137.685
,4.000=138.018
;
#STOPS:;
#DISPLAYBPM:138.000;
#BGCHANGES:3.812=TWILIGHT ZONE (R-C Extended Club MIX).mp4=1.000=0=0=1,
99999.000=-nosongbg-=1.000=0=0=0=StretchNoLoop====,
99999.000=-nosongbg-=1.000=0=0=0=StretchNoLoop====
;
#FGCHANGES:;

//--------------- dance-single - RaverAce ----------------
#NOTES:
     dance-single:
     RaverAce:
     Beginner:
     1:
     0.059739,0.161768,0.165069,0,0,38,23,15,0,0,0,0.059739,0.161768,0.165069,0,0,38,23,15,0,0,0:
0000
0000
0000
0000
,
0000
0000
0000
0000
,
0000
0000
0000
0000
,
0000
0000
0000
0000
,
0000
0000
0000
0000
,
0000
0000
0000
0000
,
1001
0000
0000
0000
,
0000
0000
0000
0000
,
0000
0000
0000
0000
,
0110
0000
0000
0000
,
1001
0000
0000
0000
,
0000
0000
0000
0000
,
0000
0000
0000
0000
,
0000
0000
0000
0000
,
1001
0000
0000
0000
,
0000
0000
0000
0000
,
0000
0000
0000
0000
,
0000
0000
0000
0000
,
1001
0000
0000
0000
,
0000
0000
0000
0000
,
0010
0000
0000
0000
,
0100
0000
0000
0000
,
1001
0000
0000
0000
,
0000
0000
0000
0000
,
0000
0000
0000
0000
,
0000
0000
0000
0000
,
1001
0000
0000
0000
,
0000
0000
0000
0000
,
0000
0000
0000
0000
,
0000
0000
0000
0000
,
0010
0000
0000
0000
,
0010
0000
0000
0000
,
0010
0000
0000
0000
,
0010
0000
0000
0000
,
1001
0000
0000
0000
,
0000
0000
0000
0000
,
0100
0000
0000
0000
,
0000
0000
0000
0000
,
1001
0000
0000
0000
,
0000
0000
0000
0000
,
0010
0000
0000
0000
,
1001
0000
0000
0000
,
1001
0000
0000
0000
,
0000
0000
0000
0000
,
0000
0000
0000
0000
,
0000
0000
0000
0000
,
1001
0000
0000
0000
,
1001
0000
0000
0000
,
1001
0000
0000
0000
,
1001
0000
0000
0000
;

//--------------- dance-single - RaverAce ----------------
#NOTES:
     dance-single:
     RaverAce:
     Easy:
     5:
     0.24839,0.27202,0.165069,0.066028,0.005502,158,143,15,6,0,0,0.24839,0.27202,0.165069,0.066028,0.005502,158,143,15,6,0,0:
0000
0000
0000
0000
,
0000
0000
0000
0000
,
0000
0000
0000
0000
,
0000
0000
0000
0000
,
0001
0000
1000
0000
,
0001
0000
1000
0000
,
1001
0000
0000
0000
,
0010
0000
0000
0000
,
0100
0000
0000
0000
,
0110
0000
0000
0000
,
1001
1000
0100
1000
,
0001
0100
0001
0010
,
0100
1000
0001
1000
,
0100
0001
0100
0000
,
1001
0001
0100
0001
,
1000
0100
1000
0010
,
0100
0001
1000
0001
,
0100
1000
0100
0000
,
1001
0001
0001
0001
,
1000
1000
1000
0100
,
1000
1000
1000
0010
,
0100
0000
0000
0000
,
1001
0001
0010
0100
,
1000
0010
0100
0001
,
1000
0100
0010
0001
,
0010
1000
0010
0000
,
1001
0001
0100
0001
,
1000
0100
1000
0010
,
0100
0001
1000
0001
,
0100
1000
0100
0000
,
0001
0010
0100
1000
,
0001
0010
0100
1000
,
0001
0010
0100
1000
,
0001
0100
0010
0000
,
2001
0000
0100
0000
,
3001
1000
0001
0010
,
0100
0010
0002
0000
,
2000
0000
0000
3003
,
1002
0000
0100
0000
,
1003
0001
1000
0010
,
0100
0010
1000
0000
,
2002
0000
0000
3003
,
1001
1000
0100
0001
,
0100
1000
0010
0001
,
0010
0100
0001
0010
,
1000
0010
0100
0000
,
1001
0000
0000
1000
0000
0000
0001
0000
,
1001
0000
0000
0001
0000
0000
1000
0000
,
1001
0000
0000
1000
0000
0000
0001
0000
,
1001
0000
0000
0000
0100
0000
0000
0010
0000
0000
0000
0000
0000
0000
0000
0000
;

//--------------- dance-single - RaverAce ----------------
#NOTES:
     dance-single:
     RaverAce:
     Medium:
     9:
     0.358436,0.380828,0.121051,0.14306,0.258608,228,217,11,13,0,0,0.358436,0.380828,0.121051,0.14306,0.258608,228,217,11,13,0,0:
0000
0000
0000
0000
,
0000
0000
0000
0000
,
0000
0000
0000
0000
,
0000
0000
0000
0000
,
0001
1000
0010
0000
1000
0001
0010
0000
,
0001
1000
0100
1000
0010
0000
0000
0000
,
1001
0000
0000
0001
0000
0000
1000
0000
0000
0001
0000
0000
0010
0000
0000
0000
,
0001
0000
0000
1000
0000
0000
0001
0000
0000
1000
0000
0000
0010
0000
0000
0000
,
1000
0000
0000
0001
0000
0000
1000
0000
0000
0001
0000
0000
0010
0000
0000
0000
,
2002
0000
0000
3003
,
1010
0000
0000
1000
0000
0000
0100
0000
0000
0010
0000
0000
0001
0000
1000
0000
,
0001
0000
0000
0100
0000
0000
0010
0000
0000
1000
0000
0000
0001
0000
1000
0000
,
0001
0000
0000
0010
0000
0000
0100
0000
0000
1000
0000
0000
0001
0000
1000
0000
,
0200
0010
0310
0000
,
0011
0000
0000
0001
0000
0000
0100
0000
0000
0010
0000
0000
1000
0000
0001
0000
,
1000
0000
0000
0100
0000
0000
0010
0000
0000
0001
0000
0000
1000
0000
0001
0000
,
1000
0000
0000
0010
0000
0000
0100
0000
0000
0001
0000
0000
1000
0000
0001
0000
,
0200
0010
0310
0000
,
1001
0000
1000
0100
0000
0100
1000
0000
,
0001
0000
0100
0000
0001
1000
0001
0000
,
1000
0000
0001
0100
0000
0100
0002
0000
,
2000
0000
0000
3003
,
0101
0000
0000
0001
0000
0000
0010
0000
0000
0100
0000
0000
1000
0000
0001
0000
,
0100
0000
0000
0010
0000
0000
1000
0000
0000
0001
0000
0000
0010
0000
0001
0000
,
1000
0000
0000
0100
0000
0000
0010
0000
0000
0001
0000
0000
0100
0000
0001
0000
,
0020
0100
0130
0000
,
1100
0000
0000
1000
0000
0000
0010
0000
0000
0100
0000
0000
0001
0000
1000
0000
,
0100
0000
0000
0010
0000
0000
0001
0000
0000
1000
0000
0000
0010
0000
1000
0000
,
0001
0000
0000
0100
0000
0000
0010
0000
0000
1000
0000
0000
0100
0000
1000
0000
,
0020
0100
0130
0000
,
0001
0000
0100
0000
0001
1000
0100
0000
,
1000
0000
0100
0000
1000
0001
0100
0000
,
0001
0000
0010
0000
0001
1000
0010
0000
,
2000
0001
3001
0000
,
1001
0000
0000
0000
0001
0000
0000
1000
0000
0000
0000
0000
0100
0000
0000
0000
,
1000
0000
0000
0000
0001
0000
1000
0001
0000
0000
0000
0000
0100
0000
0000
0000
,
0001
0000
0010
0000
0100
0000
1000
0020
,
0000
0000
0100
0000
0130
0001
1000
0001
,
1001
0000
0000
0000
1000
0000
0000
0001
0000
0000
0000
0000
0100
0000
0000
0000
,
0001
0000
0000
0000
1000
0000
0001
1000
0000
0000
0000
0000
0100
0000
0000
0000
,
1000
0000
0010
0000
0100
0000
0001
1000
,
2002
0000
0000
3003
,
1001
0000
0000
0001
0000
0000
0100
0000
0000
0010
0000
0000
1000
0000
0000
0000
,
0001
0000
0000
0010
0000
0000
0100
0000
0000
1000
0000
0000
0010
0000
0000
0000
,
1000
0000
0000
0100
0000
0000
0010
0000
0000
0001
0000
0000
1000
0000
0000
0000
,
0020
0100
0130
0000
,
1000
0000
0000
0100
0000
0000
0001
0000
0000
0100
0000
0000
1000
0000
0000
0000
,
0001
0000
0000
0100
0000
0000
1000
0000
0000
0100
0000
0000
0001
0000
0000
0000
,
1000
0000
0000
0010
0000
0000
0001
0000
0000
0010
0000
0000
1000
0000
0000
0000
,
0001
0000
1000
0000
0001
0000
1000
0001
0000
0000
0000
0000
0000
0000
0000
0000
;

//--------------- dance-single - RaverAce ----------------
#NOTES:
     dance-single:
     RaverAce:
     Hard:
     12:
     0.521933,0.571242,0.099041,0.187078,0.495207,332,323,9,17,0,0,0.521933,0.571242,0.099041,0.187078,0.495207,332,323,9,17,0,0:
0000
0000
0000
0000
,
0000
0000
0000
0000
,
0000
0000
0000
0000
,
0000
0000
0000
0000
,
0001
0100
0000
0001
0000
0010
0000
0100
,
0000
1000
0000
0010
0100
0000
0000
0000
,
1001
0000
0000
1000
0000
0000
0001
0000
0000
0010
0000
0000
0001
0000
0000
0000
,
1000
0000
0000
0001
0000
0000
1000
0000
0000
0010
0000
0000
1000
0000
0000
0000
,
0001
0000
0000
1000
0000
0000
0100
0000
0000
1000
0000
0000
0001
0000
0000
0000
,
1001
0000
1000
0000
0010
0000
1000
0100
0000
0000
0000
0000
0000
0000
0000
0000
,
1000
0001
0000
1000
0001
0000
0100
0001
0000
0100
0001
0000
1000
0000
0001
0000
,
1000
0010
0000
1000
0010
0000
1000
0001
0000
1000
0001
0000
0010
0000
0001
0000
,
1000
0001
0000
1000
0001
0000
1000
0100
0000
1000
0100
0000
0010
0000
0001
0000
,
0100
0000
1000
0000
0100
0000
0001
1000
0000
0000
0000
0000
0000
0000
0000
0000
,
0001
1000
0000
0001
1000
0000
0100
1000
0000
0100
1000
0000
0001
0000
1000
0000
,
0001
0010
0000
0001
0010
0000
0001
1000
0000
0001
1000
0000
0010
0000
1000
0000
,
0001
1000
0000
0001
1000
0000
0001
0100
0000
0001
0100
0000
0010
0000
1000
0000
,
0100
0000
0001
0000
0100
0000
1000
0001
0000
0000
0000
0000
0000
0000
0000
0000
,
1001
0000
0001
0100
0000
0100
1000
0100
,
0010
0000
1000
0100
0010
0001
0100
0000
,
0001
0000
1000
0100
0000
0100
0001
0100
,
1000
0000
0000
0000
0001
1000
0010
0000
,
1000
0001
0000
1000
0001
0000
0100
0010
0000
0100
0010
0000
1000
0000
0100
0000
,
0010
0100
0000
0010
0100
0000
1000
0001
0000
1000
0001
0000
0100
0000
0010
0000
,
1000
0001
0000
1000
0001
0000
0010
0100
0000
0010
0100
0000
1000
0000
0001
0000
,
0100
0000
1000
0000
0100
0000
0001
1000
0000
0000
0000
0000
0000
0000
0000
0000
,
0001
1000
0000
0001
1000
0000
0100
0010
0000
0100
0010
0000
0001
0000
0100
0000
,
0010
0100
0000
0010
0100
0000
0001
1000
0000
0001
1000
0000
0100
0000
0010
0000
,
0001
1000
0000
0001
1000
0000
0010
0100
0000
0010
0100
0000
0001
0000
1000
0000
,
0100
0000
0001
0000
0100
0000
1000
0001
0000
0000
0000
0000
0000
0000
0000
0000
,
0001
0200
0000
0302
0000
1003
0100
0000
,
1000
0020
0000
0230
0000
0301
0010
0000
,
0001
0200
0000
0302
0000
1003
0100
1000
,
0010
0000
0001
0000
0010
0000
1000
0001
0000
0000
0000
0000
0000
0000
0000
0000
,
1020
0000
0000
0000
0230
0000
0000
0302
0000
0000
1003
0000
0100
0000
0010
0000
,
0001
0000
0100
0000
1000
0000
0100
0020
0000
0000
1030
0000
0010
0000
0100
0000
,
0001
0000
0010
0000
1000
0000
0010
0100
,
2000
0000
0001
0000
3010
0100
0001
0010
,
0021
0000
0000
0000
0230
0000
0000
2300
0000
0000
3001
0000
0100
0000
0010
0000
,
1000
0000
0100
0000
0001
0000
0100
0020
0000
0000
0031
0000
0010
0000
0100
0000
,
1000
0000
0010
0000
0001
0000
0010
0100
,
2002
0000
0000
3003
,
1000
0100
0000
1000
0100
0000
1000
0010
0000
1000
0010
0000
0100
0000
0001
0000
,
0010
0001
0000
0010
0001
0000
1000
0100
0000
1000
0100
0000
1000
0000
0010
0000
,
0100
0001
0000
0100
0001
0000
1000
0010
0000
1000
0010
0000
1000
0000
0001
0000
,
0010
0000
1000
0000
0010
0000
0001
1000
0000
0000
0000
0000
0000
0000
0000
0000
,
0001
0100
0000
0010
1000
0000
0001
0010
0000
0100
1000
0000
0001
0000
0000
0000
,
1000
0010
0000
0100
0001
0000
1000
0100
0000
0010
0001
0000
1000
0000
0000
0000
,
0001
0100
0000
0010
1000
0000
0001
0010
0000
0100
1000
0000
0001
0000
0000
0000
,
0110
0000
0110
0000
1001
0000
0100
0010
0000
0000
0000
0000
0000
0000
0000
0000
;

//--------------- dance-single - RaverAce ----------------
#NOTES:
     dance-single:
     RaverAce:
     Challenge:
     13:
     0.608398,0.598444,0.077032,0.539226,0.85836,387,380,7,49,88,0,0.608398,0.598444,0.077032,0.539226,0.85836,387,380,7,49,88,0:
0000
0000
0000
0000
,
0000
0000
0000
0000
,
0000
0000
0000
0000
,
0000
0000
0000
0000
,
1000
0010
0100
0001
1000
0100
0010
0001
,
0100
0001
0100
0001
1000
0100
1000
0100
1000
0000
0001
0000
MMMM
0000
0000
0000
,
0001
1000
0000
0001
1000
0000
0001
1000
0000
0001
1000
0000
MMMM
0000
MMMM
0000
,
1000
0001
0000
1000
0001
0000
1000
0001
0000
1000
0001
0000
MMMM
0000
MMMM
0000
,
0001
1000
0000
0001
1000
0000
0001
1000
0000
0001
1000
0000
MMMM
0000
MMMM
0000
,
1001
0000
1000
0000
0100
0000
0001
0200
0000
0000
0300
0000
MMMM
0000
0000
0000
,
0001
0000
0000
0000
0100
0000
0000
0000
0000
0000
0000
0000
0010
0000
0000
0000
1000
0000
0000
0000
0000
0000
0000
0000
0001
0000
0000
0000
0010
0000
0000
0000
0000
0000
0000
0000
0100
0000
0000
0000
1000
0000
0000
0000
0000
0000
0000
0000
0020
0030
0000
0000
0000
0000
0000
0000
0020
0030
0000
0000
0000
0000
0000
0000
,
0001
0000
0000
0000
1000
0000
0000
0000
0000
0000
0000
0000
0100
0000
0000
0000
1000
0000
0000
0000
0000
0000
0000
0000
0001
0000
0000
0000
0100
0000
0000
0000
0000
0000
0000
0000
0010
0000
0000
0000
1000
0000
0000
0000
0000
0000
0000
0000
0200
0300
0000
0000
0000
0000
0000
0000
0200
0300
0000
0000
0000
0000
0000
0000
,
0001
0000
0000
0000
0010
0000
0000
0000
0000
0000
0000
0000
0001
0000
0000
0000
0100
0000
0000
0000
0000
0000
0000
0000
0010
0000
0000
0000
1000
0000
0000
0000
0000
0000
0000
0000
0100
0000
0000
0000
1000
0000
0000
0000
0000
0000
0000
0000
0020
0030
0000
0000
0000
0000
0000
0000
0020
0030
0000
0000
0000
0000
0000
0000
,
0001
0000
0001
0000
0100
0000
1000
0200
0000
0000
0301
0000
MMMM
0000
0000
0000
,
1000
0000
0000
0000
0100
0000
0000
0000
0000
0000
0000
0000
0010
0000
0000
0000
0001
0000
0000
0000
0000
0000
0000
0000
1000
0000
0000
0000
0010
0000
0000
0000
0000
0000
0000
0000
0100
0000
0000
0000
0001
0000
0000
0000
0000
0000
0000
0000
0020
0030
0000
0000
0000
0000
0000
0000
0020
0030
0000
0000
0000
0000
0000
0000
,
1000
0000
0000
0000
0001
0000
0000
0000
0000
0000
0000
0000
0100
0000
0000
0000
0001
0000
0000
0000
0000
0000
0000
0000
1000
0000
0000
0000
0100
0000
0000
0000
0000
0000
0000
0000
0010
0000
0000
0000
0001
0000
0000
0000
0000
0000
0000
0000
0200
0300
0000
0000
0000
0000
0000
0000
0200
0300
0000
0000
0000
0000
0000
0000
,
1000
0000
0000
0000
0010
0000
0000
0000
0000
0000
0000
0000
1000
0000
0000
0000
0100
0000
0000
0000
0000
0000
0000
0000
0010
0000
0000
0000
0001
0000
0000
0000
0000
0000
0000
0000
0100
0000
0000
0000
0001
0000
0000
0000
0000
0000
0000
0000
0020
0030
0000
0000
0000
0000
0000
0000
0020
0030
0000
0000
0000
0000
0000
0000
,
1000
0000
1000
0000
0100
0000
0001
0200
0000
0000
1300
0000
MMMM
0000
0000
0000
,
1001
0000
0001
0100
0001
0000
1000
0000
0001
0100
0001
0000
1000
0000
0001
0100
,
0001
0000
1000
0010
1000
0000
0100
0010
0100
0010
0100
0000
MMMM
0000
0000
0000
,
0001
0000
1000
0100
1000
0000
0001
0000
1000
0100
1000
0000
0001
0000
1000
0100
,
1000
0000
0010
0100
0010
0100
0010
0100
0001
0000
1000
0000
MMMM
0000
0000
0000
,
1000
0000
0000
0000
0100
0000
0000
0000
0000
0000
0000
0000
1000
0000
0000
0000
0001
0000
0000
0000
0000
0000
0000
0000
1000
0000
0000
0000
0010
0000
0000
0000
0000
0000
0000
0000
1000
0000
0000
0000
0001
0000
0000
0000
0000
0000
0000
0000
0200
0300
0000
0000
0000
0000
0000
0000
0200
0300
0000
0000
0000
0000
0000
0000
,
1000
0000
0000
0000
0010
0000
0000
0000
0000
0000
0000
0000
1000
0000
0000
0000
0001
0000
0000
0000
0000
0000
0000
0000
1000
0000
0000
0000
0100
0000
0000
0000
0000
0000
0000
0000
1000
0000
0000
0000
0001
0000
0000
0000
0000
0000
0000
0000
0020
0030
0000
0000
0000
0000
0000
0000
0020
0030
0000
0000
0000
0000
0000
0000
,
1000
0000
0000
0000
0100
0000
0000
0000
0000
0000
0000
0000
0010
0000
0000
0000
0001
0000
0000
0000
0000
0000
0000
0000
0100
0000
0000
0000
0010
0000
0000
0000
0000
0000
0000
0000
1000
0000
0000
0000
0001
0000
0000
0000
0000
0000
0000
0000
0200
0300
0000
0000
0000
0000
0000
0000
0200
0300
0000
0000
0000
0000
0000
0000
,
1000
0000
1000
0000
0010
0000
0001
0020
0000
0000
1030
0000
MMMM
0000
0000
0000
,
0001
0000
0000
0000
0100
0000
0000
0000
0000
0000
0000
0000
0001
0000
0000
0000
1000
0000
0000
0000
0000
0000
0000
0000
0001
0000
0000
0000
0010
0000
0000
0000
0000
0000
0000
0000
0001
0000
0000
0000
1000
0000
0000
0000
0000
0000
0000
0000
0200
0300
0000
0000
0000
0000
0000
0000
0200
0300
0000
0000
0000
0000
0000
0000
,
0001
0000
0000
0000
0010
0000
0000
0000
0000
0000
0000
0000
0001
0000
0000
0000
1000
0000
0000
0000
0000
0000
0000
0000
0001
0000
0000
0000
0100
0000
0000
0000
0000
0000
0000
0000
0001
0000
0000
0000
1000
0000
0000
0000
0000
0000
0000
0000
0020
0030
0000
0000
0000
0000
0000
0000
0020
0030
0000
0000
0000
0000
0000
0000
,
0001
0000
0000
0000
0100
0000
0000
0000
0000
0000
0000
0000
0010
0000
0000
0000
1000
0000
0000
0000
0000
0000
0000
0000
0100
0000
0000
0000
0010
0000
0000
0000
0000
0000
0000
0000
0001
0000
0000
0000
1000
0000
0000
0000
0000
0000
0000
0000
0200
0300
0000
0000
0000
0000
0000
0000
0200
0300
0000
0000
0000
0000
0000
0000
,
0001
0000
0001
0000
0010
0000
1000
0020
0000
0000
0031
0000
MMMM
0000
0000
0000
,
1000
0010
0000
0010
0100
0000
0100
0001
0000
0001
1000
0000
MMMM
0000
0000
0000
,
0001
0010
0000
0010
0100
0000
0100
1000
0000
1000
0001
0000
MMMM
0000
0000
0000
,
1000
0100
0000
0100
0010
0000
0010
0001
0000
0001
1000
0000
MMMM
0000
0000
0000
,
0001
0000
0001
0000
0100
0000
1000
0200
0000
0000
0310
0000
1000
0000
0001
0000
,
0021
0000
0000
0000
2030
0000
0000
3002
0000
0000
0103
0000
1000
0000
0010
0000
,
0001
0000
0010
0000
0100
0000
0001
2000
0000
0000
3100
0000
0001
0000
0100
0000
,
0010
0001
0010
1000
0010
0100
1000
0010
,
0200
0000
0000
0302
0000
0000
0023
0000
0000
0130
0010
0000
0001
0000
1000
0000
,
1020
0000
0000
0000
0032
0000
0000
2003
0000
0000
3100
0000
0001
0000
0010
0000
,
1000
0000
0010
0000
0100
0000
1000
0002
0000
0000
0103
0000
1000
0000
0100
0000
,
0010
0000
1000
0000
0010
0000
0001
0000
0010
0000
0100
0000
0001
0000
1000
0002
,
2000
0000
0000
0000
0000
3003
MMMM
0000
,
1000
0000
0000
0000
0100
0000
0000
0000
0000
0000
0000
0000
0010
0000
0000
0000
0001
0000
0000
0000
0000
0000
0000
0000
0010
0000
0000
0000
0100
0000
0000
0000
0000
0000
0000
0000
0010
0000
0000
0000
0001
0000
0000
0000
0000
0000
0000
0000
0200
0300
0000
0000
0000
0000
0000
0000
0200
0300
0000
0000
0000
0000
0000
0000
,
1000
0000
0000
0000
0010
0000
0000
0000
0000
0000
0000
0000
0100
0000
0000
0000
0001
0000
0000
0000
0000
0000
0000
0000
0100
0000
0000
0000
0010
0000
0000
0000
0000
0000
0000
0000
0100
0000
0000
0000
0001
0000
0000
0000
0000
0000
0000
0000
0020
0030
0000
0000
0000
0000
0000
0000
0020
0030
0000
0000
0000
0000
0000
0000
,
1000
0000
0000
0000
0100
0000
0000
0000
0000
0000
0000
0000
0010
0000
0000
0000
0100
0000
0000
0000
0000
0000
0000
0000
1000
0000
0000
0000
0100
0000
0000
0000
0000
0000
0000
0000
0010
0000
0000
0000
0001
0000
0000
0000
0000
0000
0000
0000
0200
0300
0000
0000
0000
0000
0000
0000
0200
0300
0000
0000
0000
0000
0000
0000
,
1000
0000
1000
0000
0010
0000
0001
0020
0000
0000
1030
0000
MMMM
0000
0000
0000
,
0001
0100
0000
1000
0100
0000
0001
0100
0000
1000
0100
0000
MMMM
0000
0000
0000
,
1000
0100
0000
0001
0100
0000
1000
0100
0000
0001
0100
0000
MMMM
0000
0000
0000
,
1000
0010
0000
0001
0010
0000
1000
0010
0000
0001
0010
0000
MMMM
0000
0000
0000
,
0101
0000
1001
0000
1100
0000
0100
0010
0000
0000
0000
0000
0000
0000
0000
0000
;
