#TITLE:TSUGARU;
#SUBTITLE:;
#ARTIST:RevenG vs DE-SIRE;
#TITLETRANSLIT:;
#SUBTITLETRANSLIT:;
#ARTISTTRANSLIT:;
#GENRE:JONGARA SPIRITUAL;
#CREDIT:;
#BANNER:TSUGARU.png;
#BACKGROUND:TSUGARU-bg.png;
#LYRICSPATH:;
#CDTITLE:;
#MUSIC:TSUGARU.ogg;
#OFFSET:-1.481225;
#SAMPLESTART:72.360001;
#SAMPLELENGTH:12.000000;
#SELECTABLE:YES;
#DISPLAYBPM:165.000000;
#BPMS:0.000000=165.000000
,231.000000=157.000000
,236.000000=131.000000
,240.000000=123.000000
,241.000000=130.000000
,242.000000=109.000000
,243.000000=94.000000
;
#STOPS:
;
#BGCHANGES:;
#KEYSOUNDS:;
#ATTACKS:;

//---------------dance-single - ----------------
#NOTES:
     dance-single:
     :
     Hard:
     15:
     0.671818,0.750960,0.021279,0.148955,0.675618,442.000000,440.000000,2.000000,14.000000,13.000000,0.000000,0.671818,0.750960,0.021279,0.148955,0.675618,442.000000,440.000000,2.000000,14.000000,13.000000,0.000000:
// measure 0
0000
0000
0000
0000
,  // measure 1
0000
0000
0000
0000
,  // measure 2
0000
0000
0000
0000
,  // measure 3
0000
0000
0000
0000
,  // measure 4
0000
0000
0000
0000
,  // measure 5
1000
0001
0100
0100
0010
0100
0100
0000
,  // measure 6
0001
1000
0100
0100
0010
0100
0100
0000
,  // measure 7
1000
0001
0100
0100
0010
0100
1000
0100
,  // measure 8
0001
0000
0100
00M0
0100
0000
1000
0000
0100
00M0
0100
0000
0010
0000
1000
0000
,  // measure 9
0001
1000
0010
0010
0100
0010
0010
0000
,  // measure 10
1000
0001
0010
0010
0100
0010
0010
0000
,  // measure 11
0001
1000
0010
0010
0100
0010
0001
0010
,  // measure 12
1000
0000
0010
0M00
0010
0000
0001
0000
0010
0M00
0010
0000
0100
0000
0001
0000
,  // measure 13
1000
0100
0010
0001
0100
0010
1000
1000
,  // measure 14
1000
0001
0010
0100
1000
0001
0100
0100
,  // measure 15
0100
0001
0010
0100
1000
0010
0001
0010
,  // measure 16
1000
0000
0100
00M0
0100
0000
0001
0000
0100
00M0
0100
0000
1000
0001
1000
0000
,  // measure 17
0001
0010
0100
1000
0010
0100
0001
0001
,  // measure 18
0001
1000
0100
0010
0001
1000
0010
0010
,  // measure 19
0010
1000
0100
0010
0001
0100
1000
0100
,  // measure 20
0001
0000
0010
0M00
0010
0000
1000
0000
0010
0000
1000
0001
1000
0001
1000
0001
,  // measure 21
0000
0000
0000
0000
,  // measure 22
0000
0000
0000
0000
,  // measure 23
0000
0000
0000
0000
,  // measure 24
0001
0000
2000
0100
0000
3001
0100
00M0
0100
1000
0000
0001
,  // measure 25
1000
0000
0002
0010
0000
1003
0010
0M00
0010
0100
0000
1000
,  // measure 26
0001
0000
1000
0100
0000
0010
0100
0000
0001
0100
0000
0100
,  // measure 27
1000
0000
0001
0100
0000
0010
0100
0000
1000
0100
0000
0100
,  // measure 28
0001
0000
2000
0100
0000
3001
0010
0M00
0010
1000
0000
0001
,  // measure 29
1000
0000
0002
0100
0000
1003
0010
0M00
0010
0100
0000
1000
,  // measure 30
0010
0000
1000
0100
0000
0001
0100
0000
0010
0001
0000
1000
,  // measure 31
0100
0000
1000
0010
0000
0001
0010
0000
1000
0100
0000
1000
,  // measure 32
0001
0000
0000
0000
1000
0100
1000
0000
0000
0000
0001
0000
1000
0000
0000
0000
0001
0100
0001
0000
0000
0000
1000
0000
,  // measure 33
0001
0000
0000
0000
1000
0010
1000
0000
0000
0000
0001
0000
1000
0000
0000
0000
0001
0010
0001
0000
0000
0000
1000
0000
,  // measure 34
0001
0000
0000
0000
1000
0001
0100
0000
0000
0000
0001
0000
1000
0000
0000
0000
0001
1000
0100
0000
0000
0000
1000
0000
,  // measure 35
0001
0000
0000
0000
1000
0100
0010
0000
0000
0000
0001
0100
0010
0000
0000
0000
1000
0100
0010
0000
0000
0000
0001
0000
,  // measure 36
0010
0001
1000
0001
0100
0001
1000
0000
0000
1001
0000
1000
,  // measure 37
0010
1000
0001
1000
0100
1000
0001
0000
0000
1001
0000
0001
,  // measure 38
1000
0100
0010
0001
0010
0100
1000
0010
0100
0001
0100
0010
,  // measure 39
1000
0000
0100
00M0
0100
0000
0001
0000
0010
0M00
0010
0000
2000
0000
0000
0000
0000
0000
3000
0000
0000
0000
0000
0000
,  // measure 40
0001
0010
0010
0001
1000
1000
0001
0010
,  // measure 41
0100
0000
1000
0000
0010
0000
0100
0000
0001
0000
1000
0100
0010
0000
0100
0000
,  // measure 42
1000
0001
0010
0100
1000
0010
1000
0001
,  // measure 43
1000
0000
0010
0000
0100
0000
0000
0000
0001
0000
1000
0001
1000
0000
0001
0000
,  // measure 44
1000
0100
0010
0100
0001
0100
0010
0100
,  // measure 45
1000
0010
0100
0010
0001
0010
0100
0010
,  // measure 46
1000
0100
0001
1000
0010
0001
1000
0001
,  // measure 47
1000
0010
0001
1000
0100
0001
0010
0001
,  // measure 48
1000
0000
0000
0010
0100
0001
1000
0000
0000
0010
0100
0001
1000
0000
0001
0000
,  // measure 49
0010
0000
0100
1000
0001
1000
0100
0000
0010
0000
0001
0000
1000
0000
0000
1000
,  // measure 50
0001
0000
0100
0010
0100
0001
0100
0000
0010
0000
1000
0000
0001
0000
0000
0001
,  // measure 51
0010
0000
0100
1000
0001
1000
0100
0000
0010
0000
0001
0000
1000
0000
0000
1000
,  // measure 52
0002
0100
2003
0010
3002
0010
2003
0100
,  // measure 53
3001
0000
1000
0001
0010
0100
1000
0000
0001
0000
0100
0000
0010
0000
0000
0010
,  // measure 54
1000
0000
0001
0010
0100
1000
0001
0000
1000
0000
0100
0000
0010
0000
0000
0010
,  // measure 55
0001
0000
1000
0010
0100
0001
0010
0000
0100
0000
1000
0000
0001
0000
0000
0001
,  // measure 56
1000
0000
0000
0000
0002
0010
0000
0000
1003
0010
0000
0000
0000
0000
2000
0100
,  // measure 57
0000
0000
3002
0100
0000
0000
1003
0000
0001
0000
0010
0001
0100
0000
0010
1000
,  // measure 58
0200
0000
0000
0000
0000
0000
0000
0000
0300
0000
0000
0000
0000
0000
0000
0000
0000
0000
0000
0000
0000
0000
0000
0000
0000
0000
0000
0000
0000
1000
0000
0000
,  // measure 59
1000
0000
0000
0000
0000
0000
0000
0000
0000
0000
0000
0000
0000
0000
0000
0000
0000
0000
0000
0000
0000
0000
0000
0000
0000
0000
0000
0000
0000
0001
0000
0000
,  // measure 60
0001
0000
0000
0000
1000
0000
0000
0000
0010
0000
0000
0000
0100
0000
0100
1000
,  // measure 61
0200
0000
0000
0300
0000
0000
0000
0000
;

//---------------dance-single - ----------------
#NOTES:
     dance-single:
     :
     Medium:
     12:
     0.586701,0.620358,0.329829,0.042559,0.345789,386.000000,355.000000,31.000000,4.000000,0.000000,0.000000,0.586701,0.620358,0.329829,0.042559,0.345789,386.000000,355.000000,31.000000,4.000000,0.000000,0.000000:
0000
0000
0000
0000
,
0000
0000
0000
0000
,
0000
0000
0000
0000
,
0000
0000
0000
0000
,
0000
0000
0000
0000
,
1000
0001
0100
0100
0001
1000
1000
0000
,
0100
1000
0001
0001
1000
0010
0010
0000
,
0100
0001
0010
0010
0001
1000
1000
0001
,
1000
0010
0010
0100
0001
0001
1000
0001
,
1000
0001
0010
0010
0001
1000
1000
0000
,
0010
1000
0001
0001
1000
0100
0100
0000
,
0010
0001
0100
0100
0001
1000
1000
0001
,
1000
0100
0100
0010
0001
0001
1000
0001
,
1000
0010
0001
0001
0010
1000
0001
0000
,
1000
0100
0001
0001
0100
1000
0001
0000
,
1000
0010
0001
0001
0010
0100
0001
1000
,
0100
0010
0010
0001
1000
1000
0010
0100
,
0001
0100
1000
1000
0100
0001
1000
0000
,
0001
0010
1000
1000
0010
0001
1000
0000
,
0001
0100
1000
1000
0100
0010
1000
0001
,
0010
0100
0100
1000
0001
0001
0100
0010
,
0000
0000
0000
0000
,
0000
0000
0000
0000
,
0000
0000
0000
0000
,
1000
0000
1000
0010
0000
0010
0100
0000
0100
0001
0000
0001
,
1000
0000
1000
0100
0000
0100
0010
0000
0010
0001
0000
0000
,
1000
0000
1000
0001
0000
0001
0010
0000
0010
0100
0000
0100
,
1000
0000
1000
0001
0000
0001
0100
0000
0100
0010
0000
0000
,
1000
0000
1000
0010
0000
0010
0001
0000
0001
0010
0000
0010
,
0100
0000
0100
0001
0000
0001
1000
0000
1000
0100
0000
0000
,
1000
0000
1000
0100
0000
0100
0001
0000
0001
0100
0000
0100
,
0010
0000
0010
0001
0000
0001
1000
0000
1000
0010
0000
0000
,
1000
0000
0100
0010
0000
0001
1000
0000
0100
0010
0000
0001
,
1000
0000
0010
0100
0000
0001
1000
0000
0010
0100
0000
0001
,
1000
0000
0001
0010
0000
0100
1000
0000
0001
0100
0000
0010
,
1000
0000
0100
0001
0000
0100
1000
0000
0100
0001
0000
0100
,
1000
0000
0010
1000
0000
0001
1000
0000
0000
1100
0000
1000
,
0001
0000
0010
0001
0000
1000
0001
0000
0000
0101
0000
0001
,
1000
0000
0100
0010
0000
0001
1000
0000
0010
0100
0000
0001
,
0010
0100
0010
0100
0010
0100
2000
0000
0000
3000
0000
0000
,
0001
0100
0100
0000
0010
0010
0000
0100
,
0001
0000
0011
0000
0001
0010
0100
1000
,
0001
0010
0010
0000
0100
0100
0000
0010
,
0001
0000
0101
0000
0001
0100
0010
1000
,
0001
0010
0100
1000
0001
1000
0100
0010
,
0001
0100
0010
1000
0001
1000
0010
0100
,
0001
0010
0100
0001
0100
0010
0001
1000
,
0010
0100
1000
0100
0010
1000
0001
0010
,
1100
0000
0000
0000
0000
0000
0011
0000
0000
0000
0000
0000
1001
0000
0000
0001
,
1000
0000
0000
0000
1010
0000
0000
0000
1001
0000
0000
0000
1100
0000
0000
1000
,
0001
0000
0000
0000
0011
0000
0000
0000
1001
0000
0000
0000
0101
0000
0000
0001
,
1000
0000
0000
0000
1100
0000
0000
0000
0011
0000
0000
0000
1001
0000
0000
0001
,
1000
0010
1000
0001
0010
0001
1000
0001
,
1000
0000
0000
0000
1010
0000
0000
0000
0101
0000
0000
0000
1001
0000
0000
0001
,
1000
0000
0000
0000
1100
0000
0000
0000
0011
0000
0000
0000
1001
0000
0000
0001
,
0100
0000
0000
0000
1010
0000
0000
0000
0011
0000
0000
0000
1100
0000
0000
0100
,
0010
0000
0011
0000
1100
0000
0000
1010
,
0000
0101
0000
0001
1000
0000
1001
0000
,
0220
0330
0000
0000
,
1000
0000
0000
0000
,
0001
0000
0010
0000
0100
0000
1000
0001
,
2000
0000
0000
3000
0000
0000
0000
0000
;

//---------------dance-single - ----------------
#NOTES:
     dance-single:
     :
     Easy:
     6:
     0.314630,0.424456,0.148955,0.010640,0.000000,207.000000,193.000000,14.000000,1.000000,0.000000,0.000000,0.314630,0.424456,0.148955,0.010640,0.000000,207.000000,193.000000,14.000000,1.000000,0.000000,0.000000:
0000
0000
0000
0000
,
0000
0000
0000
0000
,
0000
0000
0000
0000
,
0000
0000
0000
0000
,
0000
0000
0000
0000
,
0000
0001
0010
0001
,
0000
1000
0010
1000
,
0000
0001
0010
0100
,
1000
0100
0010
0001
,
0000
1000
0100
1000
,
0000
0001
0100
0001
,
0000
1000
0100
0010
,
0001
0010
0100
1000
,
0001
0100
0001
0001
,
1000
0100
1000
1000
,
0001
0010
0100
1000
,
0001
0100
0010
1001
,
1000
0010
1000
1000
,
0001
0010
0001
0001
,
1000
0100
0010
0001
,
0100
0010
1000
1001
,
0000
0000
0000
0000
,
0000
0000
0000
0000
,
0000
0000
0000
0000
,
1000
0010
0100
0010
,
1000
0100
0010
0001
,
0100
0010
0100
0001
,
0010
0100
1000
0001
,
1000
0010
0001
0001
,
0010
0100
0001
1000
,
0001
0010
1000
1000
,
0010
0100
1000
0001
,
1000
1100
0000
1100
,
0001
0101
0000
0101
,
1000
1010
0000
1010
,
0001
0011
0001
0011
,
0001
1000
1001
0000
,
0010
0100
0110
0000
,
0001
0010
1000
0010
,
0001
1000
1001
0000
,
1000
0100
0010
0001
,
1000
1000
0001
0001
,
1000
0010
0100
0001
,
1000
1000
0001
0001
,
1000
0100
0001
0100
,
1000
0010
0001
0010
,
1000
0100
0001
0100
,
1000
0010
0001
0010
,
1000
0000
0000
1000
0000
0000
0001
0000
,
0100
0100
0100
0010
,
1000
1000
1000
0100
,
0010
0010
0010
0001
,
1000
0010
0001
0100
,
1000
1000
1000
0001
,
0100
0100
0100
0010
,
1000
1000
1000
0100
,
0010
0000
0010
0000
0010
0000
0000
0001
,
0000
0001
0000
0000
1000
0000
1000
0000
,
1001
0000
0000
0000
,
0001
0000
0000
0000
,
0100
0100
0100
0100
,
0020
0000
0000
0030
0000
0000
0000
0000
;

//---------------dance-single - ----------------
#NOTES:
     dance-single:
     :
     Beginner:
     4:
     0.212793,0.260140,0.000000,0.010640,0.000000,140.000000,140.000000,0.000000,1.000000,0.000000,0.000000,0.212793,0.260140,0.000000,0.010640,0.000000,140.000000,140.000000,0.000000,1.000000,0.000000,0.000000:
0000
0000
0000
0000
,
0000
0000
0000
0000
,
0000
0000
0000
0000
,
0000
0000
0000
0000
,
0000
0000
0000
0000
,
0000
0001
0000
0001
,
0000
0010
0000
0010
,
0000
0100
0000
0100
,
0100
0000
1000
1000
,
0000
0001
0000
0001
,
0000
0100
0000
0100
,
0000
0010
0000
0010
,
0010
0000
1000
1000
,
0000
0001
0001
0001
,
0000
0010
0010
0010
,
0000
0100
0100
0100
,
0100
0000
1000
1000
,
0000
0010
0010
0010
,
0000
0100
0100
0100
,
0000
0001
0001
0001
,
0001
0000
0010
0010
,
0000
0000
0000
0000
,
0000
0000
0000
0000
,
0000
0000
0000
0000
,
0001
0001
0001
0000
,
0100
0100
0100
0000
,
0010
0010
0010
0000
,
1000
1000
1000
0000
,
0001
0001
0001
0000
,
0010
0010
0010
0000
,
0100
0100
0100
0000
,
1000
1000
1000
0000
,
0001
0001
0001
0000
,
0100
0100
0100
0000
,
0010
0010
0010
0000
,
1000
1000
1000
0000
,
0001
0001
0001
0000
,
1000
1000
1000
0000
,
0010
0010
0010
0010
,
0010
0010
0010
0000
,
0001
0000
0100
0000
,
0010
0000
1000
1000
,
1000
0000
0100
0000
,
0010
0000
0001
0001
,
0001
0000
0010
0000
,
0100
0000
1000
1000
,
1000
0000
0010
0000
,
0100
0000
0001
0001
,
0001
0000
0000
0010
,
0010
0000
0000
0100
,
0100
0000
0000
1000
,
1000
0000
0000
0010
,
0010
0010
0010
0010
,
0010
0000
0000
0100
,
0100
0000
0000
0001
,
0001
0000
0000
1000
,
1000
1000
1000
0000
,
0010
0010
0010
0010
,
0010
0000
0000
0000
,
0100
0000
0000
0000
,
0001
0000
0000
2000
,
0000
3000
0000
0000
0000
0000
0000
0000
;
