#TITLE:TAKE ON ME;
#SUBTITLE:;
#ARTIST:ANGELA;
#TITLETRANSLIT:;
#SUBTITLETRANSLIT:;
#ARTISTTRANSLIT:;
#GENRE:DANCE EXPRESS Hi-Speed;
#CREDIT:;
#MUSIC:TAKE ON ME.ogg;
#BANNER:TAKE ON ME.png;
#BACKGROUND:TAKE ON ME-bg.png;
#CDTITLE:cdtitle.png;
#SAMPLESTART:33.868;
#SAMPLELENGTH:15.001;
#SELECTABLE:YES;
#OFFSET:0.000;
#BPMS:0.000=170.070;
#STOPS:;
#BGCHANGES:15.750=TAKE ON ME.avi=1.000=0=0=1===CrossFade_Fastest==,
286.000=TAKE ON ME-bn.png=1.000=0=0=1,
99999.000=-nosongbg-=1.000=0=0=0=StretchNoLoop====
;
#FGCHANGES:;

//--------------- dance-single - KAYSTAR ----------------
#NOTES:
     dance-single:
     KAYSTAR:
     Beginner:
     2:
     0,0,0,0,0:
0000
0000
0000
0000
,
0000
0000
0000
0000
,
0000
0000
0000
0000
,
0000
0000
0000
0000
,
1000
0000
0000
0000
,
0000
0000
0000
0000
,
0010
0000
0000
0000
,
0000
0000
0000
0000
,
0100
0000
0000
0000
,
0000
0000
0000
0000
,
0001
0000
0000
0000
,
0000
0000
0000
0000
,
1000
0000
0000
0000
,
0000
0000
0000
0000
,
1000
0000
0000
0000
,
0000
0000
0000
0000
,
0001
0000
0000
0000
,
0000
0000
0000
0000
,
0001
0000
0000
0000
,
0000
0000
0000
0000
,
0010
0000
0000
0000
,
0000
0000
0000
0000
,
0100
0000
0000
0000
,
0000
0000
0000
0000
,
1000
0000
0000
0000
,
1000
0000
0000
0000
,
1000
0000
0000
0000
,
0000
0000
0000
0000
,
0001
0000
0000
0000
,
0001
0000
0000
0000
,
0001
0000
0000
0000
,
0000
0000
0000
0000
,
1000
0000
0000
0000
,
1000
0000
0000
0000
,
1000
0000
0000
0000
,
0000
0000
0000
0000
,
0000
0020
0000
0000
,
0000
0000
0000
0000
,
0000
0000
0000
0000
,
0000
0000
0030
0000
,
0000
0000
0000
0000
,
0000
0000
0000
0000
,
0000
0000
0000
0000
,
0000
0000
0000
0000
,
0000
0000
0000
0000
,
0000
0000
0000
0000
,
0000
0000
0000
0000
,
0000
0000
0000
0000
,
1000
0000
0000
0000
,
0000
0000
0000
0000
,
0010
0000
0000
0000
,
0000
0000
0000
0000
,
0100
0000
0000
0000
,
0000
0000
0000
0000
,
0001
0000
0000
0000
,
0000
0000
0000
0000
,
0010
0000
0000
0000
,
0010
0000
0000
0000
,
0010
0000
0000
0000
,
0000
0000
0000
0000
,
0100
0000
0000
0000
,
0100
0000
0000
0000
,
0100
0000
0000
0000
,
0000
0000
0000
0000
,
1000
0000
0000
0000
,
0000
0000
0000
0000
,
0010
0000
0000
0000
,
0000
0000
0000
0000
,
0100
0000
0000
0000
,
0000
0000
0000
0000
,
0001
0000
0000
0000
,
0000
0000
0000
0000
,
0020
0000
0000
0000
,
0030
0000
0000
0000
;

//--------------- dance-single - KAYSTAR ----------------
#NOTES:
     dance-single:
     KAYSTAR:
     Easy:
     7:
     0,0,0,0,0:
0000
0000
0000
0000
,
0000
0000
0000
0000
,
0000
0000
0000
0000
,
0000
0000
0000
0000
,
1000
0010
0100
0000
,
0001
0000
0001
0000
,
0010
0001
1000
0000
,
0020
0000
0130
0000
,
0001
0010
0100
0000
,
1000
0000
1000
0000
,
0010
1000
0001
0000
,
0020
0000
0130
0000
,
1000
0000
0001
0000
,
0100
0001
0100
0000
,
0010
0000
1000
0000
,
0200
1000
1300
0000
,
0001
0000
0100
0000
,
0010
1000
0010
0000
,
0100
0000
0001
0000
,
0020
0001
0031
0000
,
0010
0001
1000
0000
,
0100
1000
0001
0000
,
0200
0010
0310
0000
,
2002
0000
0000
3003
,
1000
0100
1000
0100
,
0010
0001
0010
0001
,
1000
0010
1000
0010
,
0100
0000
0100
0000
,
0001
0010
0001
0010
,
0100
1000
0100
1000
,
0001
0100
0001
0100
,
0010
0000
0010
0000
,
1000
0001
1000
0001
,
0010
0100
0010
0100
,
1000
0001
1000
0001
,
0100
0000
0100
0000
,
0010
1000
0001
0000
,
0100
0001
1000
0000
,
0100
0010
0100
0010
,
0001
0000
1000
0000
,
2002
0000
3003
0000
,
0000
0000
0000
0000
,
0000
0000
0000
0000
,
0000
0000
0000
0000
,
0000
1000
0000
0010
,
0000
0100
0000
0001
,
0000
0010
0000
0100
,
0200
0000
1300
0000
,
0001
0100
0000
0100
,
0000
0100
0000
0010
,
1000
0001
0000
0001
,
0000
0001
0000
1000
,
0100
0010
0000
0010
,
0000
0010
0000
0001
,
1000
0010
0000
0200
,
0020
0000
0000
0330
,
0100
0001
1000
0000
,
0100
0010
0100
0000
,
0010
0001
1000
0000
,
0010
0100
0010
0000
,
0100
0001
0010
0000
,
0100
1000
0100
0000
,
0010
0001
1000
0000
,
2002
0000
0000
3003
,
0001
0010
0100
0000
,
1000
0001
1000
0000
,
0010
1000
0001
0000
,
0020
0000
0130
0000
,
1000
0010
0100
0000
,
0001
1000
0001
0000
,
0010
0001
1000
0000
,
0020
0000
0130
0000
,
2002
0000
0000
0000
,
3003
0000
0000
0000
;

//--------------- dance-single - KAYSTAR ----------------
#NOTES:
     dance-single:
     KAYSTAR:
     Medium:
     11:
     0,0,0,0,0:
0000
0000
0000
0000
,
0000
0000
0000
0000
,
0000
0000
0000
0000
,
0000
0000
0000
0000
,
1000
0010
1000
0010
0000
0100
0000
0001
,
0000
1000
0000
0100
1000
0100
0010
0000
,
0001
0100
0001
0100
0000
0010
0000
1000
,
0000
0001
0000
0010
0001
0010
0100
0000
,
1000
0001
1000
0001
0000
0100
0000
0010
,
0000
1000
0000
0001
0010
0100
1000
0000
,
0010
0100
0010
0100
0000
0001
0000
1000
,
0100
1000
0100
0010
0001
0010
0001
0000
,
2000
0000
0010
3010
,
0100
0000
0001
0000
1000
0100
1000
0000
,
0002
0000
0010
0013
,
0100
1000
0001
0000
0100
0001
0100
0000
,
0020
0000
1000
1030
,
0001
0000
1000
0000
0100
1000
0100
0000
,
0020
0000
0001
0031
,
1000
0010
0100
0000
0001
0010
0100
0000
,
1000
0000
0001
0100
0001
0100
0001
0000
,
1000
0000
0100
1000
0100
1000
0100
0000
,
0010
0000
0001
0100
0010
1000
0100
0010
,
0002
1000
0000
1000
0000
1003
0000
0000
,
1000
0010
1000
0000
0001
0100
0000
0101
,
0000
0001
1000
0100
0020
0000
0031
0000
,
0100
0001
0100
0000
0010
1000
0001
0000
,
1001
0000
0100
1000
0000
1000
0100
0000
,
1000
0001
1000
0000
0001
0010
0000
0011
,
0000
0001
1000
0010
0200
0000
0301
0000
,
0010
0001
0010
0000
0100
1000
0001
0000
,
1001
0000
0100
0001
0000
0001
0100
0000
,
0010
1000
0001
0000
0010
0100
0000
0001
,
0000
0100
1000
0100
0020
0000
0031
0000
,
0010
0001
1000
0000
0010
0100
0000
1000
,
0000
0100
0010
0100
0001
0000
1001
0000
,
0000
0000
1000
0001
1000
0001
1000
0001
,
1000
0001
1000
0001
1000
0001
1000
0000
,
0001
1000
0100
0000
1000
0010
0000
0110
,
0000
0100
0001
0010
0100
0000
1000
0000
,
2002
0000
3003
0000
,
0000
0000
0000
0000
,
0000
0000
0000
0000
,
0000
0000
0000
0000
,
2000
0100
0000
3100
,
0020
0001
0000
0031
,
0200
0010
0000
0310
,
2000
3200
0320
0031
,
1000
0010
0100
0001
,
1000
0100
0010
0011
,
1001
1000
0010
0100
,
0001
1000
0100
1100
,
1001
0001
0100
0010
,
1000
0001
0010
0110
,
1001
1000
0010
0100
,
0002
0000
0000
1003
,
0010
1000
0010
0000
0100
0000
0001
0010
,
0100
0000
0001
0000
0100
1000
0001
0000
,
0010
0001
0010
0000
0001
0000
1000
0010
,
0100
0000
1000
0000
0100
0001
1000
0000
,
0100
1000
0100
0000
0010
0000
0001
0100
,
0010
0000
0001
0000
0010
1000
0001
0000
,
0100
0001
0100
0000
0010
0000
1000
0002
,
2000
0000
0000
3003
,
0001
0010
0001
0010
0000
0100
0000
1000
,
0000
0001
0000
0100
0010
0100
0001
1000
,
0100
0010
0100
0010
0000
0001
0000
0100
,
0000
0010
0000
1000
0100
0010
0001
0000
,
1000
0010
1000
0010
0000
0100
0000
0001
,
0000
1000
0000
0100
0010
0100
1000
0001
,
0100
0010
0100
0010
0000
1000
0000
0001
,
0000
0010
0100
1000
0010
0100
0001
0000
,
2002
0000
0000
0000
,
3003
0000
0000
0000
;

//--------------- dance-single - KAYSTAR ----------------
#NOTES:
     dance-single:
     KAYSTAR:
     Hard:
     14:
     0,0,0,0,0:
0000
0000
0000
0000
,
0000
0000
0000
0000
,
0000
0000
0000
0000
,
0000
0000
0000
0000
,
1000
0000
0001
0000
0010
0000
0100
1000
0000
1000
0100
0000
0010
0000
0001
0000
,
0000
0000
1000
0000
0000
0000
0010
1000
0010
0000
0100
0000
0001
0000
1000
0000
,
0100
0000
0010
0000
0100
0000
1000
0001
0000
0001
1000
0000
0010
0000
0100
0000
,
0000
0000
0001
0000
0000
0000
0010
0001
0010
0000
0100
0000
1000
0000
1000
0000
,
0001
0000
1000
0000
0010
0000
0100
0001
0000
0001
0100
0000
0010
0000
1000
0000
,
0000
0000
0001
0000
0000
0000
0010
0001
0010
0000
0100
0000
1000
0000
0010
0000
,
0100
0000
0001
0000
1000
0000
0100
0010
0000
0010
0100
0000
1000
0000
0001
0000
,
0100
0100
0010
0010
1000
0100
0010
0001
,
0100
0000
0101
0000
0001
1000
0010
0000
,
1000
0000
0100
0000
1000
0000
0000
0001
0000
0000
0010
0000
0001
0000
0000
0000
,
1000
0000
1010
0000
0010
0100
0001
0000
,
1000
0100
0001
0000
0001
0100
1000
0000
,
0001
0000
0011
0000
0010
0001
1000
0000
,
0010
0000
1000
0000
0010
0000
0000
0100
0000
0000
0001
0000
0100
0000
0000
0000
,
0010
0000
1010
0000
1000
0100
0010
0000
,
0001
0100
1000
0000
1000
0100
0001
0000
,
1000
0000
1100
0000
0100
0010
0001
0100
,
0010
0000
1000
0000
0100
0000
0000
0010
0000
0000
0001
0000
0100
0000
0000
0000
,
0101
0000
0001
1000
0100
0010
0001
1000
,
1001
1001
0000
0110
0000
1001
0000
0000
,
0001
0100
0001
0100
0001
0100
0001
0100
,
1000
0001
1000
0001
1000
0001
1000
0001
,
0010
1000
0010
1000
0010
1000
0010
1000
,
0100
0010
0001
0100
1000
0100
0101
0000
,
1000
0100
1000
0100
1000
0100
1000
0100
,
0001
1000
0001
1000
0001
1000
0001
1000
,
0010
0001
0010
0001
0010
0001
0010
0001
,
0100
0010
1000
0100
0001
0100
1100
0000
,
0001
1000
0010
0100
1000
0100
0010
1000
,
0001
0010
0100
0001
0100
0010
0001
1000
,
0010
0100
0001
0010
0100
1000
0010
0100
,
0001
0010
0100
0100
0110
0000
1001
0000
,
1000
0010
0001
0010
1000
0001
0010
1000
,
0010
0001
1000
0010
0001
0010
1000
0001
,
0010
0000
0100
0000
0100
1000
0000
0000
0001
0000
0100
0000
0010
0000
1000
0000
,
0100
0000
0010
0000
0010
0001
0000
0000
0100
0000
0010
0000
1000
0000
0001
0000
,
2002
0000
3003
0000
,
0000
0000
0000
0000
,
0000
0000
0000
0000
,
0000
0000
0000
0000
,
0001
0000
0010
0100
0000
0010
0001
0000
,
1000
0000
0010
0100
0000
0010
1000
0000
,
0001
0000
0010
0100
0000
0100
0010
0000
,
0001
0000
1000
0010
0100
0001
0010
0000
,
0110
0000
1001
0000
1000
0010
1001
0000
,
0001
0010
1001
0000
1000
0010
0200
0000
,
0301
0000
1001
0000
1000
0100
1001
0000
,
0001
0100
1001
0000
1000
0100
0020
0000
,
0031
0000
1001
0000
1000
0010
0101
0000
,
1000
0100
0011
0000
1000
0001
0200
0000
,
0310
0000
1010
0000
0001
0010
1100
0000
,
2002
0000
3003
0110
,
1001
0000
0000
1000
0010
0000
0100
0000
0001
0000
0010
0000
0100
0000
0001
0000
,
1000
0000
0000
0010
0100
0000
1000
0000
0001
0000
0100
0000
0101
0000
0000
0000
,
1010
0000
0000
1000
0100
0000
0010
0000
0001
0000
0100
0000
0010
0000
0001
0000
,
1000
0000
0000
0100
0010
0000
1000
0000
0001
0000
0010
0000
0011
0000
0000
0000
,
1100
0000
0000
0100
0010
0000
0001
0000
0100
0000
1000
0000
0100
0000
0001
0000
,
0010
0000
0000
0100
1000
0000
0010
0000
0001
0000
0010
0000
0110
0000
0000
0000
,
1001
0000
0000
0001
0100
0000
0010
0000
1000
0000
0100
0000
0001
0000
0100
0000
,
0110
2002
0000
3003
,
0001
0000
0100
0000
0010
0000
1000
0001
0000
0001
1000
0000
0100
0000
1010
0000
,
0000
0000
0101
0000
0000
0000
0010
0001
0010
0000
0001
0000
1000
0000
0100
0000
,
0001
0000
0100
0000
0010
0000
0001
1000
0000
1000
0001
0000
0100
0000
0011
0000
,
0000
0000
1100
0000
0000
0000
0010
1000
0010
0000
0100
0000
0001
0000
0001
0000
,
1000
0000
0100
0000
0010
0000
0001
1000
0000
1000
0001
0000
0100
0000
0011
0000
,
0000
0000
1100
0000
0000
0000
0010
1000
0010
0000
1000
0000
0001
0000
0100
0000
,
1000
0000
0100
0000
0010
0000
1000
0001
0000
0001
0010
0000
0100
0000
1010
0000
,
0000
0000
0101
0000
0000
0000
0010
0001
0010
0000
0100
0000
1000
0000
0001
0000
,
2002
0000
0000
0000
,
3003
0000
0000
0000
;

//--------------- dance-double - KAYSTAR ----------------
#NOTES:
     dance-double:
     KAYSTAR:
     Easy:
     7:
     0,0,0,0,0:
00000000
00000000
00000000
00000000
,
00000000
00000000
00000000
00000000
,
00000000
00000000
00000000
00000000
,
00000000
00000000
00000000
00000000
,
10000000
00010000
00100000
00000000
,
01000000
00000000
01000000
00000000
,
00010000
00001000
00010000
00000000
,
00001000
00000000
00000100
00000000
,
00000010
00001000
00000001
00000000
,
00000010
00000000
00000010
00000000
,
00001000
00010000
00001000
00000000
,
00010000
00000000
00100000
00000000
,
20000000
00000000
30010000
00000000
,
00100000
00010000
00100000
00000000
,
00002000
00000000
00013000
00000000
,
00000010
00001000
00000010
00000000
,
00002000
00000000
00003001
00000000
,
00001000
00000100
00010000
00000000
,
00002000
00000000
00013000
00000000
,
00001000
01000000
00010000
00000000
,
10000000
10000000
10000000
00000000
,
00010000
00010000
00010000
00000000
,
00200000
00000000
01300000
00000000
,
00022000
00000000
00033000
00000000
,
00001000
00010000
00001000
00010000
,
00000010
00001000
00000010
00001000
,
00000001
00000010
00000001
00000010
,
00000100
00000000
00000100
00000000
,
00010000
00001000
00010000
00001000
,
00100000
00010000
00100000
00010000
,
10000000
00100000
10000000
00100000
,
01000000
00000000
01000000
00000000
,
00001000
00010000
00001000
00010000
,
00000100
00001000
00000100
00001000
,
00000001
00000100
00000001
00000100
,
00000010
00000000
00000010
00000000
,
00010000
00001000
00010000
00001000
,
00010000
00001000
00010000
00001000
,
00010000
00001000
00010000
00001000
,
01000000
00000000
00010000
00000000
,
20020000
00000000
30030000
00000000
,
00000000
00000000
00000000
00000000
,
00000000
00000000
00000000
00000000
,
00000000
00000000
00000000
00000000
,
00000000
10000000
00000000
01000000
,
00000000
00100000
00000000
00010000
,
00000000
01000000
00000000
00001000
,
00002000
00000000
00013000
00000000
,
00000010
00001000
00000000
00001000
,
00000000
00001000
00000000
00000001
,
00000010
00000100
00000000
00000100
,
00000000
00000100
00000000
00010000
,
00001000
00100000
00000000
00100000
,
00000000
00100000
00000000
01000000
,
10000000
00010000
00000000
00010000
,
02000000
00200000
00000000
03300000
,
01000000
00010000
10000000
00000000
,
01000000
00100000
00010000
00000000
,
01000000
00001000
00010000
00000000
,
00001000
00010000
00000010
00000000
,
00000100
00000001
00001000
00000000
,
00000100
00000010
00000001
00000000
,
00001000
00000010
00010000
00001000
,
01000000
00020000
00000000
00000000
,
10030000
00010000
00100000
00000000
,
01000000
00000000
01000000
00000000
,
00010000
00001000
00010000
00000000
,
00001000
00000000
00000100
00000000
,
00000010
00001000
00000001
00000000
,
00000010
00000000
00000010
00000000
,
00001000
00010000
00001000
00000000
,
00010000
00100000
01000000
00010000
,
20020000
00000000
00000000
00000000
,
30030000
00000000
00000000
00000000
;

//--------------- dance-double - KAYSTAR ----------------
#NOTES:
     dance-double:
     KAYSTAR:
     Medium:
     11:
     0,0,0,0,0:
00000000
00000000
00000000
00000000
,
00000000
00000000
00000000
00000000
,
00000000
00000000
00000000
00000000
,
00000000
00000000
00000000
00000000
,
10000000
00100000
10000000
00100000
00000000
01000000
00000000
00010000
,
00000000
10000000
00000000
01000000
00010000
01000000
00010000
00000000
,
00001000
00000010
00001000
00000010
00000000
00000100
00000000
00001000
,
00000000
00000001
00000000
00000100
00000010
00000000
00001010
00000000
,
00000001
00000010
00000001
00000010
00000000
00000100
00000000
00001000
,
00000000
00000001
00000000
00000100
00001000
00000100
00001000
00000000
,
00010000
00100000
00010000
00100000
00000000
01000000
00000000
00010000
,
00000000
10000000
00000000
01000000
00100000
00000000
00110000
00000000
,
10000000
00100000
01000000
00010000
,
00100000
00010000
00100000
00000000
00001000
00010000
00001000
00000000
,
00000200
00000310
00001000
00000001
,
00000010
00000100
00001000
00000000
00001000
00000010
00000100
00000000
,
00000001
00000010
00000100
00001000
,
00000010
00001000
00000010
00000000
00010000
00001000
00010000
00000000
,
02000000
03100000
00010000
10000000
,
00100000
01000000
00010000
00000000
00010000
00100000
01000000
00000000
,
10000000
00000000
00010000
01000000
00002000
00000000
00013000
00000000
,
00001000
00000000
00010000
00000010
00002000
00000000
00003001
00000000
,
00001001
00000000
00001000
00000100
00000010
00000001
00000100
00000010
,
00001000
00000001
00000000
00000100
00000000
00000110
00000000
00000000
,
00001000
00000100
00001000
00000100
00000010
00000000
00000001
00000000
,
00000100
00000010
00000100
00000010
00001000
00000000
00000001
00000000
,
00000010
00001000
00000010
00001000
00010000
00000000
00001000
00000000
,
00011000
00000000
00010000
01000000
00000000
01000000
00100000
00000000
,
00010000
01000000
00010000
01000000
00100000
00000000
10000000
00000000
,
01000000
00100000
01000000
00100000
00010000
00000000
10000000
00000000
,
00100000
00010000
00100000
00010000
00001000
00000000
00010000
00000000
,
00011000
00000000
00001000
00000100
00000000
00000100
00000010
00000000
,
00001000
00000100
00000010
00000001
00000010
00000000
00000100
00000000
,
00001000
00000001
00000100
00000010
00000100
00000000
00001000
00000000
,
00010000
00100000
01000000
00100000
10000000
00000000
00010000
00000000
,
00100000
00000000
01000000
00010000
00001000
00000000
00011000
00000000
,
00000000
00000000
00010000
00001000
00010000
00001000
00010000
00001000
,
00010000
00001000
00010000
00001000
00010000
00001000
00010000
00000000
,
00000100
00000000
00001000
00000010
00000100
00000000
00002000
00000000
,
00013000
00000000
01000000
00100000
00010000
00000000
10000000
00000000
,
20020000
00000000
30030000
00000000
,
00000000
00000000
00000000
00000000
,
00000000
00000000
00000000
00000000
,
00000000
00000000
00000000
00000000
,
00020000
01000000
00000000
01030000
,
00002000
00010000
00000000
00013000
,
00000020
00001000
00000000
00001030
,
00000002
00000023
00000230
00001300
,
00000001
00000100
00001000
00010000
,
01000000
10000000
00100000
01100000
,
10010000
10000000
01000000
00010000
,
00001000
00000010
00000100
00000110
,
00001001
00000001
00001000
00000010
,
00001000
00010000
01000000
01100000
,
10010000
00010000
00100000
00001000
,
00022000
00000000
00033000
00011000
,
00010000
00000010
00001000
00000000
00000001
00000000
00000010
00000100
,
00001000
00000000
00000001
00000000
00000100
00001000
00010000
00000000
,
00001000
00100000
00010000
00000000
10000000
00000000
00100000
01000000
,
00010000
00000000
10000000
00000000
01000000
00010000
00001000
00000000
,
00100000
00010000
00100000
00000000
00001000
00000000
01000000
00100000
,
00010000
00000000
00001000
00000000
00010000
00000100
00001000
00000000
,
00000010
00001000
00000010
00000000
00010000
00000000
00001000
00000010
,
00000100
00002000
00000000
00000000
,
00003001
00000010
00000001
00000010
00000000
00000100
00000000
00001000
,
00000000
00000001
00000000
00000100
00001000
00000100
00001000
00000000
,
00010000
00100000
00010000
00100000
00000000
01000000
00000000
00010000
,
00000000
10000000
00000000
01000000
00100000
00000000
00110000
00000000
,
10000000
00100000
10000000
00100000
00000000
01000000
00000000
00010000
,
00000000
10000000
00000000
01000000
00010000
01000000
00010000
00000000
,
00001000
00000010
00001000
00000010
00000000
00000100
00000000
00001000
,
00000000
00000001
00000000
00000100
00000010
00000100
00000010
00000000
,
00002002
00000000
00000000
00000000
,
00003003
00000000
00000000
00000000
;

//--------------- dance-double - KAYSTAR ----------------
#NOTES:
     dance-double:
     KAYSTAR:
     Hard:
     14:
     0,0,0,0,0:
00000000
00000000
00000000
00000000
,
00000000
00000000
00000000
00000000
,
00000000
00000000
00000000
00000000
,
00000000
00000000
00000000
00000000
,
10000000
00000000
00010000
00000000
01000000
00000000
00100000
10000000
00000000
10000000
00100000
00000000
01000000
00000000
00010000
00000000
,
00000000
00000000
00100000
00000000
00000000
00000000
00001000
00010000
00001000
00000000
00010000
00000000
00000010
00000000
00001000
00000000
,
00000001
00000000
00001000
00000000
00000100
00000000
00000010
00000001
00000000
00000001
00000010
00000000
00000100
00000000
00001000
00000000
,
00000000
00000000
00000010
00000000
00000000
00000000
00010000
00001000
00010000
00000000
00001000
00000000
00001000
00000000
00100000
00000000
,
00010000
00000000
01000000
00000000
00100000
00000000
10000000
01000000
00000000
01000000
00100000
00000000
00010000
00000000
01000000
00000000
,
00000000
00000000
00100000
00000000
00000000
00000000
00010000
00001000
00010000
00000000
00001000
00000000
00000100
00000000
00000010
00000000
,
00001000
00000000
00000001
00000000
00000100
00000000
00000001
00000010
00000000
00000010
00000100
00000000
00001000
00000000
00000100
00000000
,
00000000
00000000
00000010
00000000
00000000
00000000
00001000
00010000
00001000
00000000
00010000
00000000
01000000
00000000
00100000
00000000
,
00010000
00000000
10000000
00000000
00100000
00000000
01000000
00010000
,
01000000
00001000
00010000
01000000
,
00100000
00000000
00010000
10000000
00010000
00000000
01000000
00000000
,
00100000
00010000
00001000
00000000
00001000
00000100
00000010
00000000
,
00001000
00000000
00000001
00000000
00000010
00000000
00000100
00001000
,
00000100
00010000
00001000
00000100
,
00000010
00000000
00001000
00000001
00001000
00000000
00000100
00000000
,
00000010
00001000
00010000
00000000
00010000
01000000
00100000
00000000
,
00010000
00000000
01000000
00100000
10000000
01000000
00100000
00000000
,
00001000
01000000
00010000
00100000
00001000
00000000
00011000
00000000
,
00010000
00000100
00001000
00000010
00010000
00001000
00000100
00000010
,
00001000
00000001
00000000
00000011
00000000
00001100
00000000
00000000
,
00001000
00000010
00001000
00000010
00001000
00000010
00000100
00000001
,
00000010
00000100
00000010
00000100
00000010
00000100
00001000
00000010
,
00000100
00001000
00000100
00001000
00000100
00001000
00010000
00000010
,
00001000
00000100
00010000
00001000
00100000
00010000
00110000
00000000
,
00010000
01000000
00010000
01000000
00010000
01000000
00100000
10000000
,
01000000
00100000
01000000
00100000
01000000
00100000
00010000
01000000
,
00100000
00010000
00100000
00010000
00100000
00010000
00001000
01000000
,
00010000
00100000
00001000
00010000
00000100
00001000
00001100
00000000
,
00001000
00000010
00000100
00000001
00000100
00000010
00001000
00000001
,
00000010
00000100
00010000
00001000
00010000
00001000
00100000
01000000
,
10000000
00010000
01000000
00100000
10000000
00100000
01000000
00010000
,
00100000
01000000
00010000
00010000
00010000
00000000
00011000
00000000
,
00001000
00000010
00000001
00000010
00000001
00000100
00001000
00000100
,
00001000
00010000
00100000
00010000
00100000
10000000
01000000
10000000
,
01000000
00010000
00001000
00000010
00000100
00010000
00001000
01000000
,
00100000
00000000
00010000
00000000
00001000
00000000
00000100
00000000
00000010
00000000
00001000
00000000
00000001
00000000
00001000
00000001
,
00001000
00000000
00000000
00000000
,
00000000
00000000
00000000
00000000
,
00000000
00000000
00000000
00000000
,
00000000
00000000
00000000
00000000
,
00000001
00000000
00000010
00000001
00000000
00000010
00000100
00000000
,
00001000
00000000
00000010
00001000
00000000
00000010
00000100
00000000
,
00001000
00000000
00010000
00001000
00000000
00001000
00010000
00000000
,
01000000
00000000
00100000
01000000
00000000
00100000
00020000
00000000
,
10030000
00000000
10010000
00000000
10000000
01000000
00110000
00000000
,
10000000
00100000
01010000
00000000
10000000
01000000
00020000
00000000
,
00031000
00000000
00011000
00000000
00000010
00001000
00011000
00000000
,
00100000
00010000
00011000
00000000
00001000
00000010
00000200
00000000
,
00001300
00000000
00001001
00000000
00000001
00000100
00001010
00000000
,
00000001
00000010
00001100
00000000
00000001
00000100
00002000
00000000
,
00013000
00000000
00011000
00000000
00000100
00001000
00011000
00000000
,
01000000
00010000
00022000
00000000
00033000
00000000
00011000
00000000
,
00001000
00000000
00000000
00001000
00010000
00000000
00100000
00000000
01000000
00000000
00010000
00000000
10000000
00000000
01000000
00000000
,
00010000
00000000
00000000
00010000
00001000
00000000
00100000
00000000
00010000
00000000
01000000
00000000
00002000
00000000
00000000
00000000
,
00013000
00000000
00000000
00010000
00001000
00000000
00000100
00000000
00000010
00000000
00001000
00000000
00000001
00000000
00000010
00000000
,
00001000
00000000
00000000
00001000
00010000
00000000
00000100
00000000
00001000
00000000
00000010
00000000
00020000
00000000
00000000
00000000
,
00031000
00000000
00000000
00010000
00001000
00000000
00100000
00000000
00010000
00000000
01000000
00000000
00100000
00000000
01000000
00000000
,
10000000
00000000
00000000
00010000
00100000
00000000
01000000
00000000
00010000
00000000
00100000
00000000
00002000
00000000
00000000
00000000
,
00013000
00000000
00000000
00001000
00010000
00000000
00000010
00000000
00001000
00000000
00000100
00000000
00000001
00000000
00001000
00000000
,
00000010
00000002
00000000
00000000
,
00001003
00000000
00000100
00000000
00000010
00000000
00000001
00000100
00000000
00000100
00000010
00000000
00001000
00000000
00000100
00000000
,
00000001
00000000
00000100
00000000
00000010
00000000
00000001
00001000
00000001
00000000
00001000
00000000
00000010
00000000
00010000
00000000
,
00001000
00000000
01000000
00000000
00010000
00000000
10000000
01000000
00000000
01000000
00100000
00000000
00010000
00000000
01000000
00000000
,
10000000
00000000
01000000
00000000
00100000
00000000
10000000
00010000
10000000
00000000
01000000
00000000
00100000
00000000
00100000
00000000
,
00010000
00000000
00100000
00000000
01000000
00000000
10000000
00100000
00000000
00100000
01000000
00000000
00010000
00000000
00100000
00000000
,
10000000
00000000
00100000
00000000
01000000
00000000
10000000
00010000
10000000
00000000
00010000
00000000
01000000
00000000
00001000
00000000
,
00010000
00000000
00000010
00000000
00001000
00000000
00000001
00000010
00000000
00000010
00000100
00000000
00001000
00000000
00000010
00000000
,
00000001
00000000
00000010
00000000
00000100
00000000
00000001
00001000
00000001
00000000
00000010
00000000
00000100
00000000
00020000
00000000
,
00002000
00000000
00000000
00000000
,
00033000
00000000
00000000
00000000
;
