#TITLE:Synergy For Angels (GITADORA ver.);
#SUBTITLE:;
#ARTIST:TAGĂ—U1-ASAMi;
#TITLETRANSLIT:;
#SUBTITLETRANSLIT:;
#ARTISTTRANSLIT:;
#GENRE:;
#CREDIT:;
#MUSIC:Synergy For Angels (GITADORA Ver.).ogg;
#BANNER:;
#BACKGROUND:;
#CDTITLE:;
#SAMPLESTART:28.476;
#SAMPLELENGTH:15.000;
#SELECTABLE:YES;
#OFFSET:0.000;
#BPMS:0.000=160.000;
#STOPS:;
#BGCHANGES:;
#FGCHANGES:;

//--------------- dance-single - RaverAce ----------------
#NOTES:
     dance-single:
     RaverAce:
     Beginner:
     2:
     0,0,0,0,0:
0000
0000
0000
0000
,
0000
0000
0000
0000
,
0000
0000
0000
0000
,
0000
0000
0000
0000
,
0000
0000
0000
0000
,
1000
0000
0000
0000
,
0010
0000
0000
0000
,
0110
0000
0000
0000
,
0001
0000
0000
0000
,
1000
0000
0000
0000
,
1001
0000
0000
0000
,
0000
0000
0000
0000
,
0000
0000
0000
0000
,
0000
0000
0000
0000
,
0001
0000
0000
0000
,
1000
0000
0000
0000
,
0001
0000
0000
0000
,
1000
0000
0000
0000
,
0000
0000
0000
0000
,
1001
0000
1000
0000
,
0001
0000
1000
0000
,
0100
0000
0010
0000
,
0001
0000
1000
0000
,
1001
0000
0001
0000
,
1000
0000
0010
0000
,
1000
0000
0100
0000
,
0001
0000
0100
0000
,
1001
0000
0000
0000
,
1000
0000
0000
0000
,
0001
0000
0000
0000
,
0010
0000
0000
0000
,
1001
0000
0000
0000
,
0001
0000
0000
0000
,
1000
0000
0000
0000
,
0010
0000
0000
0000
,
1001
0000
1000
0000
,
0000
0000
0000
0000
,
1001
0000
0001
0000
,
0000
0000
0000
0000
,
1001
0000
0001
0000
,
0000
0000
0000
0000
,
1001
0000
1000
0000
,
0000
0000
0000
0000
,
1001
0000
0000
0000
,
0010
0000
0000
0000
,
0100
0000
0000
0000
,
0010
0000
0000
0000
,
1001
0000
0000
0000
,
0100
0000
0000
0000
,
0010
0000
0000
0000
,
0000
0000
0000
0000
,
1001
0000
0000
0000
,
0000
0000
0000
0000
,
0001
0000
0000
0000
,
1000
0000
0000
0000
,
0010
0000
0000
0000
,
0110
0000
0000
0000
,
1001
0000
0000
0000
,
1001
0000
1000
0000
,
0100
0000
1000
0000
,
0001
0000
0100
0000
,
0010
0000
1000
0000
,
1001
0000
0001
0000
,
0100
0000
0010
0000
,
1000
0000
0100
0000
,
0001
0000
0100
0000
,
1001
0000
1000
0000
,
0010
0000
0100
0000
,
0001
0000
0010
0000
,
0100
0000
1000
0000
,
1001
0000
0001
0000
,
0100
0000
1000
0000
,
0100
0000
0010
0000
,
1000
0000
0001
0000
;

//--------------- dance-single - RaverAce ----------------
#NOTES:
     dance-single:
     RaverAce:
     Easy:
     9:
     0,0,0,0,0:
0000
0000
0000
0000
,
0000
0000
0000
0000
,
0000
0000
0000
0000
,
0000
0000
0000
0000
,
0000
0000
0000
0000
,
1000
0100
1000
0010
,
0100
0000
0001
0000
0010
0000
0100
0010
,
0200
0000
0000
0000
0000
0000
0000
0000
1300
0000
0000
0010
0000
0000
1000
0000
,
0002
0010
0010
0010
,
2003
0010
0010
3010
,
1002
0000
0000
0000
,
0023
0000
0000
0000
,
0230
0000
0000
0000
,
2300
0000
0000
0000
,
3020
0000
0000
0000
,
0230
0000
0000
0000
,
0302
1000
0000
1000
,
2003
0001
0001
3002
,
2000
0000
0000
3003
,
1100
0000
1010
0000
,
1001
0000
0000
1000
0000
0000
0001
0000
0200
0000
0000
0000
0302
0000
0000
0000
,
0013
0100
1000
0010
,
1000
0000
0001
0000
0100
0001
0100
0000
,
0101
0000
0011
0000
,
1001
0000
0000
0001
0000
0000
1000
0000
0200
0000
0000
0000
2300
0000
0000
0000
,
3010
0100
0001
0010
,
0001
0000
1000
0000
0100
1000
0100
0000
,
1100
1000
0001
0100
,
0001
0010
0100
1000
,
1010
0010
0001
0010
,
1000
0100
1000
0001
,
0011
0010
1000
0010
,
0100
1000
0001
0100
,
0101
0001
0100
1000
,
0100
0010
1000
0001
,
2001
0000
0000
3020
0000
0000
1030
0000
0002
0000
0000
0000
0000
0000
0000
0000
,
0010
0000
0023
0230
,
1300
0000
0000
0001
0000
0000
0010
0000
0200
0000
0000
0000
0000
0000
0000
0000
,
0010
0000
0310
0000
,
1002
0000
0000
0023
0000
0000
0031
0000
2000
0000
0000
0000
0000
0000
0000
0000
,
0010
0000
3020
0230
,
0301
0000
0000
1000
0000
0000
0010
0000
0200
0000
0000
0000
0000
0000
0000
0000
,
0010
0000
0310
0000
,
1002
0000
0100
0000
,
1000
0000
0000
0000
1003
0002
0000
0013
,
0200
0000
0000
1300
0002
0000
0000
0000
,
0100
0000
0013
0000
,
2001
0000
0100
0000
,
0001
0000
0000
0000
3001
2000
0000
3010
,
0200
0000
0000
0301
2000
0000
0000
3100
,
0020
0000
0000
0031
2000
0000
0000
3001
,
1000
0100
1000
0100
,
1000
0001
1000
0000
,
0001
0100
0001
0100
,
0001
1000
0001
0010
,
0200
0000
0000
0000
0000
0000
0000
0000
2300
0000
0000
3020
0000
0000
1030
0000
,
0002
0010
0010
0010
,
2003
0100
0100
3100
,
1010
0000
0101
0000
,
0011
0000
0000
0001
0000
0000
1000
0000
0200
0000
0000
0000
2300
0000
0000
0000
,
3010
0000
0000
0100
0000
0000
0001
0000
0020
0000
0000
0000
0031
0000
0000
0000
,
1000
0000
0010
0000
1000
0001
0010
0000
,
0011
0000
1100
0000
,
1010
0000
0000
1000
0000
0000
0001
0000
0200
0000
0000
0000
0302
0000
0000
0000
,
0013
0000
0000
0100
0000
0000
1000
0000
0010
0000
0000
0100
0000
0000
0001
0000
,
2000
3020
0230
0302
,
0013
0000
0000
0100
0000
0000
1000
0000
0010
0000
0000
0100
0000
0000
0001
0000
,
1000
0000
0000
0100
0000
0000
0010
0000
0001
0000
0000
0000
0100
0000
0000
0000
,
0001
0010
0100
1000
,
0010
1000
1100
0011
,
1001
0000
0000
1000
0000
0000
0010
0000
0200
0000
0000
0000
0302
0000
0000
0000
,
0013
0000
0000
0100
0000
0000
1000
0000
0020
0000
0000
0000
0230
0000
0000
0000
,
0301
1000
0100
0010
,
0001
0000
1000
0000
0001
0000
0000
0000
0100
0000
0000
1001
0000
0000
0220
0000
,
0000
0000
0000
0000
,
0000
0000
0000
0000
,
0000
0000
0000
0000
,
0330
0000
0000
0000
;

//--------------- dance-single - RaverAce ----------------
#NOTES:
     dance-single:
     RaverAce:
     Medium:
     13:
     0,0,0,0,0:
0000
0000
0000
0000
,
0000
0000
0000
0000
,
0000
0000
0000
0000
,
0000
0000
0000
0000
,
0000
0000
0000
0000
,
0001
0000
0000
0100
0000
0000
0010
0000
1000
0000
0000
0100
0000
0000
0010
0000
,
0001
0000
0000
1000
0000
0000
0010
0000
0100
0000
0001
0000
1000
0000
0100
0000
,
0020
0000
0000
0000
0031
0000
0000
0000
1000
0000
0000
0010
0000
0000
1000
0000
,
0001
0000
0100
0001
0000
1000
0000
0001
0100
0000
0010
0000
1000
0000
0001
0000
,
1000
0000
0100
1000
0000
0000
0001
0010
0000
0000
0100
1000
0000
0000
1000
0000
,
0002
0010
0010
0010
,
0100
0100
0100
1003
,
2000
0010
0010
0010
,
0100
0100
0100
3001
,
0002
0100
0100
0100
,
0010
0010
0010
1003
,
2000
0010
0001
0100
,
3001
0000
1000
0000
0010
1000
0100
0010
,
0001
0000
0000
1000
0000
0000
0001
0000
1000
0000
0100
0000
1000
0000
0000
0000
,
0011
0000
0001
0100
0010
0000
1000
0100
,
0020
0000
0000
0230
0000
0000
2300
0000
3010
0000
0001
0000
0010
0000
0100
0000
,
0020
0000
0000
2030
0000
0000
3100
0000
1000
0000
0001
0000
1000
0000
0000
0000
,
0001
0000
0100
0000
0010
0000
1000
0001
0000
1000
0001
0000
1000
0000
0000
0000
,
1010
0000
0000
0000
0010
0000
0100
0001
2000
0000
0000
0000
3100
0000
0000
0000
,
2000
0000
0000
3002
0000
0000
0013
0000
1000
0000
0010
0000
0100
1000
0000
0000
,
2000
0000
0000
3020
0000
0000
1030
0000
0002
0000
0000
0203
0000
0000
0301
0000
,
1000
0100
0010
0100
0001
0100
0010
0100
,
1000
0000
0000
0010
0000
0000
1000
0000
0001
1000
0000
0001
0000
0000
0100
0000
,
0001
0000
0000
0010
0000
0000
0100
0010
0100
0010
0000
0001
0000
0000
1000
0000
,
0010
1000
0000
0001
0000
1000
0001
1000
0001
1000
0000
0001
0000
0000
0000
0010
,
0100
0000
0000
1000
0000
0000
1000
0001
1000
0001
0000
1000
0000
0000
0000
0000
,
0001
0100
0000
0010
0000
0000
0000
1000
0001
1000
0000
0100
0000
0000
1000
0001
,
1000
0001
0000
0010
0000
0100
1000
0100
1000
0000
0000
1000
0001
0000
0010
0000
,
0001
0100
0000
0001
0000
0000
0000
1000
0000
0100
0000
0010
0000
0001
0000
1000
,
0000
0010
0000
0100
0000
0001
0000
1000
0000
0010
0000
1000
0000
0000
0000
0000
,
1002
0000
0000
0023
0000
0000
0230
0000
2300
0000
0000
0000
0010
0000
0000
0000
,
0001
0100
3002
0203
,
0320
0000
0000
2030
0000
0000
3100
1000
0002
0000
0000
0000
0100
0000
0000
0000
,
1000
0010
1000
0103
,
2001
0000
0000
3200
0000
0000
0320
0000
0032
0000
0000
0000
0100
0000
0000
0000
,
1000
0010
2003
3020
,
0230
0000
0000
0302
0000
0000
2003
0000
0000
0000
0000
0000
0100
0000
0000
0000
,
3001
0010
0100
1000
0001
0000
0000
0000
,
1001
0000
0000
0001
0000
0000
0100
0000
0000
0010
0000
0000
1000
0000
0001
0000
,
1000
0100
1000
0010
0100
0002
0000
1003
,
0100
0000
0000
0010
0000
0000
0001
0000
0000
1000
0000
0000
0010
0000
1000
0000
,
0001
0100
0001
0100
0010
1000
0001
0000
,
1001
0000
0000
1000
0000
0000
0100
0000
0000
1000
0000
0000
0001
0000
1000
0000
,
0001
0010
0001
0200
0000
0320
0000
1030
,
0001
0000
0000
0010
0000
0000
0100
0000
1000
0000
0000
0010
0000
0000
0100
0000
,
0001
0000
0000
1000
0000
0000
0100
0000
0010
0000
0001
0000
1000
0000
0010
0000
,
2000
0100
0001
0100
,
0001
0100
0001
0100
,
3002
0100
1000
0100
,
1000
0000
0100
0000
1003
0001
0100
0001
,
0020
0000
0000
0000
0000
0000
0000
0000
0230
0000
0000
2300
0000
0000
3001
0000
,
2000
0000
0000
0010
0000
0000
0010
0000
0010
0000
0000
0000
3001
0000
1000
0000
,
0100
0000
0000
0100
0010
0000
0000
0010
0001
0000
1000
0000
0100
0000
0000
0000
,
1010
0000
0000
1000
0001
0000
0010
0000
0001
0000
0000
0001
0100
0000
0001
0000
,
0020
0000
0000
2030
0000
0000
3002
0000
0103
0000
0010
0000
0100
0000
1000
0000
,
0020
0000
0000
0032
0000
0000
2003
0000
3200
0000
0000
0000
0301
0000
0010
0000
,
0001
0100
0010
1000
0001
0100
0001
0010
,
0012
0000
0000
0000
0103
0000
0010
1000
0002
0000
0000
0000
0103
0000
0001
0000
,
0020
0000
0000
2030
0000
0000
3001
0000
0100
0000
0010
0000
0100
0000
1000
0000
,
0002
0000
0000
0203
0000
0000
0301
0000
0020
0000
0000
0230
0000
0000
1300
0000
,
0001
0100
1000
0100
0010
0100
0001
0100
,
0102
0000
0000
0023
0000
0000
0130
0000
2000
0000
0000
3020
0000
0000
0130
0000
,
0020
0000
0000
2030
0000
0000
3100
0000
0001
0000
0100
0000
0010
0000
0100
0000
,
1000
0010
0100
0001
0010
0100
1000
0010
0100
0001
0100
0010
,
1000
0100
0010
0001
0100
0010
1000
0000
0000
1001
0000
0000
,
2100
0000
0000
3002
0000
0000
0203
0000
1000
0000
0000
0000
0001
0000
0000
0000
,
0320
0000
0000
2030
0000
0000
3200
0000
0001
0000
0000
0000
1000
0000
0000
0000
,
0310
0000
0001
1000
0000
0001
1000
0000
0010
0000
0100
0010
0000
0100
0010
0000
,
1000
0000
0001
0010
0000
0100
0010
0100
0010
0000
0000
1001
0000
0000
0220
0000
,
0000
0000
0000
0000
,
0000
0000
0000
0000
,
0000
0000
0000
0000
,
0330
0000
0000
0000
;

//--------------- dance-single - RaverAce ----------------
#NOTES:
     dance-single:
     RaverAce:
     Hard:
     15:
     0,0,0,0,0:
0000
0000
0000
0000
,
0000
0000
0000
0000
,
0000
0000
0000
0000
,
0000
0000
0000
0000
,
0000
0000
0000
0000
,
1000
0000
0000
0010
0000
0000
0100
0000
0001
0000
0000
0010
0000
0000
0100
0000
,
1000
0000
0000
0010
0000
0000
0100
0000
0001
0000
0010
0000
0100
0000
1000
0000
,
1002
0000
0000
0000
0103
0000
0000
0000
0001
0000
0000
0010
0000
0000
0100
0000
,
1000
0000
0010
1000
0000
0001
0000
1000
0100
0000
0010
0000
0001
1000
0001
0000
,
0010
0000
0100
1000
0100
0000
1000
0001
1000
0000
0001
0100
0001
0000
1000
0000
,
0002
1000
0100
1000
,
0010
0000
1000
0000
0013
0001
2000
0000
,
0100
0001
0100
0001
,
0010
0000
0001
0000
3010
1000
0001
0010
,
0200
0010
1000
0010
,
1000
0000
0010
0000
1300
0001
0100
0010
,
1000
0010
0100
0000
0001
0010
0100
0000
,
1000
0000
0000
0001
1000
0000
0100
0000
1000
0010
1000
0000
0001
1000
0001
1000
,
0001
0000
0000
0101
0000
0000
1001
0000
1010
0000
1000
0100
0010
0000
0000
0000
,
1001
0000
0000
0001
0100
0000
0010
0000
1000
0000
0000
1000
0100
0000
1000
0000
,
0002
0000
0000
0023
0000
0000
2030
0000
3001
0000
0100
0000
1000
0000
0010
0000
,
0200
0000
0000
2300
0000
0000
3002
0000
0013
0000
1000
0000
0001
0000
0010
0000
,
0001
0000
1000
0010
0000
0010
0100
0000
0100
0001
0000
0001
0010
0001
0010
0100
,
2000
0000
0000
0000
3001
0000
0100
0010
2000
0000
0000
0000
3100
0000
0000
0000
,
2000
0000
0000
3020
0000
0000
0032
0000
1003
0000
0100
0000
0001
0000
0010
0000
,
0200
0000
0000
0302
0000
0000
2003
0000
3020
0000
0000
0032
0000
0000
1003
0000
,
0010
0001
0010
0100
0010
1000
0010
0100
,
0001
0010
0000
0001
0000
1000
0001
1000
0001
0000
0100
0000
0000
0001
1000
0000
,
0100
1000
0000
0010
0000
1000
0001
1000
0001
0100
0000
0100
0001
0000
1000
0000
,
0001
0010
0000
0100
0000
1000
0001
1000
0001
1000
0000
0010
0000
0000
1000
0001
,
1000
0000
0100
1000
0000
0000
0001
0100
0001
0100
0001
0000
1000
0000
0001
0000
,
1000
0010
0000
1000
0000
0001
1000
0001
1000
0000
0100
0000
0000
1000
0001
0000
,
1000
0100
0000
0010
0001
1000
0010
0100
0001
0000
0000
0001
1000
0000
0100
0000
,
1000
0010
0000
0100
0000
0001
1000
0001
0000
0100
0000
0010
0000
1000
0000
1000
,
0000
0001
0000
0010
0000
0100
0000
1000
0001
1000
0000
0100
0000
0000
0000
0000
,
2001
0000
0000
3020
0000
0000
0230
0000
0302
0000
0000
0000
0010
0000
0000
0000
,
1000
0100
2003
3200
,
0320
0000
0000
0032
0000
0000
0103
0001
2000
0000
0000
0000
0100
0000
0000
0000
,
3001
0100
0100
0010
1000
0100
0100
1000
,
1002
0000
0000
0203
0000
0000
0320
0000
2030
0000
0000
0000
0100
0000
0000
0000
,
0001
0010
3002
0023
,
0230
0000
0000
2300
0000
0000
3002
0000
0000
0000
0000
0000
0100
0000
0000
0000
,
1003
0000
0010
0000
0100
0001
0100
0010
1000
0000
0000
0000
0000
0000
0000
0000
,
1100
0000
1000
0001
0000
0001
0010
0000
0010
0001
0000
0001
1000
0000
0100
0000
,
1000
0000
0010
0000
1000
0000
0000
1000
0001
0000
1000
0000
0000
0001
1000
0000
,
0100
0000
0010
0001
0000
0001
1000
0000
1000
0010
0000
0010
0100
0000
0001
0000
,
1000
0000
0100
0000
0010
0000
0000
0001
1000
0000
0001
0000
0100
0001
0100
0000
,
0101
0001
0010
1000
0010
0001
0010
0100
,
1000
0000
0010
0100
0010
0000
1000
0000
0100
0010
0100
0000
1000
0000
0010
0000
,
1010
0000
1000
0001
0000
0001
0010
0000
0001
0000
1000
0100
0000
0100
0010
0000
,
0001
0000
0010
0100
0000
0100
1000
0001
1000
0000
0100
0000
0010
0000
0001
0000
,
1002
0000
0000
0203
0000
0000
0310
0000
2000
0000
0000
3200
0000
0000
0310
0000
,
0002
0000
0000
0203
0000
0000
0320
0000
2000
0000
0000
0000
3030
0000
0000
0000
,
2000
0000
0000
3020
0000
0000
0130
0000
0002
0000
0000
0023
0000
0000
0130
0000
,
2000
0000
0000
3020
0000
0000
0130
0000
1000
0000
0100
0000
0010
0000
0100
0000
,
0002
0000
0000
1000
0000
0000
1000
0000
2003
0000
0000
3200
0000
0000
0310
0000
,
0001
0000
1000
0010
0000
0010
0100
0000
0001
0000
1000
0001
1000
0001
1000
0000
,
0100
0000
1000
0010
1000
0000
0001
0100
0001
0000
1000
0100
0010
0000
0000
0000
,
1001
0000
1000
0100
1000
0000
0010
0000
0100
0000
0001
0010
0001
0000
0100
0000
,
0001
0000
1000
0010
0000
0001
1000
0000
0100
0000
0010
0000
0100
0000
0001
0000
,
0020
0000
0000
2030
0000
0000
3002
0000
0103
0000
0010
0000
0100
0000
1000
0000
,
0010
0000
0100
0000
0010
0000
1000
0100
0000
0100
0010
0000
0001
1000
0001
1000
,
0010
0000
0100
0010
0100
0000
0001
1000
0100
0000
0010
0100
0010
0000
0100
0000
,
1000
0000
0001
0010
0000
1000
0001
0000
0100
0000
0010
0000
0100
0000
1000
0000
,
0020
0000
0000
0032
0000
0000
2003
0000
3200
0000
0000
0302
0000
0000
0013
0000
,
1000
0010
0100
0010
0001
0010
0100
1000
,
1010
0000
0010
0100
0000
0010
1000
0000
0001
0000
1000
0100
0000
0010
0001
0000
,
1000
0000
0010
0100
0000
0001
1000
0000
0100
0000
0001
0000
0100
0000
1000
0000
,
0010
0100
0001
1000
0100
0010
0001
1000
0010
0100
0001
0010
,
0001
1000
0100
0000
1000
0000
0010
0000
0100
0000
0010
0000
1010
0000
0000
0000
0000
0000
0101
0000
0000
0000
0000
0000
,
0011
0000
0010
0100
0000
1000
0001
0000
0100
0000
1000
0000
0100
0000
0001
0000
,
0010
0000
0100
0010
0000
0001
1000
0000
0100
0000
0001
0000
0100
0000
1000
0000
,
0001
0100
0000
0010
1000
0000
0100
1000
0001
0100
0010
1000
0001
0010
0100
1000
,
0010
0100
0001
1000
0100
0010
0001
0100
0010
0000
0000
1001
0000
0000
0220
0000
,
0000
0000
0000
0000
,
0000
0000
0000
0000
,
0000
0000
0000
0000
,
0330
0000
0000
0000
;
