#TITLE:翠雨の祷;
#SUBTITLE:;
#ARTIST:Cororo feat.Yuria Miyazono;
#TITLETRANSLIT:Suiu no inori;
#SUBTITLETRANSLIT:;
#ARTISTTRANSLIT:;
#GENRE:;
#CREDIT:;
#BANNER:;
#BACKGROUND:;
#LYRICSPATH:;
#CDTITLE:;
#MUSIC:audio.ogg;
#OFFSET:-0.025;
#SAMPLESTART:72.813;
#SAMPLELENGTH:12.000;
#SELECTABLE:YES;
#BPMS:0.000=197.000;
#STOPS:;
#SCROLLS:0.000=1.000;
#TIMESIGNATURES:0.000=4=4;
#BGCHANGES:;
#KEYSOUNDS:;

//---------------dance-single - Ama-tan----------------
#NOTES:
     dance-single:
     Ama-tan:
     Challenge:
     17:
     0.922,1.000,0.453,0.171,0.530:
0000
0000
0000
0000
,
0000
0000
0000
1000
,
2002
0000
0000
0000
3003
0000
1000
0001
,
0000
0100
0010
0000
1000
0000
0001
1000
,
0000
0100
0010
0000
0000
0000
0001
1000
,
0000
0010
0100
0000
0000
0000
0001
0000
,
2002
0000
0000
0000
3003
0000
0001
1000
,
0000
0100
0010
0000
0001
0000
1000
0010
,
0000
0100
1000
0000
0000
0000
0001
0010
,
0000
0000
0100
0000
0001
0000
0000
0000
0000
0000
0000
0000
1000
0001
1000
0001
,
1000
0000
0000
0000
0000
0000
1100
0000
0000
0000
0000
0000
0101
0000
0001
0100
,
0010
0000
0000
0000
0000
0000
1010
0000
0000
0000
0000
0000
1000
0001
1000
0001
,
1000
0000
0000
0000
0000
0000
0011
0000
0000
0000
0000
0000
1010
0000
1000
0001
,
0010
0000
0000
0000
0100
1000
0001
0000
0100
0010
1000
0000
0001
0000
1000
0000
,
1001
0000
0000
0000
0000
0000
0101
0000
0000
0000
0000
0000
1100
0000
1000
0100
,
0010
0000
0000
0000
0000
0000
0011
0000
0000
0000
0000
0000
0001
1000
0001
1000
,
0001
0000
0000
0000
0000
0000
1010
0000
0000
0000
0000
0000
0011
0000
0001
0010
,
0100
0000
0000
0000
1000
0001
0100
0000
0001
0010
0100
0000
1000
0000
0100
0000
,
1100
0000
01M0
0001
0100
0000
01M0
1000
,
0100
0000
0000
0000
01M0
0000
0001
0000
0100
0000
0000
0000
01M0
1000
0100
1000
,
0100
0000
0010
0000
0001
0000
1000
0000
0100
0000
0000
0000
01M0
0001
0100
0001
,
0100
0000
0010
0000
1000
0000
0001
0010
0100
0000
0000
0000
1000
0010
0100
0001
,
0010
0000
0000
0000
0M10
0000
1000
0000
0010
0000
0000
0000
0M10
0001
0010
0001
,
0010
0000
0100
0000
1000
0000
0001
0000
0010
0000
0000
0000
0M10
1000
0010
1000
,
0010
0100
0001
1000
0010
0000
0M10
0001
,
1000
0000
0100
0000
0010
0000
0001
0000
1000
0010
1000
0000
1001
0000
0000
0000
,
1000
0000
1100
0000
0100
0010
0011
0000
,
0001
0000
0000
0000
0101
0000
0000
0000
0100
0010
1000
0010
0100
0001
1000
0100
,
0010
0000
0011
0000
0001
1000
1010
0000
,
0001
0000
0000
0000
1100
0000
0000
0000
0100
0010
0001
0010
0100
1000
0001
1000
,
0010
0000
0110
0000
0100
0001
1001
0000
,
1000
0000
0000
0000
1010
0000
0000
0000
0010
1000
0001
1000
0100
0010
0001
1000
,
0001
0000
0101
0000
0100
0010
1010
0000
,
0001
0000
0000
0000
0011
0000
0000
0000
0010
0001
1000
0001
0100
0010
1000
0001
,
1000
0000
0001
0100
1000
0100
0001
0010
,
0100
0001
0100
0010
0100
1000
0001
1000
,
0010
0100
0010
0000
1000
0000
0001
0000
0010
0100
0010
0000
0001
0000
1000
0000
,
0001
0010
0001
0000
1000
0010
1000
0000
0001
0100
0001
0000
1000
0000
0100
0000
,
0010
0001
0010
0000
0010
1000
0010
0000
0010
0001
0010
0000
0100
0000
1000
0000
,
0100
1000
0100
0000
0100
0001
0100
0000
0100
1000
0100
0000
0010
0000
0001
0000
,
0010
0001
0010
0000
0010
1000
0010
0000
0010
0001
0010
0000
0100
0000
1000
0000
,
0010
1000
0010
0000
0010
0001
0010
0000
0100
1000
0100
0000
0100
0001
0100
0000
,
0010
0010
0001
0100
0100
1000
0010
0010
,
0001
0100
0010
1000
0200
0000
0310
0000
,
0001
0100
0010
1000
,
0001
0010
0100
1000
,
0001
0000
0100
0000
0010
0000
0100
0001
,
1000
0100
0010
0000
0001
1000
0010
0000
1000
0100
0010
0000
0001
1000
0010
0000
,
1000
0100
0010
0001
,
1000
0010
0100
0001
,
0020
0000
0130
1000
0001
0100
0010
0100
,
1000
0000
0100
0000
0010
0000
0100
0000
0001
0000
1000
0100
0010
0000
0100
0000
,
2200
0000
3300
0000
0000
0000
0001
1000
,
0000
0010
0100
0000
0001
0010
0100
1000
,
0000
0100
0010
0000
0000
0000
1001
0000
,
0000
0000
0000
0000
0000
0000
0000
0000
1000
0000
0001
0100
0010
0000
0100
0000
,
0202
0000
0303
0001
1000
0000
0100
0010
,
0000
0001
1000
0000
0001
0100
0010
1000
,
1001
0000
0000
0000
0000
0000
0000
1100
,
0000
0011
0000
1010
0000
0000
0101
0000
,
1100
0000
0000
0000
1000
0100
0010
0100
0001
0000
0100
0000
0100
0000
0001
0000
,
0101
0000
0000
0000
0001
0100
0010
0100
1000
0000
0100
0000
0100
0000
1000
0000
,
1100
0000
0000
0000
1000
0100
0010
0100
0001
0000
0200
0000
0310
0000
0001
0000
,
0011
0000
0000
0000
0001
0010
0001
0010
0100
0010
0100
0010
0100
1000
0100
1000
,
0100
0000
0100
0000
0001
0000
0010
0000
0010
0000
1000
0000
0100
0010
0001
0000
,
0100
0000
0100
0000
1000
0000
0010
0000
0010
0000
0001
0000
0100
0010
1000
0000
,
0100
0000
0100
0000
0001
0000
0010
0000
0010
0000
1000
0000
0001
0100
0001
1000
,
0100
0000
0010
0000
0001
0000
0100
0000
0010
1000
0010
1000
0010
1000
0010
1000
,
0001
0000
0000
0000
1000
0010
0100
0010
0001
0000
0010
0000
0010
0000
0001
0000
,
0011
0000
0000
0000
0001
0010
0100
0010
1000
0000
0010
0000
0010
0000
1000
0000
,
1010
0000
0000
0000
1000
0010
0100
0010
0001
0000
0020
0000
0130
0000
0001
0000
,
0101
0000
0000
0000
0001
0100
0001
0100
0010
0100
0010
0100
0010
1000
0010
1000
,
0100
0000
0100
0000
0001
0000
0010
0000
0010
0000
1000
0000
0100
0010
0001
0000
,
0100
0000
0100
0000
1000
0000
0010
0000
0010
0000
0001
0000
0100
0010
1000
0000
,
0100
0000
0100
0000
0001
0000
0010
0000
0010
0000
1000
0000
0100
0010
0001
1000
,
0010
0000
0100
0000
0001
0000
0010
0000
0100
1000
0100
1000
0100
1000
0100
1000
,
0002
0003
0000
0000
1000
0000
0010
0000
0100
0000
0001
0000
0010
0000
0100
0000
,
0001
0100
0010
0100
1000
0010
0100
0100
,
2000
0200
3300
0000
0000
0000
0000
0000
0001
0000
0000
0000
0010
0000
0000
0000
0100
0000
0000
0000
1000
0000
0000
0000
0010
0000
0000
0000
0100
0000
0000
0000
,
1000
0100
0010
0100
0001
0010
0100
0100
,
0002
0200
0303
0000
0000
0000
0000
0000
1000
0000
0000
0000
0100
0000
0000
0000
0001
0000
0000
0000
0100
0000
0000
0000
0010
0000
0000
0000
0001
0000
0000
0000
,
1000
0010
0100
0010
0001
0010
0100
0100
,
2000
0200
3300
0000
0000
0000
0000
0000
0001
0000
0000
0000
0100
0000
0000
0000
1000
0000
0000
0000
0100
0000
0000
0000
0001
0000
0000
0000
0010
0000
0000
0000
,
0100
1000
0100
0000
0100
0001
0100
0000
0100
1000
0100
0000
0010
0001
1000
0010
,
0100
0101
01M0
1100
,
1000
1010
0M10
0011
,
1000
1010
0001
0011
,
1000
0000
0000
0000
1001
0000
0001
0010
0100
0000
0000
0000
1000
0001
1000
0001
,
1000
1100
01M0
0101
,
0001
0011
1000
1010
,
0001
0100
0010
1000
0001
0010
0100
1000
,
0100
1000
0100
0000
0100
0001
0100
0000
0100
1000
0100
0000
0010
0001
1000
0010
,
0100
0000
0001
0100
1000
0100
0001
0010
,
1000
0000
0010
0000
0100
0000
1000
0000
0010
0000
0100
0000
0001
1000
0100
0100
,
0002
0000
0000
0000
,
0000
0000
0000
0000
,
0003
0000
0000
0000
;

//---------------dance-single - The 15----------------
#NOTES:
     dance-single:
     The 15:
     Hard:
     15:
     0.757,0.903,0.436,0.085,0.137:
0000
0000
0000
0000
,
0000
0000
0000
0000
,
2002
0000
0000
3003
,
1000
0000
0000
0000
0100
0000
0000
0010
,
0000
0001
1000
0000
0000
0000
0000
0010
,
0000
1000
0001
0000
0000
0000
0000
0000
,
2002
0000
0000
3003
,
0001
0000
0000
0000
0100
0000
0000
0010
,
0000
1000
0001
0000
0000
0000
0000
0010
,
0000
0001
1000
0000
0000
0000
0000
0000
,
1001
0000
0000
0000
0000
0000
1100
0000
0000
0000
0000
0000
1000
0000
0100
0010
,
0001
0000
0000
0101
0000
0000
0100
0010
,
1000
0000
0000
0000
0000
0000
1100
0000
0000
0000
0000
0000
1000
0000
0010
0100
,
0001
0000
0010
0100
0001
0100
0010
0100
,
1000
0000
0000
0000
0000
0000
1010
0000
0000
0000
0000
0000
1000
0000
0010
0100
,
0001
0000
0000
0011
0000
0000
0010
0100
,
1000
0000
0000
0000
0000
0000
1010
0000
0000
0000
0000
0000
1000
0000
0100
0010
,
0001
0000
0100
0010
0001
0010
0100
0001
,
1000
0000
0100
1000
01M0
0000
0100
0001
,
01M0
0000
0000
0000
0100
0000
1000
0000
01M0
0000
0000
0000
0010
0001
1000
0000
,
0010
0000
0M10
0001
0010
0000
0M10
1000
,
0010
0000
0000
0000
0M10
0000
0001
0010
0100
0000
0000
0000
1000
0000
0001
0000
,
0100
0000
0000
0000
01M0
0000
1000
0000
0100
0000
0000
0000
0100
0000
0001
1000
,
0010
0000
0000
0000
0M10
0000
0001
0000
0010
0000
0000
0000
0M10
0000
1000
0001
,
0100
0000
01M0
1000
0010
0000
0M10
0001
,
0100
0000
01M0
1000
0010
0100
0001
0010
,
0100
0000
1100
0000
0000
1000
0001
0000
,
0100
0000
0101
0000
0001
1000
0100
1000
,
0010
0000
1010
0000
0000
1000
0001
0000
,
0010
0000
0000
0000
0011
0000
0000
0000
0001
0000
1000
0000
0010
0000
1000
0001
,
0100
0000
0101
0000
0000
0001
1000
0000
,
0100
0000
1100
0000
1000
0001
0100
0001
,
0010
0000
0011
0000
0000
0001
1000
0000
,
0010
0000
0000
0000
1010
0000
0000
0000
1000
0000
0001
0000
0010
0000
0001
1000
,
0100
0000
0010
0001
1000
0001
0100
0001
,
0010
0001
1000
0001
0100
0001
0010
0100
,
1000
0001
1000
0010
1000
0100
1000
0001
,
1000
0010
1000
0000
0001
0000
0010
0000
0100
1000
0100
0000
0010
0000
0001
0000
,
1000
0100
1000
0000
0001
0000
0100
0000
0010
1000
0010
0000
0100
0000
0001
0000
,
0010
0001
0010
0000
0100
0000
1000
0000
0001
0100
0001
0000
1000
0000
0010
0000
,
0100
0001
0100
0000
0010
0000
1000
0000
0100
1000
0100
0000
0010
0000
0001
0000
,
1000
0010
1000
0000
0001
0010
0001
0000
1000
0100
1000
0000
0001
0100
0001
0000
,
0010
0M10
1000
0100
01M0
0001
0010
0M10
,
1000
0100
01M0
0001
0010
0100
1100
0000
,
0001
0100
0010
1000
,
0001
0010
0100
1000
,
0001
0100
0001
0010
,
0100
1000
0001
1000
0010
0100
0001
1000
,
0001
1000
0100
0010
,
0001
1000
0010
0100
,
0002
0000
0013
0100
1000
0001
0100
0010
,
1000
0000
0010
0000
0100
0000
0001
0000
1000
0000
0100
0010
0001
0000
1000
0000
,
0002
0000
0000
0000
0000
0000
0013
0100
,
0000
1000
0001
0000
0100
0000
0010
0000
,
1010
0000
0000
1010
0000
0000
1001
0000
,
0000
0000
0000
0000
0000
0000
0000
0000
0001
0000
0100
0010
1000
0000
0001
0000
,
2000
0000
0000
0000
0000
0000
3010
0100
,
0000
0001
0010
0000
0100
0000
1000
0001
,
0200
0000
0000
0000
0300
0000
0000
0101
,
0000
1010
0000
1001
0000
0000
1100
0000
,
1001
0000
0001
0100
0010
0010
0001
1000
,
1100
0000
1000
0100
0010
0010
1000
0001
,
0101
0000
0001
0100
0010
0010
0001
1000
,
1010
0000
0000
0000
1000
0100
1000
0000
0100
0010
0100
0000
0010
0000
0001
0000
,
0100
01M0
1000
0010
0M10
0001
1000
0100
,
0010
0M10
1000
0100
01M0
0001
1000
0010
,
0100
01M0
1000
0010
0M10
0001
1000
0100
,
0010
0000
0001
0000
0010
0000
0001
0000
1000
0010
1000
0000
0001
0010
0001
0000
,
1001
0000
1000
0100
0010
0M10
1000
0001
,
0101
0000
0001
0100
0010
0M10
0001
1000
,
1100
0000
1000
0100
0010
0M10
1000
0001
,
0011
0000
0000
0000
0001
0100
0001
0000
0100
0010
0100
0000
0010
0000
1000
0000
,
0100
01M0
0001
0010
0M10
1000
0001
0100
,
0010
0M10
0001
0100
01M0
1000
0001
0010
,
0100
01M0
0001
0010
0M10
1000
0001
0100
,
0010
0000
1000
0000
0010
0000
1000
0000
0001
0010
0001
0000
1000
0010
1000
0000
,
1001
0000
0001
0100
0010
0100
1000
0100
,
0010
0100
0001
1000
0100
0001
0100
0010
,
0011
0000
1000
0100
0010
0100
0001
0100
,
0010
0100
1000
0001
0100
1000
0100
0010
,
1010
0000
0001
0010
0100
0010
1000
0010
,
0100
0010
0001
1000
0010
0001
0010
0100
,
0101
0000
1000
0010
0100
0010
0001
0010
,
0100
0010
1000
0001
0010
1000
0010
0100
,
1000
1100
0100
0110
,
0010
0011
0001
1001
,
1000
1010
0010
0110
,
0100
0000
0101
0000
0001
1000
0100
1000
,
0001
0011
0010
0110
,
0100
1100
1000
1001
,
0001
0101
0100
0110
,
0010
1000
0010
0100
0001
0100
0010
1000
,
0001
0000
1000
0100
0010
0100
0001
0100
,
0010
0100
1000
0001
0100
1000
0100
0010
,
2020
0000
0000
0000
,
0000
0000
0000
0000
,
3030
0000
0000
0000
;

//---------------dance-single - TaroNuke----------------
#NOTES:
     dance-single:
     TaroNuke:
     Medium:
     13:
     0.673,0.657,0.436,0.256,0.000:
0000
0000
0000
0000
,
0000
0000
0000
0000
,
2001
0000
0100
0000
,
0100
0000
0100
0000
,
3001
0000
0000
0000
,
1001
0000
0000
0000
,
1002
0000
0100
0000
,
0100
0000
0100
0000
,
1003
0000
0000
0000
,
1001
0000
0000
0000
,
1001
0000
0000
1001
0000
0000
1000
0100
,
1100
0000
0000
1100
0000
0000
0001
0100
,
0101
0000
0000
0101
0000
0000
0001
0010
,
0110
0000
1000
0100
0010
0001
0010
0100
,
1000
0000
0000
1001
0000
0000
0001
0010
,
0011
0000
0000
0011
0000
0000
1000
0010
,
1010
0000
0000
1010
0000
0000
0001
0100
,
0110
0000
1000
0010
0100
0001
0100
0010
,
1000
0000
0100
1000
01M0
0000
0100
0001
,
01M0
0000
0100
1000
01M0
0000
1002
0000
,
0013
0000
0M10
1000
0010
0000
0M10
0001
,
0010
0000
0M10
1000
0010
0000
2001
0000
,
3100
0000
01M0
0001
0100
0000
1002
0000
,
0013
0000
0M10
1000
0010
0000
2001
0000
,
3100
0000
01M0
0001
0010
0000
0M10
1000
,
0100
0000
01M0
0001
0010
0100
1000
0010
,
0100
0000
0101
0000
0000
0001
1000
0000
,
0100
0000
1100
0000
1000
0001
0100
0001
,
0010
0000
0011
0000
0000
0001
1000
0000
,
0010
0000
1010
0000
1000
0001
0100
0001
,
1000
0000
1100
0000
0000
1000
0001
0000
,
0100
0000
0101
0000
0001
1000
0100
1000
,
0010
0000
1010
0000
0000
1000
0001
0000
,
0010
0000
0011
0000
0001
1000
1010
0000
,
1000
0000
0010
1000
0001
1000
0100
1000
,
0010
1000
0100
1000
0001
1000
0010
0100
,
0001
1000
0100
0010
0001
0010
0100
1000
,
0010
0010
0100
0100
0001
1000
0001
0000
,
0010
0010
0100
0100
1000
0001
1000
0000
,
0010
0010
0100
0100
0001
1000
0001
0000
,
0010
0010
0100
0100
1000
0001
1000
0000
,
0100
0100
0010
0010
0001
0001
2000
0000
,
3001
0100
0010
1000
0100
0010
0001
0100
,
0010
1000
0100
0010
0002
0000
1003
0000
,
0001
0100
0010
1000
,
0001
0010
0100
1000
,
0001
0100
0010
1000
,
0100
0010
0001
1000
0010
0100
0001
1000
,
0001
1000
0100
0010
,
0001
1000
0010
0100
,
0101
0000
0001
0100
0010
0100
0010
0100
,
0010
1000
0010
1000
0001
1000
0001
1000
,
0200
0000
0000
0000
0000
0000
0310
0001
,
0000
1000
0010
0000
0100
0000
0001
0000
,
0101
0000
0000
0101
0000
0000
1001
0000
,
0000
0000
0000
0001
,
0200
0000
0000
0000
0000
0000
0310
1000
,
0000
0001
0010
0000
0100
0000
1000
0000
,
0002
0000
0000
0000
0003
0000
0000
0101
,
0000
1010
0000
1001
0000
0000
1000
0000
,
0001
0000
1000
0100
0010
0001
0010
0100
,
1000
0000
0001
0100
0010
1000
0010
0100
,
0001
0000
1000
0100
0010
0001
0010
0100
,
1000
0000
0001
0010
0001
0100
0010
1000
,
0100
01M0
0001
0010
0M10
1000
0200
0000
,
0310
001M
1000
0100
01M0
0001
0020
0000
,
0130
M100
0001
0010
0M10
1000
0200
0000
,
0310
0001
0010
0001
1000
0001
1000
0001
,
0100
0000
0001
0100
0010
1000
0010
0100
,
0001
0000
1000
0100
0010
0001
0010
0100
,
1000
0000
0001
0100
0010
1000
0010
0100
,
0001
0000
1000
0010
1000
0100
0010
0001
,
0100
01M0
1000
0010
0M10
0001
0200
0000
,
0310
M010
0001
0100
01M0
1000
0020
0000
,
0130
010M
1000
0010
0M10
0001
0200
0000
,
0310
1000
0010
1000
0001
1000
0001
1000
,
0200
0010
1000
0010
,
2300
0001
0100
3002
,
0203
0010
0001
0010
,
0302
1000
0100
2003
,
3020
0100
1000
0100
,
2030
0001
0010
3002
,
0023
0100
0001
0100
,
0032
1000
0010
2003
,
3001
0101
0100
0110
,
0010
1010
1000
1001
,
0001
0011
0010
0110
,
0100
0000
1100
0000
1000
0001
0100
0001
,
1000
1010
0010
0110
,
0100
0101
0001
1001
,
1000
1100
0100
0110
,
0001
0100
0001
0000
1000
0100
1000
0000
,
1001
0000
1000
0100
0010
0100
0010
0100
,
0010
0001
0010
0001
1000
0001
1000
0001
,
0200
0000
0000
0000
,
0000
0000
0000
0000
,
0300
0000
0000
0000
;
