#TITLE:Sugar Rush;
#SUBTITLE:;
#ARTIST:Yuuni;
#TITLETRANSLIT:;
#SUBTITLETRANSLIT:;
#ARTISTTRANSLIT:;
#GENRE:;
#CREDIT:Maractus & Braeden;
#MUSIC:Sugar Rush.ogg;
#BANNER:ban.png;
#BACKGROUND:bg.png;
#CDTITLE:;
#SAMPLESTART:39.535;
#SAMPLELENGTH:12.000;
#SELECTABLE:YES;
#OFFSET:-0.006;
#BPMS:0.000=170.000
,205.000=200.000
;
#STOPS:;
#JACKET:jacket.png;
#ORIGIN:;
#PREVIEWVID:;
#JACKET:;
#CDIMAGE:;
#DISCIMAGE:;
#BGCHANGES:;
#FGCHANGES:;

//--------------- dance-single - Braeden ----------------
#NOTES:
     dance-single:
     Braeden:
     Easy:
     10:
     0,0,0,0,0:
0000
0000
0000
0000
,
0000
0000
0000
0000
,
0000
0000
0000
0000
,
0000
0000
0000
0000
,
0001
0100
0101
0001
,
1000
0010
0100
0001
,
1000
0001
0100
0010
,
1000
0100
0010
0001
,
1000
0000
0000
0100
0000
0000
1000
0000
0000
0100
0000
0000
1000
0000
0000
0000
,
0001
0000
0000
0010
0000
0000
0001
0000
0000
0010
0000
0000
0001
0000
0000
0000
,
1000
0000
0000
0010
0000
0000
0100
0000
0000
0010
0000
0000
1000
0000
0000
0000
,
0001
0000
0000
0100
0000
0000
0010
0000
0000
0100
0000
0000
0001
0000
0000
0000
,
1000
0000
0000
1000
0000
0000
1000
0000
0000
1000
0000
0000
1000
0000
0000
0000
,
0001
0000
0000
0001
0000
0000
0001
0000
0000
0001
0000
0000
0001
0000
0000
0000
,
0010
0000
0000
0010
0000
0000
0010
0000
0000
0010
0000
0000
0010
0000
0000
0000
,
0100
0000
0000
0100
0000
0000
0100
0000
0000
0100
0000
0000
0100
0000
0000
0000
,
1000
0001
0100
0010
,
1000
0100
0010
0001
,
1000
0000
0000
0010
0000
0000
0100
0000
0000
0001
0000
0000
0100
0000
0000
0000
,
0020
0000
0000
0030
,
0102
0000
0103
0001
0100
0000
0010
0000
,
1000
0001
1000
0001
1000
0000
0100
0000
,
0020
0000
0031
1000
0010
0000
1000
0000
,
0002
0000
0000
0000
0103
0000
0000
0000
0010
0000
0000
1000
0000
0000
0001
0000
,
0020
0000
0031
0100
0010
0000
1000
0000
,
0100
0010
0100
0010
0001
0000
1000
0000
,
0002
0000
0103
0010
1000
0000
0001
0000
,
1000
0010
0100
0000
0001
0000
1000
0000
,
0201
0000
0301
0100
0001
0000
0100
0000
,
0010
1000
0010
1000
0010
0000
1000
0000
,
0200
0000
1300
0010
0100
0000
0001
0000
,
2000
0000
0000
0000
3010
0000
0000
0000
0100
0000
0000
0001
0000
0000
1000
0000
,
0020
0000
0130
0001
1000
0000
0001
0000
,
1000
0100
0010
0001
1000
0000
0010
0000
,
0200
0000
0301
1000
0010
0000
0100
0000
,
0001
0000
0000
1000
0000
0000
0200
0000
0000
0000
0000
0000
0300
0000
0000
0000
,
0010
0011
0001
1000
,
0010
0000
0100
0001
0100
0000
0010
0000
,
1000
0000
0100
0010
0100
0000
1000
0000
,
0001
0000
0100
0010
0100
0000
0001
0000
,
1000
0000
0100
0010
0001
0000
0100
0000
,
0010
0000
1000
0001
1000
0000
0001
0000
,
0010
0000
0100
1000
0001
0000
0100
0000
,
0010
2000
0000
0000
,
0000
3000
0000
0000
,
0000
0000
0000
0000
,
0000
0000
0000
0000
,
0000
0000
0000
0000
,
0000
0000
0000
0000
,
0000
0000
0000
0000
,
0000
0000
0000
0000
,
0000
0002
0000
0103
,
0000
0020
0000
0030
,
0000
0002
0000
0003
,
0000
0200
0000
0300
,
0000
0020
0000
0030
,
0000
2000
0000
3000
,
0000
0002
0000
0003
,
0000
2002
0000
3003
,
0000
0000
0000
0000
0001
0000
0000
1000
0000
0000
0001
0000
0000
1000
0000
0000
,
0001
0000
0000
0000
0100
0000
0000
0010
0000
0000
0100
0000
0000
0010
0000
0000
,
0100
0000
0000
0000
0001
0000
0000
0010
0000
0000
0100
0000
0000
1000
0000
0000
,
0100
0000
0000
0000
0010
0000
0000
0001
0000
0000
0010
0000
0000
0001
0000
0000
,
0010
0000
0000
0000
0001
0000
0000
1000
0000
0000
0001
0000
0000
0100
0000
0000
,
0010
0000
0000
0000
1000
0000
0000
0100
0000
0000
1000
0000
0000
0100
0000
0000
,
1000
0001
0100
0010
,
1000
0020
0000
0030
,
0000
0000
1001
0000
1000
0100
1000
0000
,
0001
0010
0001
0000
0010
0100
1000
0000
,
0001
0000
2000
0000
3100
0010
0100
0000
,
0010
0001
0010
0000
0001
1000
0001
0000
,
0100
0000
0001
0000
1001
0000
1000
0100
,
1000
0000
0001
0010
0001
0000
1000
0000
,
0001
0000
0200
0000
0310
1000
0010
0000
,
0100
0001
0100
0000
0001
0010
0001
0000
,
1000
0000
1001
0000
0001
0010
0100
0000
,
1000
0100
0010
0000
0001
0100
0010
0000
,
1000
0000
0001
0000
1000
0010
0100
0000
,
0001
0100
0010
0000
1000
0000
0001
0000
,
0100
0000
0020
0000
0130
0001
0010
0000
,
0100
1000
0010
0000
0100
0001
0100
0000
,
0010
0000
1000
0001
1000
0000
0010
0100
,
0010
0000
0000
0000
1000
0000
0000
0001
0000
0000
0200
0000
0000
0000
0000
0000
,
0310
1001
0001
0010
,
0001
0100
0001
0000
0100
0000
0010
0000
,
1000
0020
1030
0001
,
0100
0010
1000
0000
0001
0000
0010
0000
,
0100
2000
3001
1000
,
0010
0100
0001
0000
1000
0000
0100
0000
,
0010
0002
1003
0010
,
0100
0000
0001
0000
0010
0000
0000
0000
0010
0000
0000
0000
0100
0000
0000
0010
,
0000
0001
0100
0000
0010
0000
1000
0000
,
0001
0100
0001
0000
1000
0000
0010
0100
,
0001
0000
1000
0000
0100
0000
0010
0001
,
1000
0010
0100
0001
,
1000
0001
0100
0010
,
1000
0001
0010
0000
0100
0000
1000
0000
,
0001
1000
0100
0000
0010
0000
0001
0000
,
1000
0000
0000
0000
0001
0000
0000
0100
0000
0000
0020
0000
0000
0000
0000
0000
,
1030
0001
0100
0010
,
1000
0001
0100
0010
,
1000
0001
0010
0100
,
1000
0001
0010
0001
,
0100
0010
1000
0001
,
0100
0010
1000
0100
,
0010
0001
0010
0100
,
1000
0001
0100
0010
,
1000
0001
0001
0100
,
0100
0010
0010
1000
,
1000
0001
0010
0100
,
1000
0001
0100
0010
,
1000
0100
0010
0100
,
1000
0001
0010
0001
,
0100
0010
1000
0001
,
0100
0200
0000
0000
,
0300
0000
0000
0000
;

//--------------- dance-single - FS- XO- ----------------
#NOTES:
     dance-single:
     FS- XO-:
     Medium:
     13:
     0,0,0,0,0:
0000
0000
0000
0000
,
0000
0000
0000
0000
,
0000
0000
0000
0000
,
0000
0000
0000
0000
,
0001
0000
0000
0010
0000
0000
0001
0000
0000
0000
1000
0000
0010
0000
0100
0000
,
0001
0000
0000
1000
0000
0000
0001
0000
0000
0000
0100
0000
0001
0000
0000
0000
,
1000
0000
0000
0010
0000
0000
1000
0000
0000
0000
0001
0000
0010
0000
0100
0000
,
1000
0000
0000
0001
0000
0000
1000
0000
0000
0000
0100
0000
1000
0000
0000
0000
,
0002
0000
0000
1003
0000
0000
0010
0000
0000
1000
0000
0000
0010
0000
0000
0000
,
0200
0000
0000
0001
0300
0000
0010
0000
0000
0001
0000
0000
0010
0000
0000
0000
,
0200
0000
0000
1300
0000
0000
0100
0000
0000
1000
0000
0000
0100
0000
0000
0000
,
0010
0000
0000
0001
0000
0000
0010
0000
0000
0001
0000
0000
0100
0000
0000
0000
,
0010
0000
0000
0010
0000
0000
1000
0000
0000
1000
0000
0000
1002
0000
0000
0000
,
0013
0000
0000
0010
0000
0000
0001
0000
0000
0001
0000
0000
2001
0000
0000
0000
,
3010
0000
0000
0010
0000
0000
0100
0000
0000
0100
0000
0000
0201
0000
0000
0000
,
0301
0000
0000
0001
0000
0000
1000
0000
0000
1000
0000
0000
1200
0000
0000
0000
,
1300
0010
1000
0010
0100
0001
0100
0001
,
1000
0100
1000
0100
0010
0001
0010
0001
,
1000
0000
0000
0100
0000
0000
0010
0000
0000
0001
0000
0000
1000
0000
0001
0000
,
0040
0000
0000
0000
,
0032
0000
0000
0000
0103
00M0
0100
0000
1000
0000
0000
0000
0001
0000
0100
0000
,
0001
0000
0010
0000
0100
0000
1000
0000
0001
0000
0000
0010
0000
0000
0100
0000
,
2000
0000
0000
0000
3100
00M0
0100
0000
0001
0000
0000
0000
1000
0000
0100
0000
,
0020
0000
0000
0000
0031
0000
1000
0000
0001
0000
0000
0100
0000
0000
0010
0000
,
2000
0000
0000
0000
3100
00M0
0100
0000
0001
0000
0000
0000
1000
0000
0010
0000
,
0100
0000
0001
0000
1000
0000
0010
0000
0100
0000
0000
0001
0000
0000
0010
0000
,
0002
0000
0000
0000
0013
0M00
0010
0000
1000
0000
0000
0000
0001
0000
0010
0000
,
0001
0110
0200
0301
,
1002
0000
0000
0000
1003
0000
0100
00M0
0100
0000
0000
0000
0001
0000
0010
0000
,
0100
0000
1000
0000
0001
0000
1000
0000
0100
0000
0000
0010
0000
0000
0001
0000
,
2000
0000
0000
0000
3010
0M00
0010
0000
0001
0000
0000
0000
1000
0000
0010
0000
,
1000
0000
0000
0000
0001
0000
0000
0000
0100
0000
0000
0010
0000
0000
1000
0000
,
0002
0000
0000
0000
0013
0M00
0010
0000
1000
0000
0000
0000
0001
0000
0100
0000
,
0001
0000
1000
0000
0100
0000
0010
0000
0001
0000
0000
1000
0000
0000
0100
0000
,
2000
0000
0000
0000
3001
0000
0100
00M0
0100
0000
0000
0000
1000
0000
0010
0000
,
1010
0000
0000
0110
0000
0000
0102
0000
0000
0000
0000
0000
1003
0000
0000
0000
,
0001
0000
0000
0000
2001
0000
0000
0000
3001
0000
0000
0100
0000
0000
1000
0000
,
0000
0100
0000
0000
0001
0000
0000
0000
1000
0000
0000
0100
0000
0000
0001
0000
,
0000
0100
0000
0000
1000
0000
0000
0000
0010
0000
0000
0100
0000
0000
0010
0000
,
0000
1000
0000
0000
0001
0000
0000
0000
0100
0000
0000
0010
0000
0000
0100
0000
,
0000
0001
0000
0000
1000
0000
0000
0000
0001
0000
0000
0010
0000
0000
1000
0000
,
0000
0001
0000
0000
0100
0000
0000
0000
1000
0000
0000
0010
0000
0000
0001
0000
,
0000
1000
0000
0000
0100
0000
0000
0000
0001
0000
0000
0010
0000
0000
1000
0000
,
0001
0000
0000
0000
0100
0000
0000
0000
1000
0000
0000
0010
0000
0000
0100
0000
,
0000
0001
0000
1000
0000
0000
0000
0000
0000
0000
0000
0000
0000
0000
0000
0000
,
0000
0000
0000
0000
,
0000
0000
0000
0000
,
0000
0000
0000
0000
,
0000
0000
0000
0000
,
0000
0000
0000
0000
,
0000
0000
0000
0000
,
0000
0002
0000
1003
,
0000
0200
0000
0300
,
0000
0020
0000
0030
,
0000
0002
0000
0003
,
0000
0000
0000
0000
1000
0000
0000
0100
0000
0000
1000
0000
0000
0100
0000
0000
,
0010
0000
0000
0000
0001
0000
0000
0100
0000
0000
0001
0000
0000
0100
0000
0000
,
0010
0000
0000
0000
1000
0000
0000
0100
0000
0000
1000
0000
0000
0100
0000
0000
,
0010
0000
0000
0000
0001
0000
0000
1000
0000
0000
0001
0000
0000
1000
0000
0000
,
0010
0000
0100
0000
0002
0000
0003
2000
0000
3000
0020
0000
0030
0200
0000
0300
,
0002
0000
0003
0000
1000
0000
0000
1000
0000
0000
0010
0000
0000
0010
0000
0000
,
0100
0000
0000
0000
0002
0000
0003
0020
0000
0030
0200
0000
0300
2000
0000
3000
,
0002
0000
0003
0000
0010
0000
0000
0010
0000
0000
0100
0000
0000
0100
0000
0000
,
1000
0000
0000
0000
0002
0000
0000
0023
0000
0000
0230
0000
0000
2300
0000
0000
,
3002
0000
0003
0000
2000
0000
0000
3020
0000
0000
0230
0000
0000
0302
0000
0000
,
2003
0000
0000
3000
0002
0000
0000
0023
0000
0000
0230
0000
0000
2300
0000
0000
,
3002
0000
0000
0003
0400
0000
0000
0000
0000
0000
0000
0000
0000
0000
0000
0000
,
0000
0301
2001
0000
3001
0010
0100
1000
,
0001
0010
0100
1000
0001
0100
0010
1000
,
0001
0100
0020
0000
1030
0100
0010
0001
,
1000
0100
0010
0001
1000
0010
0100
0001
,
1000
0010
0200
0000
0301
0100
0010
1000
,
0001
0100
0010
1000
0001
0010
0100
1000
,
0001
0010
0200
0000
1300
0010
0100
0001
,
1000
0010
0100
0001
1000
0100
0010
0001
,
1000
0100
0020
0000
0031
0010
0100
0010
,
0001
0100
0010
0100
0001
0010
0100
0010
,
0001
1000
0010
0100
0010
1000
0100
0010
,
0100
0000
1000
0000
0010
0000
0100
0000
0010
0000
1000
0000
0001
0000
0000
0100
,
0000
0010
2000
0000
3001
0010
0100
0010
,
0001
0100
0010
0100
0001
0010
0100
0010
,
0001
1000
0010
0100
0010
1000
0100
0010
,
0100
0000
1000
0000
0010
0000
0000
0100
0000
0000
0002
0000
0000
0000
0000
0000
,
1003
0000
0000
0000
1002
0000
0000
0000
0013
0M00
0010
0000
1000
0000
0000
0000
,
0001
0000
0010
0000
0001
0000
0000
0000
1000
0000
0000
0000
0001
0000
0000
0100
,
0000
0000
0010
0000
2000
0000
0000
0000
3010
0M00
0010
0000
0001
0000
0000
0000
,
1000
0000
0010
0000
1000
0000
0000
0000
0001
0000
0000
0000
0010
0000
0000
0100
,
0000
0000
1000
0000
0002
0000
0000
0000
0013
0M00
0010
0000
1000
0000
0000
0000
,
0001
0000
0100
0000
0001
0000
0000
0000
0010
0000
0000
0000
0100
0000
0000
1000
,
0000
0000
0001
0000
2000
0000
0000
0000
3100
00M0
0100
0000
0001
0000
0000
0000
,
1000
0000
0100
0000
1000
0000
0000
0000
0001
0000
0000
0000
0100
0000
0000
0010
,
0000
0000
1000
0000
2001
0000
0000
0000
3001
0000
0010
0M00
0010
0000
0000
0000
,
1000
0000
0100
0000
0010
0000
0001
0000
1000
0000
0000
0000
0010
0000
0000
0100
,
0000
0000
0001
0000
2000
0000
0000
0000
3100
00M0
0100
0000
0001
0000
0000
0000
,
1000
0000
0010
0000
0100
0000
0001
0000
1000
0000
0000
0000
0100
0000
0000
0010
,
0000
0000
0001
0000
2000
0000
0000
0000
3100
00M0
0100
0000
0001
0000
0000
0000
,
1000
0000
0100
0000
0010
0000
0001
0000
1000
0000
0000
0000
0010
0000
0000
0100
,
0000
0001
1000
0001
0100
0010
2000
0000
,
3001
0000
0000
0000
0011
0000
0000
0110
0000
0000
2100
0000
0000
0000
0000
0000
,
3001
0000
0000
0000
2001
0000
0000
0000
3001
0000
0000
0010
0000
0000
1000
0000
,
0000
0010
0000
0000
0001
0000
0000
0000
1000
0000
0000
0010
0000
0000
0001
0000
,
0000
0010
0000
0000
1000
0000
0000
0000
0100
0000
0000
0010
0000
0000
0100
0000
,
0000
1000
0000
0000
0001
0000
0000
0000
0010
0000
0000
0100
0000
0000
0010
0000
,
0000
0001
0000
0000
1000
0000
0000
0000
0001
0000
0000
0100
0000
0000
1000
0000
,
0000
0001
0000
0000
0010
0000
0000
0000
1000
0000
0000
0100
0000
0000
0001
0000
,
0000
1000
0000
0000
0010
0000
0000
0000
0001
0000
0000
0100
0000
0000
1000
0000
,
0001
0000
0000
0000
0010
0000
0000
0000
1000
0000
0000
0100
0000
0000
0010
0000
,
0001
0000
1000
0000
0001
0000
0000
0100
0000
0000
0010
0000
0000
0001
0000
0000
,
0010
0000
1000
0000
0001
0000
0000
0010
0000
0000
0100
0000
0000
0001
0000
0000
,
0100
0000
1000
0000
0001
0000
0000
0010
0000
0000
0100
0000
0000
1000
0000
0000
,
0100
0000
0010
0000
0001
0000
0000
0100
0000
0000
0010
0000
0000
1000
0000
0000
,
0010
0000
0100
0000
0001
0000
0000
0100
0000
0000
1000
0000
0000
0001
0000
0000
,
0010
0000
1000
0000
0001
0000
0000
0010
0000
0000
1000
0000
0000
0001
0000
0000
,
0100
0000
1000
0000
0001
0000
0000
0100
0000
0000
1000
0000
0000
0001
0000
0000
,
0010
0000
1000
0000
0001
0000
0000
0100
0000
0000
0010
0000
0000
1000
0000
0000
,
0001
1000
0000
0000
0000
0000
0000
0000
;

//--------------- dance-single - FS+ DS JA ----------------
#NOTES:
     dance-single:
     FS+ DS JA:
     Hard:
     17:
     0,0,0,0,0:
0000
0000
0000
0000
,
0000
0000
0000
0000
,
0000
0000
0000
0000
,
0000
0000
0000
0000
,
1000
0000
0001
0010
0001
0000
1000
0000
0002
0000
0100
0000
1003
0000
0100
00M0
,
0100
0000
0001
0100
0001
0000
1000
0000
0002
0000
0010
0000
1003
0000
0010
0M00
,
0010
0000
0001
1000
0002
0000
0100
0000
1003
0000
0100
00M0
0100
0000
0001
0000
,
1000
0000
0100
0010
0200
0000
1000
0000
0310
0000
0001
0000
1000
0000
0010
0000
,
1010
0000
0000
1000
0000
0000
0001
0000
0000
0100
0000
0000
0010
0000
0000
0000
,
1000
0000
0000
0100
0000
0000
0010
0000
0000
0001
0000
0000
1000
0000
0000
0000
,
0001
0000
0000
0100
0000
0000
0010
0000
0000
1000
0000
0000
0001
0000
0000
0000
,
1000
0000
0000
0100
0000
0000
1000
0000
0000
0100
0000
0000
0010
0000
0000
0000
,
1001
0000
0000
0101
0000
0000
0110
0000
0000
1010
0000
0000
1001
0000
0000
0000
,
0011
0000
0000
0110
0000
0000
1100
0000
0000
1001
0000
0000
1010
0000
2000
0000
,
3001
0000
0000
1001
0000
0000
0011
0000
0000
0110
0000
0000
1100
0000
0000
0000
,
1001
0000
0000
1010
0000
0000
0110
0000
0000
0101
0000
0000
1001
0000
0000
0000
,
1000
0100
1000
0100
0010
0001
0010
0001
,
1000
0010
1000
0010
0100
0001
0100
0001
,
1000
0100
0010
0001
1000
0010
0100
0001
1000
0100
0010
0001
1000
0010
0100
0001
,
4000
0000
0000
0000
,
3002
0000
0000
0000
1003
0000
0010
0100
0001
0000
1000
0000
0001
0000
0100
00M0
,
0100
0000
1000
0000
1000
0000
0001
0010
0200
0000
0000
1300
0000
0000
0001
0000
,
2001
0000
0000
0000
3001
0000
0100
0010
1000
0000
0001
0000
1000
0000
0010
0M00
,
0010
0000
0001
0010
0100
0000
1000
0100
0020
0000
0000
0031
0000
0000
1000
0000
,
1002
0000
0000
0000
1003
0000
0001
1000
0100
0000
1000
0001
0100
0000
0010
0M00
,
0010
0000
0001
0000
0001
0000
2000
0000
3010
0000
0000
0100
0000
0000
0001
0000
,
2001
0000
0000
0000
3010
0000
0100
00M0
0100
1000
0100
0010
0001
0000
1000
0000
,
0010
0000
1000
0001
0010
0000
0001
1000
0010
0000
0000
1000
0100
0000
1000
0000
,
2001
0000
0000
0000
3001
0000
1000
0001
0100
0000
0001
1000
0100
0000
0010
0M00
,
0010
0000
1000
0000
1000
0000
0001
0100
0002
0000
0000
1003
0100
0000
1000
0000
,
1002
0000
0000
0000
0103
0000
0010
0M00
0010
0001
0010
0100
1000
0000
0001
0000
,
1000
0000
0001
1000
0010
0000
1000
0001
0010
0000
0000
0001
0100
0000
0010
0000
,
2001
0000
0000
0000
3100
0000
1000
0001
0100
0000
0010
1000
0001
0000
0100
00M0
,
0100
0000
1000
0000
0001
0000
0200
0000
0310
0000
0000
1000
0001
0000
0100
0000
,
2001
0000
3010
0000
0100
00M0
0100
0000
1000
0000
0001
0010
0100
0000
1000
0000
,
1001
0000
0000
0101
0000
0000
2100
0000
0000
0000
0000
0000
3001
0000
0000
0000
,
1000
0000
0001
0000
1000
0001
1000
0000
0001
0100
0000
0001
0100
0000
0010
1000
,
0000
0010
1000
0000
0001
0100
0001
0000
0100
0010
0000
0100
0010
0000
1000
0001
,
0000
1000
0001
0000
1000
0100
1000
0000
0001
0100
0000
0001
0100
0000
0010
1000
,
0000
0010
1000
0000
0100
0010
0001
0000
1000
0100
0000
0010
0001
0000
1000
0010
,
0000
0100
0001
0000
1000
0010
1000
0000
0001
0100
0000
0010
1000
0000
0001
0010
,
0000
0001
1000
0000
0100
0010
0100
0000
0010
0001
0000
1000
0001
0000
0100
0010
,
0000
1000
0001
0000
0010
0100
1000
0000
0001
0100
0000
0010
1000
0000
0001
0010
,
0000
0100
1000
0000
0001
1000
0001
0000
1000
0100
0000
0010
0001
0000
1000
0100
,
0000
1000
0010
1000
0000
0000
0000
0000
0000
0000
0000
0000
0000
0000
0000
0000
,
0000
0000
0000
0000
,
0000
0000
0000
0000
,
0000
0000
0000
0000
,
0000
0000
0000
0000
,
0000
0000
0000
0000
,
0000
0000
0000
0000
,
0000
0002
0000
1003
,
0000
0020
0000
0030
,
0000
0200
0000
0300
,
0000
0002
0000
0003
,
0000
0000
0000
0000
1000
0000
0000
1000
0000
0000
1000
0000
0000
1000
0000
0000
,
1000
0000
0000
0000
0001
0000
0000
0010
0000
0000
0001
0000
0000
0010
0000
0000
,
0100
0000
0000
0000
1000
0000
0000
0010
0000
0000
1000
0000
0000
0010
0000
0000
,
0100
0000
0000
0000
0101
0000
0000
0100
0000
0000
0001
0000
0000
0100
0000
0000
,
0010
0000
1000
0000
1002
0000
0003
2000
0000
3000
0200
0000
0300
0020
0000
0030
,
0002
0000
0003
0000
1001
0000
0000
1100
0000
0000
1010
0000
0000
0110
0000
0000
,
0101
0000
0000
0001
2000
0000
3000
0020
0000
0030
0200
0000
0300
0002
0000
0003
,
2000
0000
3000
0000
1001
0000
0000
0011
0000
0000
0110
0000
0000
1100
0000
0000
,
1001
0000
0000
0000
0210
0000
0000
0302
0000
0000
0203
0000
0000
0320
0000
0000
,
2030
0000
3000
0000
1002
0000
0000
0023
0000
0000
0230
0000
0000
2300
0000
0000
,
3002
0000
0003
0000
2001
0000
0000
3200
0000
0000
0320
0000
0000
0032
0000
0000
,
1003
0410
0000
0000
,
0300
0000
0000
0000
0001
0000
0000
0000
2001
0000
0000
0000
0000
0000
0000
0000
3001
0000
0010
0000
0200
0000
0000
0300
0M01
0000
1000
0000
0200
0000
0000
0300
,
0M01
0000
0010
0000
0200
0000
0000
0300
0M01
0000
1000
0000
0200
0000
0000
0300
0M01
0000
0010
0000
0200
0000
0000
0300
0M01
0000
1000
0000
0200
0000
0000
0300
,
0M01
0000
1000
0000
0000
0000
0000
0000
1002
0000
0000
0000
0000
0000
0000
0000
1003
0000
0010
0000
0200
0000
0000
0300
1M00
0000
0001
0000
0200
0000
0000
0300
,
1M00
0000
0010
0000
0200
0000
0000
0300
1M00
0000
0001
0000
0200
0000
0000
0300
1M00
0000
0010
0000
0200
0000
0000
0300
1M00
0000
0000
0000
0001
0000
0100
0000
,
0000
0000
0010
0000
1000
0000
0000
0000
2001
0000
0000
0000
0000
0000
0000
0000
3001
0000
0100
0000
0020
0000
0000
0030
00M1
0000
1000
0000
0020
0000
0000
0030
,
00M1
0000
0100
0000
0020
0000
0000
0030
00M1
0000
1000
0000
0020
0000
0000
0030
00M1
0000
0100
0000
0020
0000
0000
0030
00M1
0000
1000
0000
0020
0000
0000
0030
,
00M1
0000
1000
0000
0000
0000
0000
0000
1002
0000
0000
0000
0000
0000
0000
0000
1003
0000
0100
0000
0020
0000
0000
0030
10M0
0000
0001
0000
0020
0000
0000
0030
,
10M0
0000
0100
0000
0020
0000
0000
0030
10M0
0000
0001
0000
0020
0000
0000
0030
10M0
0000
0100
0000
0020
0000
0000
0030
10M0
0000
0000
0000
0001
0000
0010
0000
,
0000
0100
1000
0000
2001
0000
0000
0000
3001
1000
0100
00M0
0100
0001
1000
0000
,
1000
0001
0100
00M0
0100
1000
0001
0000
0001
1000
0100
00M0
0100
0001
1000
0000
,
1000
0001
0100
00M0
0100
1000
0001
0000
0001
1000
0100
00M0
0100
0001
1000
0000
,
1000
0001
0100
00M0
0100
1000
0001
0000
0001
1000
0100
00M0
0100
0001
0000
1000
,
0100
0000
0010
0001
1000
0000
0010
0000
1000
0001
0010
0M00
0010
1000
0001
0000
,
0001
1000
0010
0M00
0010
0001
1000
0000
1000
0001
0010
0M00
0010
1000
0001
0000
,
0001
1000
0010
0M00
0010
0001
1000
0000
1000
0001
0010
0M00
0010
1000
0001
0000
,
0001
1000
0010
0000
0110
0000
0000
1010
0000
0000
0012
0000
0000
0000
0000
0000
,
1003
0010
0100
0000
2001
0000
0000
0000
3001
0000
0100
00M0
0100
1000
0100
0010
,
0002
0000
0010
0000
1003
0000
0001
0010
0001
0010
0100
0000
1000
0000
0001
0100
,
0002
0000
1003
0100
2000
0000
0000
0000
3100
00M0
0100
0001
0100
0010
2000
0000
,
0010
0000
3001
0000
1000
0010
1000
0010
0100
0000
0001
0000
1000
0000
0001
0100
,
0000
0010
1000
0000
1002
0000
0000
0000
1003
0000
0010
0M00
0010
0001
0010
0100
,
2000
0000
0100
0000
3001
0000
1000
0100
1000
0100
0010
0000
0001
0000
1000
0100
,
2000
0000
3001
0100
0002
0000
0000
0000
0013
0M00
0010
1000
0010
0100
0002
0000
,
0100
0000
1003
0000
0001
0100
0001
0100
0010
0000
1000
0000
0001
0000
1000
0100
,
0000
0010
0001
0000
2001
0000
0000
0000
3001
1000
0100
0000
0100
1000
0001
0000
,
0001
1000
0100
0000
0100
1000
0001
0000
0001
1000
0100
0000
0100
1000
0001
0000
,
0001
1000
0100
0000
0100
1000
0001
0000
0001
1000
0100
0000
0100
1000
0001
0000
,
0001
1000
0100
0000
0100
1000
0001
0000
0001
1000
0100
0000
0100
1000
0000
0001
,
0100
0000
0010
1000
0001
0000
0010
0000
0001
1000
0010
0000
0010
1000
0001
0000
,
0001
1000
0010
0000
0010
1000
0001
0000
0001
1000
0010
0000
0010
1000
0001
0000
,
0001
1000
0010
0000
0010
1000
0001
0000
0001
1000
0010
0000
0010
1000
0001
0000
,
0001
1000
0010
0000
0110
0000
0000
1010
0000
0000
0012
0000
0000
0000
0000
0000
,
0043
0000
0000
0000
0031
0000
1000
0000
0001
1000
0001
0000
1000
0100
0000
1000
,
0100
0000
0010
0001
0000
0010
0001
0000
1000
0100
1000
0000
0100
0010
0000
0100
,
0010
0000
0001
1000
0000
0001
1000
0000
0001
0100
0001
0000
1000
0100
0000
1000
,
0100
0000
0010
0001
0000
0010
0001
0000
0100
0010
1000
0000
0001
0100
0000
0010
,
1000
0000
0001
0010
0000
0100
1000
0000
0001
0010
0001
0000
1000
0100
0000
0010
,
0001
0000
1000
0010
0000
1000
0001
0000
0100
0010
0100
0000
0010
1000
0000
0001
,
1000
0000
0100
0010
0000
0001
1000
0000
0010
0100
0001
0000
1000
0100
0000
0010
,
0001
0000
1000
0010
0000
0100
0001
0000
1000
0001
1000
0000
0001
0100
0000
0010
,
1000
0000
0001
0000
1000
0100
00M0
0100
0001
0000
1000
0100
00M0
0100
0010
0000
,
1000
0001
0000
0001
0100
00M0
0100
1000
0000
0001
0100
M000
0100
0010
0000
0001
,
1000
0000
1000
0010
0M00
0010
0001
0000
1000
0010
0M00
0010
0100
0000
1000
0001
,
0000
0001
0010
0M00
0010
1000
0000
0001
0010
0M00
0010
0100
0000
0001
1000
0000
,
0001
0010
0M00
0010
1000
0000
0001
0010
0M00
0010
0100
0000
0001
1000
0000
1000
,
0010
0M00
0010
0001
0000
1000
0010
000M
0010
0100
0000
1000
0001
0000
0001
0100
,
00M0
0100
1000
0000
0001
0100
00M0
0100
0010
0000
0001
1000
0000
1000
0100
00M0
,
0100
0001
0000
0000
1000
0100
0000
0010
0001
0000
1000
0010
0000
0100
0001
0000
,
0000
1000
0100
0010
0000
0000
0000
0000
0000
0000
0000
0000
0000
0000
0000
0000
;

//--------------- dance-single - STR FS+ JA DS- ----------------
#NOTES:
     dance-single:
     STR FS+ JA DS-:
     Challenge:
     19:
     1.125172,1.257938,0.29784,0.529493,1.638118,1190,1145,45,80,30,0,12,0,0,1.125172,1.257938,0.29784,0.529493,1.638118,1190,1145,45,80,30,0,12,0,0:
0000
0000
0000
0000
,
0000
0000
0000
0000
,
0000
0000
0000
0000
,
0000
0000
0000
0000
,
0001
0000
0100
0100
2000
0000
0100
0000
3001
0000
0010
0000
0001
0000
1000
0000
,
0001
0000
0100
0100
2000
0000
0100
0000
3001
0000
0010
0000
0001
0000
1000
0000
,
0001
0000
0010
0010
2000
0000
0010
0000
3001
0000
0100
0000
0001
0000
1000
0000
,
0001
0000
0010
0010
2000
0000
0010
0000
3001
0000
0010
0000
0001
0000
1000
0000
,
0001
0100
00M0
0100
1000
0000
0001
0100
00M0
0100
1000
0000
2000
0000
0100
0000
,
3001
0010
0M00
0010
1000
0000
0001
0010
0M00
0010
1000
0000
0002
0000
0100
0000
,
1003
0100
00M0
0100
0001
0000
1000
0100
00M0
0100
0001
0000
0002
0000
0100
0000
,
1003
0000
0000
1000
0000
0000
0100
0000
0000
0100
0000
0000
0010
0000
0001
0000
,
0022
0000
0033
2002
0000
3003
2020
0000
3030
2002
0000
3003
0022
0000
0033
0000
,
0001
0000
0000
0100
0000
0000
0100
0000
0000
1000
0000
0000
0100
0000
0000
0100
0000
0000
0001
0000
0000
0100
0000
0000
0100
0000
0000
0010
0000
0000
0100
0000
0000
0100
0000
0000
0001
0000
0000
0000
0000
0000
1000
0000
0010
0000
1000
0000
,
0002
0000
0003
0202
0000
0303
2002
0000
3003
2200
0000
3300
2002
0000
3003
0000
,
1000
0100
0100
0001
0100
0100
1000
0100
0100
0010
0100
0100
2000
0000
0000
0000
,
3001
0100
0001
0100
0010
1000
0010
1000
,
0001
0010
0001
0010
0100
1000
0100
1000
,
0001
0100
0001
1000
0100
1000
0010
0100
0001
0010
0001
1000
0010
1000
0001
0000
,
4004
0000
0000
0000
0000
0000
0000
3003
,
2010
0000
0000
0000
3001
0000
0100
0100
1000
0000
0001
0010
0000
0100
0010
0000
,
1000
0010
0001
0001
1000
0000
0010
0010
0001
0000
1000
0100
00M0
0100
0001
0000
,
0012
0000
0000
0000
1003
0000
0100
0100
0001
0000
1000
0010
0000
0100
0010
0000
,
0001
0010
1000
1000
0001
0000
0010
0010
1000
0000
0100
0010
0100
0001
0100
0000
,
2100
0000
0000
0000
3001
0000
0010
0010
1000
0000
0001
0100
0000
0010
0100
0000
,
1000
0100
0001
0001
1000
0000
0100
0100
0001
0000
1000
0010
0M00
0010
0001
0000
,
0102
0000
0000
0000
1003
0000
0010
0010
0001
0000
1000
0100
0000
0010
0100
0000
,
0001
0100
1000
1000
0001
0000
0100
0100
1000
0010
0000
0100
0010
0000
0001
0010
,
2000
0000
0000
0000
3001
0000
0010
0010
1000
0000
0001
0100
0000
0010
0100
0000
,
1000
0100
0001
0001
1000
0000
0100
0100
0001
0000
0010
0100
M000
0100
0001
0000
,
0102
0000
0000
0000
1003
0000
0010
0010
0001
0000
1000
0100
0000
0010
0100
0000
,
0001
0100
1000
1000
0001
0000
0100
0100
1000
0000
0010
0100
0010
0001
0010
0000
,
2010
0000
0000
0000
3001
0000
0100
0100
1000
0000
0001
0010
0000
0100
0010
0000
,
1000
0010
0001
0001
1000
0000
0010
0010
0001
0000
0100
0010
000M
0010
0001
0000
,
0012
0000
0000
0000
1003
0000
0100
0100
0001
0000
1000
0010
0000
0100
0010
0000
,
0002
0000
0003
0220
0000
0330
1002
0000
0000
0000
0000
0003
0040
0000
0030
0000
,
0001
0000
0010
0100
1000
0010
1000
0001
0010
0100
1000
0100
0010
0001
1000
0010
,
0100
0001
0010
0100
1000
0100
0010
0001
1000
0010
0100
0001
1000
0100
0010
0001
,
1000
0001
0100
0010
1000
0001
0010
0100
1000
0010
1000
0001
0010
0001
1000
0010
,
1000
0001
0010
0100
0010
0001
1000
0001
0010
0001
1000
0010
0100
0001
1000
0100
,
0010
0001
1000
0010
0100
0001
0010
0001
1000
0100
0010
0001
0100
0010
1000
0001
,
0010
0100
1000
0100
0010
0001
1000
0010
0100
0001
0010
0100
1000
0100
0010
0001
,
1000
0010
0100
0001
1000
0100
1000
0001
0100
0010
1000
0001
0010
0001
1000
0100
,
0010
0001
1000
0100
0010
0100
1000
0000
0001
0100
0000
0010
1000
0000
0001
0010
,
0000
0001
0100
0010
0000
0000
0000
0000
0000
0000
0000
0000
0000
0000
0000
0000
,
0000
0000
0000
0000
,
0000
0000
0000
0000
,
0000
0000
0000
0000
,
0000
0000
0000
0000
,
0000
0000
0000
0000
,
0000
0000
0000
0000
,
0000
2000
0000
3001
,
0000
0020
0000
0030
,
0000
0200
0000
0300
,
0000
2000
0000
3000
,
0000
0000
0000
0000
0001
0000
0000
0001
0000
0000
0001
0000
0100
0010
0000
0000
,
1000
0000
0000
0000
0100
0000
0000
1000
0000
0000
0100
0000
0000
1000
0000
0000
,
0100
0000
0000
0000
0010
0000
0000
0001
0000
0000
0010
0000
0000
0001
0000
0000
,
1000
0000
0000
0000
1100
0000
0000
0100
0000
0000
0010
0000
0000
0001
0000
0000
,
1000
0000
0001
0000
2001
0000
3000
0002
0000
0003
0200
0000
0300
0020
0000
0030
,
2000
0000
3000
0000
1001
0000
0000
0101
0000
0000
0011
0000
0000
0110
0000
0000
,
1100
0000
0000
1000
0002
0000
0003
0020
0000
0030
0200
0000
0300
2000
0000
3000
,
0002
0000
0003
0000
1001
0000
0000
1010
0000
0000
0110
0000
0000
0101
0000
0000
,
1001
0000
0000
0000
0120
0000
0000
2030
0000
0000
3200
0000
0000
0320
0000
0000
,
0032
0000
0003
0000
2001
0000
0000
3020
0000
0000
0230
0000
0000
0302
0000
0000
,
2003
0000
0000
0000
3001
0010
0001
1000
0010
1000
0001
0100
0010
1000
0001
1000
,
0100
0010
0001
1000
0004
0000
0000
0000
0000
0000
0000
0000
0003
0000
0000
0000
,
0000
0000
1000
0000
1002
0000
0000
0000
1003
0001
1000
0010
0M00
0010
0001
1000
,
0100
1000
0001
0100
00M0
0100
1000
0001
0100
0001
1000
0010
0M00
0010
0001
1000
,
0010
0100
0001
1000
0400
0000
0000
0000
0310
0001
1000
0010
0M00
0010
0001
1000
,
0010
1000
0001
0100
00M0
0100
1000
0010
0100
0001
0010
0001
1000
0100
0010
0001
,
0100
0001
1000
0100
0040
0000
0000
0000
0031
1000
0001
0010
0M00
0010
1000
0010
,
0100
0001
1000
0100
00M0
0100
0001
1000
0100
0010
0001
0010
0M00
0010
1000
0001
,
0010
0000
0100
0000
4100
0000
0000
0000
3001
0100
0010
0100
00M0
0100
1000
0001
,
1000
0010
0100
0010
0M00
0010
0001
1000
0001
0010
0100
1000
0001
0100
0000
0001
,
0020
0000
0031
0000
4001
0000
0000
0000
3001
0100
0010
1000
0001
1000
0100
0100
,
0001
0010
0100
1000
0001
1000
0010
0010
0001
1000
0010
0100
0001
1000
0100
0100
,
0001
1000
0100
0010
0001
1000
0010
0010
0001
1000
0010
0100
0001
1000
0100
0100
,
0001
1000
0001
0010
0100
1000
0010
0010
0001
1000
0010
1000
0001
0100
0000
0010
,
1000
0100
0010
0001
0400
0000
0000
0000
0301
1000
0010
0010
0001
1000
0010
0100
,
0001
1000
0100
0100
0001
1000
0100
0010
0001
1000
0010
0010
0001
1000
0100
0100
,
0001
0010
0100
1000
0001
1000
0100
0100
0001
1000
0010
0010
0001
0100
0010
0010
,
0001
1000
0100
0100
0010
0000
0000
0110
0000
0000
0102
0000
0000
0000
0000
0000
,
1003
0010
0100
0000
0102
0000
0000
0000
1003
0100
0010
0000
0001
1000
0001
0010
,
0001
1000
0100
0000
1000
0001
1000
0010
1000
0001
0100
0000
0001
0000
0010
0100
,
2000
0000
3010
0100
0004
0000
0000
0000
1003
0000
0001
0100
0001
0010
0100
1000
,
0002
0000
0000
0000
0100
0000
0000
0000
2003
0000
0000
0000
0100
0000
0000
0000
3001
0000
0010
0000
0001
0000
0010
0000
0100
0000
0000
0000
1000
0000
0100
00M0
,
0100
0001
1000
0000
1002
0000
0000
0000
1003
0000
0001
0000
1000
0100
1000
0010
,
0100
0000
0001
0000
1000
0000
0000
0000
0002
0000
0000
0000
1003
0000
0010
0000
1000
0000
0010
0000
0100
0000
0001
0000
0020
0000
0000
0000
0130
M000
0100
0000
,
0001
0010
0100
0000
1002
0000
0000
0000
1003
0100
1000
0001
0010
0100
1000
0010
,
2000
0000
0100
0000
3002
0000
0100
0000
1003
0000
0100
1000
0001
0000
0000
1001
,
0000
0000
0110
0000
2002
0000
3003
0000
1000
0000
0001
0010
0100
1000
0100
1000
,
0001
0100
0010
1000
0001
0010
0001
0010
0100
1000
0001
0100
0010
1000
0001
0010
,
0100
1000
0010
1000
0001
0100
0010
0100
0001
1000
0100
0010
0001
1000
0010
0100
,
0001
0010
0001
0010
0100
1000
0001
0100
0001
0010
0100
1000
0001
0100
0001
1000
,
0100
1000
0001
0010
0400
0000
0000
0000
0310
0001
1000
0001
0100
0010
1000
0010
,
1000
0100
0010
0001
1000
0010
0100
0001
1000
0010
1000
0100
1000
0001
0100
0001
,
1000
0100
0010
0001
1000
0010
0100
0001
1000
0100
1000
0001
1000
0010
1000
0100
,
1000
0010
1000
0100
0010
0000
0000
1001
0000
0000
2000
0000
0000
0000
0000
0000
,
3040
0000
0000
0000
1030
0000
0001
1000
0001
0100
00M0
0100
1000
0000
0001
0010
,
0001
1000
0010
1000
0100
0010
0001
0000
1000
0010
0M00
0010
0001
0000
1000
0010
,
0100
0001
0010
0100
1000
0001
1000
0000
0010
0100
00M0
0100
1000
0000
0001
0010
,
0100
1000
0010
0100
0001
0010
0001
0000
0100
0010
0M00
0010
0001
0000
1000
0010
,
1000
0100
0010
0001
1000
0010
1000
0000
0001
0100
00M0
0100
1000
0000
0001
0010
,
0100
1000
0010
0100
0001
1000
0100
0000
1000
0010
000M
0010
0100
0000
1000
0001
,
0010
0100
1000
0001
0100
0001
1000
0000
0001
0010
0M00
0010
1000
0000
0001
0010
,
0100
1000
0001
0100
0010
1000
0100
0000
1000
0100
00M0
0100
0010
0000
1000
0001
,
0100
0010
2000
3000
0001
0010
0001
1000
0010
0100
0001
0100
0010
1000
0001
0010
,
0100
1000
0010
0100
0001
0100
0010
1000
0001
0010
0100
1000
0001
0100
0010
1000
,
0001
1000
0100
0010
0001
1000
0010
0100
0001
0010
0001
1000
0010
1000
0001
0010
,
0001
1000
0010
0100
0010
1000
0001
1000
0010
1000
0001
0010
0100
1000
0001
0100
,
0010
1000
0001
0010
0100
1000
0010
1000
0001
0100
0010
1000
0100
0010
0001
1000
,
0010
0100
0001
0100
0010
1000
0001
0010
0100
1000
0010
0100
0001
0100
0010
1000
,
0001
0010
0100
1000
0001
0100
0001
1000
0100
0010
0001
1000
0010
1000
0001
0100
,
0010
1000
0001
0100
0010
0100
0001
0000
1000
0100
0000
0010
0001
0000
1000
0010
,
0000
1000
0100
0010
0000
0000
0000
0000
0000
0000
0000
0000
0000
0000
0000
0000
;
