#TITLE:Struggle;
#SUBTITLE:;
#ARTIST:Masayoshi Minoshima(ALR);
#TITLETRANSLIT:;
#SUBTITLETRANSLIT:;
#ARTISTTRANSLIT:;
#GENRE:;
#CREDIT:;
#BANNER:Struggle.png;
#BACKGROUND:Struggle-bg.png;
#LYRICSPATH:;
#CDTITLE:;
#MUSIC:Struggle.ogg;
#OFFSET:0.000000;
#SAMPLESTART:67.432610;
#SAMPLELENGTH:15.000000;
#SELECTABLE:YES;
#DISPLAYBPM:180.000000;
#BPMS:0.000000=179.996002
;
#STOPS:
;
#BGCHANGES:;
#KEYSOUNDS:;
#ATTACKS:;

//---------------dance-single - ----------------
#NOTES:
     dance-single:
     :
     Hard:
     16:
     0.788903,0.884168,0.460193,0.392017,0.404800,648.000000,594.000000,54.000000,46.000000,0.000000,0.000000,0.788903,0.884168,0.460193,0.392017,0.404800,648.000000,594.000000,54.000000,46.000000,0.000000,0.000000:
// measure 0
0000
0000
0000
0000
,  // measure 1
0000
0000
0000
0000
,  // measure 2
0000
0000
0000
0000
,  // measure 3
0001
0000
0100
0000
0010
0000
0100
0000
0001
0000
0100
0000
0010
1000
0001
0000
,  // measure 4
0000
0000
0010
0000
0000
0000
0001
1000
0001
0000
0020
0000
0100
0000
0130
0000
,  // measure 5
1000
0000
0100
0000
0010
0000
0100
0000
1000
0000
0100
0000
0010
0001
1000
0000
,  // measure 6
0000
0000
0010
0000
0000
0000
1000
0001
1000
0000
0020
0000
0100
0000
0130
0000
,  // measure 7
0001
0000
0100
0000
0010
0000
0100
0000
0001
0000
0100
0000
0010
1000
0001
0000
,  // measure 8
0000
0000
0010
0000
0000
0000
0001
1000
0001
0000
0010
0000
0100
0000
0010
0000
,  // measure 9
0002
0000
2003
0000
3010
0100
0000
0110
,  // measure 10
0000
1001
0000
0001
0010
0100
2000
0000
,  // measure 11
3001
0000
0100
0000
0010
0000
1000
0000
0001
0000
0100
0000
0010
1000
0001
0000
,  // measure 12
0000
0000
0011
0000
0000
0000
0001
0010
0100
0000
0010
0001
1000
0000
0010
0000
,  // measure 13
1000
0000
0100
0000
0010
0000
0001
0000
1000
0000
0100
0000
0010
0001
1000
0000
,  // measure 14
0000
0000
1010
0000
0000
0000
1000
0010
0100
0000
0010
1000
0001
1000
0001
0000
,  // measure 15
1000
0000
0010
0000
0100
0000
0001
0000
1000
0000
0010
0000
0100
0001
1000
0000
,  // measure 16
0000
0000
1100
0000
0000
0000
1000
0100
0010
0000
0100
0000
1000
0000
0001
0000
,  // measure 17
0200
0000
0320
0000
1030
0001
0000
0110
,  // measure 18
0000
0000
1001
0000
0000
0000
0001
0000
0010
0000
0100
0000
1000
0001
1000
0001
,  // measure 19
2000
0000
3020
0100
0000
1000
0000
0230
,  // measure 20
0010
0010
0302
2003
,  // measure 21
3002
0000
0023
0100
0000
0001
0000
0230
,  // measure 22
0010
0010
2300
3002
,  // measure 23
0203
0000
0320
0100
0000
0001
0000
0230
,  // measure 24
0010
0010
0302
2003
,  // measure 25
3200
0000
0320
0100
0000
1000
0000
0230
,  // measure 26
0010
0010
2300
3001
,  // measure 27
1100
1100
0101
0000
1000
0010
0100
0001
,  // measure 28
0010
0000
0010
0000
0001
0000
1000
0000
0010
0000
0100
0000
0010
0000
1000
0001
,  // measure 29
0010
0000
0100
1000
0001
0010
0100
1000
,  // measure 30
0010
0000
0010
0000
1000
0000
0001
0000
0010
0000
0100
0000
0010
0000
0001
1000
,  // measure 31
0010
0000
0100
0010
0001
0010
0100
0010
,  // measure 32
1000
0000
1000
0000
0001
0000
0010
0000
0100
0000
1000
0000
0010
0000
1000
0001
,  // measure 33
0010
0000
0100
0010
1000
0010
0100
0010
,  // measure 34
0001
0000
0100
0000
1000
0000
0100
0000
0001
0100
0001
0100
0010
1000
0010
1000
,  // measure 35
0020
0000
0100
0000
0031
0010
1000
0001
,  // measure 36
0020
0000
0000
0100
0200
0000
0330
0000
,  // measure 37
1000
0000
0001
0020
0000
0130
0010
2000
,  // measure 38
0000
3010
0100
0010
0001
0001
1000
0001
,  // measure 39
0200
0000
0010
0000
1300
0100
0001
1000
,  // measure 40
0200
0000
0000
0010
0020
0000
0330
0000
,  // measure 41
0002
0000
1003
0020
0000
0130
0010
0001
,  // measure 42
0010
1000
0001
0010
0100
0010
0001
1000
0010
0100
0000
0000
,  // measure 43
0101
0000
0110
0000
1010
1000
0001
0010
,  // measure 44
0210
0000
0310
0001
1002
0000
0103
0000
,  // measure 45
1010
0000
1001
0001
0010
0100
1000
0100
,  // measure 46
0001
0100
0010
0001
0100
0010
1000
0001
,  // measure 47
1000
1000
0010
0010
0100
0100
0001
1000
,  // measure 48
0001
0001
0010
0010
0100
0100
1000
0001
,  // measure 49
2002
0000
0000
0000
0000
3003
0000
1000
,  // measure 50
0001
0010
0100
0000
1000
0001
0100
0000
0010
1000
0010
1000
0001
0010
0100
0010
,  // measure 51
0001
0000
1100
0000
0101
0000
1010
1001
,  // measure 52
0000
0000
0001
0000
0010
0000
0110
0000
0000
0000
0001
0000
1000
0100
1000
0100
,  // measure 53
1000
0000
0001
1000
0010
0000
0100
0010
1000
0000
0001
0010
0100
0000
0010
0000
,  // measure 54
0001
0000
1000
0001
0100
0000
0010
1000
0001
0000
0010
0001
1000
0010
0100
0010
,  // measure 55
1000
0000
0101
0000
1100
0000
0011
1001
,  // measure 56
0000
0000
1000
0000
0010
0000
0110
0000
0000
0000
0001
0000
1000
0001
1000
0001
,  // measure 57
0010
0000
0100
0000
0110
0000
0100
1000
,  // measure 58
0000
0000
0001
0000
0100
0000
0010
0000
0100
0001
0100
0001
1000
0100
1000
0100
,  // measure 59
0010
0000
0001
1000
0010
0000
0100
0001
1000
0000
0100
0010
0001
0000
1000
0000
,  // measure 60
0000
0001
0100
0010
0000
0100
0001
1000
,  // measure 61
0100
0000
0010
0100
1000
0000
0001
1000
0010
0000
0100
0001
1000
0000
0100
0000
,  // measure 62
0010
0100
0010
0000
0001
0000
0100
0000
0001
0010
0100
1000
0001
0000
0100
0000
,  // measure 63
0102
1003
2100
3001
,  // measure 64
0012
1003
2010
3001
,  // measure 65
0101
0101
1001
1001
,  // measure 66
1000
0001
0010
0000
0100
1000
0001
0000
0100
0010
1000
0000
0100
1000
0001
0000
,  // measure 67
0010
0000
0001
1000
0010
0000
1000
0001
0010
0000
0001
1000
0010
0000
0100
0000
,  // measure 68
0000
0000
0110
0000
0000
0000
1000
0001
0010
0000
0100
0010
0001
0000
0100
0000
,  // measure 69
0010
0000
1000
0001
0010
0000
0001
1000
0010
0000
1000
0001
0010
0000
0100
0000
,  // measure 70
0000
0000
0110
0000
0000
0000
0001
1000
0010
0000
0100
0001
1000
0000
0001
0000
,  // measure 71
0010
0000
0001
1000
0100
0000
1000
0001
0100
0000
0010
1000
0001
0000
0010
0000
,  // measure 72
0000
0000
0110
0000
0000
0000
1000
0001
0010
0000
0100
0010
0001
0000
1000
0000
,  // measure 73
1010
0000
0110
0000
1000
0001
0000
1100
,  // measure 74
0000
0101
0000
0001
0010
0100
2000
0000
,  // measure 75
3001
0000
1000
0100
0010
0000
0001
0100
0010
0000
1000
0001
0010
0000
0110
0000
,  // measure 76
0000
0000
1100
0000
0000
0000
0001
0100
0010
0000
1000
0001
0010
0000
0100
0000
,  // measure 77
1000
0000
0001
0010
0100
0000
1000
0010
0100
0000
0001
1000
0100
0000
0110
0000
,  // measure 78
0000
0000
0011
0000
0000
0000
1000
0001
0100
0000
0010
1000
0001
0000
1000
0000
,  // measure 79
0100
0000
1000
0010
0100
0000
0001
0010
0100
0000
1000
0001
0100
0000
0110
0000
,  // measure 80
0000
0000
1010
0000
0000
0000
0001
1000
0100
0000
0010
0100
1000
0000
0010
0000
,  // measure 81
0110
0000
0101
0000
1000
0100
0000
0101
,  // measure 82
0000
0011
0000
0001
0010
0100
2000
0000
,  // measure 83
3001
0000
0000
0000
;

//---------------dance-single - ----------------
#NOTES:
     dance-single:
     :
     Medium:
     12:
     0.534457,0.601234,0.298273,0.230097,0.000000,439.000000,404.000000,35.000000,27.000000,0.000000,0.000000,0.534457,0.601234,0.298273,0.230097,0.000000,439.000000,404.000000,35.000000,27.000000,0.000000,0.000000:
// measure 0
0000
0000
0000
0000
,  // measure 1
0000
0000
0000
0000
,  // measure 2
0000
0000
0000
0000
,  // measure 3
1000
0000
0100
0000
0010
0000
0100
1000
,  // measure 4
0000
0001
0000
0100
0001
0100
0001
0000
,  // measure 5
1000
0000
0010
0000
0100
0000
0010
1000
,  // measure 6
0000
0001
0000
0010
0001
0010
0001
1000
,  // measure 7
0001
0000
0100
0000
0010
0000
0100
0001
,  // measure 8
0000
1000
0000
0100
1000
0100
1000
0000
,  // measure 9
0002
0000
0203
0000
1300
0100
0000
0001
,  // measure 10
0000
1000
0000
0001
0010
0100
1000
0000
,  // measure 11
0001
0000
0010
0000
1000
0000
0010
0001
,  // measure 12
0000
0001
0000
1000
0001
1000
0010
0000
,  // measure 13
1000
0000
0010
0000
0001
0000
0010
1000
,  // measure 14
0000
1000
0000
0001
1000
0100
0010
0001
,  // measure 15
1000
0000
0100
0000
0001
0000
0100
1000
,  // measure 16
0000
1000
0000
0001
1000
0010
0100
0001
,  // measure 17
2000
0000
3200
0000
0301
0100
0000
1000
,  // measure 18
0000
0001
0000
1000
0010
0100
0001
0000
,  // measure 19
2000
0010
0001
0100
,  // measure 20
0001
0001
0010
3001
,  // measure 21
0002
0010
1000
0100
,  // measure 22
1000
0000
1000
0000
0010
0000
1003
0100
,  // measure 23
2000
0010
0100
0001
,  // measure 24
0100
0100
3010
0100
,  // measure 25
0002
1000
0100
0010
,  // measure 26
0100
0100
0013
0100
,  // measure 27
1000
0001
1001
0000
0001
0000
0100
0000
,  // measure 28
1000
0000
0100
0000
0010
0000
1000
0001
,  // measure 29
0010
0000
0001
0000
1000
0000
0100
0010
,  // measure 30
0001
0000
1000
0001
0010
0000
0001
1000
,  // measure 31
0010
1000
0001
0010
,  // measure 32
1000
0000
0010
0000
0100
0000
1000
0001
,  // measure 33
0100
0001
1000
0010
,  // measure 34
0110
0101
1001
0011
,  // measure 35
0110
0000
0000
0100
1000
0000
0000
0001
,  // measure 36
1000
0000
1000
0000
0001
0100
0000
0000
,  // measure 37
0110
0000
0000
0100
0001
0000
0000
0001
,  // measure 38
1000
0000
1000
0000
0100
0010
0000
0100
,  // measure 39
0110
0000
0000
1000
0001
0000
0000
0100
,  // measure 40
0010
0000
0010
0000
1000
0001
0000
0000
,  // measure 41
0101
0000
0000
1000
0001
0000
0000
0010
,  // measure 42
0200
2300
3002
0103
,  // measure 43
1010
1010
1001
1100
,  // measure 44
0011
0011
1001
0000
,  // measure 45
0011
0011
1001
0101
,  // measure 46
1010
1010
1001
0000
,  // measure 47
1000
0100
0010
0000
0100
0010
0001
0000
,  // measure 48
0010
0001
1000
0000
0010
1000
0001
0000
,  // measure 49
2002
0000
0000
3003
,  // measure 50
0001
0100
1000
0100
0001
1000
0001
0000
,  // measure 51
0011
0000
0110
0000
1100
0000
1000
0001
,  // measure 52
0000
0001
0100
0010
0000
1000
0001
1000
,  // measure 53
0002
0000
0023
0000
2030
0000
3010
0100
,  // measure 54
0000
1000
0001
1000
0000
0010
0100
0010
,  // measure 55
1010
0000
0110
0000
0101
0000
0001
1000
,  // measure 56
0000
1000
0100
0010
0000
0001
1000
0001
,  // measure 57
2000
0000
3200
0000
0302
0000
0103
0010
,  // measure 58
0000
0001
1000
0001
0000
1000
0010
0000
,  // measure 59
1000
0100
1000
0100
0010
0001
0010
0001
,  // measure 60
0000
1000
0001
1000
0000
0001
0100
0000
,  // measure 61
0001
0100
0001
0100
0010
1000
0010
1000
,  // measure 62
0000
0001
1000
0001
0000
0010
0100
0000
,  // measure 63
2100
0000
3020
0000
,  // measure 64
0230
0000
0302
0000
,  // measure 65
1003
1000
0100
0100
,  // measure 66
0010
0001
0100
0001
0010
0001
0100
0000
,  // measure 67
0001
0100
0010
0000
0100
0001
1000
0100
,  // measure 68
0000
0010
0000
0100
0010
0001
1000
0000
,  // measure 69
1000
0100
0010
0000
0100
1000
0001
0100
,  // measure 70
0000
0010
0000
0100
0010
1000
0001
0000
,  // measure 71
0001
0010
0100
0000
0010
0001
1000
0010
,  // measure 72
0000
0100
0000
0010
1000
0001
0100
0001
,  // measure 73
2000
0000
3200
0000
0301
0100
0000
0010
,  // measure 74
0000
0001
0000
0100
0010
1000
0001
0000
,  // measure 75
1000
0010
0100
0010
1000
0010
0100
0001
,  // measure 76
0000
0101
0000
0001
1000
0001
0010
0000
,  // measure 77
0001
0010
0100
0010
0001
0010
0100
1000
,  // measure 78
0000
1100
0000
0001
1000
0010
0100
0010
,  // measure 79
1000
0100
0010
0100
1000
0100
0001
0100
,  // measure 80
0000
0110
0000
0010
0001
1000
0010
0100
,  // measure 81
0002
0000
0023
0000
1030
0010
0000
0100
,  // measure 82
0000
1000
0000
0001
0100
0010
1000
0000
,  // measure 83
1001
0000
0000
0000
;
