#VERSION:0.83;
#TITLE:Struggle to Survive;
#SUBTITLE:;
#ARTIST:Fear and Loathing in Las Vegas;
#TITLETRANSLIT:;
#SUBTITLETRANSLIT:;
#ARTISTTRANSLIT:;
#GENRE:;
#ORIGIN:;
#CREDIT:MUINELIM;
#BANNER:Struggle to Survive.png;
#BACKGROUND:Struggle to Survive-bg.png;
#PREVIEWVID:;
#JACKET:Struggle to Survive-jacket.png;
#CDIMAGE:;
#DISCIMAGE:;
#LYRICSPATH:;
#CDTITLE:;
#MUSIC:Struggle to Survive.ogg;
#OFFSET:-0.020000;
#SAMPLESTART:21.234287;
#SAMPLELENGTH:15.368568;
#SELECTABLE:YES;
#DISPLAYBPM:*;
#BPMS:0.000=280.000,
92.000=140.000,
94.000=560.000,
96.000=280.000,
193.000=70.000,
209.000=140.000,
241.000=205.000,
245.000=1640.000,
249.000=205.000,
254.000=410.000,
318.000=205.000,
342.000=410.000,
397.000=280.000,
399.000=220.000,
401.000=150.000,
402.000=130.000,
403.000=75.000,
404.000=37.500;
#STOPS:94.000=0.054,
94.500=0.054,
95.000=0.054,
95.500=0.054,
96.000=0.214,
249.000=0.732,
397.000=0.214,
398.000=0.214,
399.000=0.273,
400.000=0.273,
401.000=0.400,
402.000=0.462,
403.000=0.800;
#DELAYS:;
#WARPS:;
#TIMESIGNATURES:0.000=4=4;
#TICKCOUNTS:0.000=4;
#COMBOS:0.000=1;
#SPEEDS:0.000=1.000=0.000=0;
#SCROLLS:0.000=1.000;
#FAKES:;
#LABELS:0.000=Song Start;
#BGCHANGES:;
#KEYSOUNDS:;
#ATTACKS: TIME=0.00:LEN=0.00:MODS=Overhead, Cyber_note,sudden;

//---------------dance-single - ----------------
#NOTEDATA:;
#CHARTNAME:;
#STEPSTYPE:dance-single;
#DESCRIPTION:;
#CHARTSTYLE:;
#DIFFICULTY:Beginner;
#METER:8;
#RADARVALUES:0.237741,0.609588,0.064361,0.110333,0.000000,181.000000,174.000000,7.000000,12.000000,0.000000,0.000000,0.000000,0.000000,0.000000,0.237741,0.609588,0.064361,0.110333,0.000000,181.000000,174.000000,7.000000,12.000000,0.000000,0.000000,0.000000,0.000000,0.000000;
#CREDIT:MILEN;
#ATTACKS:;
#DISPLAYBPM:*;
#NOTES:
0000
0000
0000
0000
,
0000
0000
0000
0000
,
0000
0000
0000
0000
,
0000
0000
0000
0000
,
0000
0000
0000
0000
,
0000
0000
0000
0000
,
0000
0000
0000
0000
,
0000
0000
0000
0000
,
0000
0000
0000
0000
,
1000
0000
0000
0000
,
1000
0000
0000
0000
,
0001
0000
0000
0000
,
0001
0000
0000
0000
,
1000
0000
0000
0000
,
0001
0000
0000
0000
,
1000
0000
1000
0000
,
1000
0000
1000
0000
,
0001
0000
0000
0000
,
0100
0000
0000
0000
,
0010
0000
0000
0000
,
1000
0000
0000
0000
,
0001
0000
0000
0000
,
0100
0000
0000
0000
,
0020
0000
0000
0000
,
0030
0010
0000
0100
,
0000
0010
0000
0000
,
0000
0100
0000
0001
,
0000
0100
0000
0000
,
0000
0010
0000
1000
,
0000
0010
0000
0000
,
0000
1000
0000
0001
,
0000
1000
0000
0100
,
0000
0010
0000
0001
,
0000
0010
0000
0000
,
0000
0100
0000
1000
,
0000
0100
0000
0000
,
0000
1000
0000
0001
,
0000
1000
0000
0010
,
0000
0100
0000
0010
,
0000
1000
0000
0001
,
0000
0200
0000
0000
,
0000
0000
0000
0000
,
0300
0000
0100
0000
,
0100
0000
0010
0000
,
0010
0000
0010
0010
,
0000
1000
0000
0001
,
0000
0010
0000
0100
,
0000
1000
0000
0001
,
0000
0000
1001
0000
1000
0000
0010
0010
,
0010
0100
0000
0010
1000
0000
0010
0000
,
0110
0000
0000
0100
0100
0000
0001
0001
,
0001
1000
0000
0001
0010
0000
0001
0001
,
0100
0110
0010
1000
,
0000
0010
1000
0100
,
0000
2000
3000
0002
,
0003
1000
0100
0010
,
0001
0001
0001
0000
0100
0000
0010
0000
,
0000
0110
0100
0001
,
1000
0020
0030
0200
,
0300
0001
0010
0100
,
1000
1000
2000
0000
0000
0000
0000
0000
,
0000
3000
0000
0000
,
0000
0000
0002
0000
,
0000
0003
0001
0000
,
0001
0000
0001
0000
,
0000
0000
0100
0000
,
0100
0000
0100
0000
,
0000
0000
0010
0000
,
0010
0000
0010
0000
,
0000
0000
1000
0000
,
1000
0000
1000
0000
,
0000
0000
0100
0000
,
0100
0000
0010
0000
,
0000
0000
0001
0000
,
0001
0000
1000
0000
,
0000
0000
0010
0000
,
0010
0000
0100
0000
,
0100
0000
0001
0000
,
1000
0000
0001
0000
,
1000
0000
2002
0000
,
3003
0000
0001
0000
,
1000
0000
0010
0100
,
0010
0000
1010
0000
,
0101
0000
0000
0000
0001
0000
0000
1000
,
0000
0001
0010
0100
,
1000
0001
1000
0000
,
0010
0000
0010
0000
,
0000
0000
0001
0000
,
0010
0000
0010
0000
,
0000
0000
1000
0000
,
0100
0000
0100
0000
,
0000
0000
0001
0000
,
0100
0000
0100
0000
,
0000
0000
1000
0000
,
0010
0000
0010
0000
,
0001
0000
0100
0000
,
0100
0000
1000
0000
,
0001
0000
1000
0000
,
0010
0000
0100
0000
,
0001
0002
0000
0000
,
0000
0000
0000
0000
,
2000
0000
0000
0000
,
3003
0000
0000
0000
;

//---------------dance-single - ----------------
#NOTEDATA:;
#CHARTNAME:;
#STEPSTYPE:dance-single;
#DESCRIPTION:;
#CHARTSTYLE:;
#DIFFICULTY:Easy;
#METER:11;
#RADARVALUES:0.374343,0.750262,0.211471,0.211471,0.000000,285.000000,262.000000,23.000000,23.000000,0.000000,0.000000,0.000000,0.000000,0.000000,0.374343,0.750262,0.211471,0.211471,0.000000,285.000000,262.000000,23.000000,23.000000,0.000000,0.000000,0.000000,0.000000,0.000000;
#CREDIT:MILEN;
#ATTACKS:;
#DISPLAYBPM:*;
#NOTES:
0000
0000
0000
0000
,
0000
0000
0000
0000
,
0000
0000
0000
0000
,
0000
0000
0000
0000
,
0000
0000
0000
0000
,
0000
0000
0000
0000
,
0000
0000
0000
0000
,
0000
0000
0000
0000
,
0000
0000
0000
0000
,
1000
0000
0010
0000
,
1000
0000
0010
0000
,
0100
0000
0001
0000
,
0100
0000
0001
0000
,
0010
0000
0010
0000
,
0100
0000
0100
0000
,
1000
0000
0001
0000
,
0100
0010
0100
0010
,
0110
0000
0100
0000
,
0110
0000
0010
0000
,
1000
0001
0100
0010
,
1000
0000
0001
0000
,
1001
0000
1000
0000
,
1001
0000
0001
0000
,
2002
0000
0000
0000
,
3003
1000
0000
0010
,
0000
0100
0010
0100
,
0000
0001
0000
0010
,
0000
0200
0000
0300
,
0000
1000
0000
0100
,
0000
0020
0000
0030
,
0000
0001
0000
1000
,
0000
0001
1000
1001
,
0000
0001
0000
0010
,
0000
0100
0010
0100
,
0000
1000
0000
0010
,
0000
0100
0010
0100
,
0000
0001
0000
0001
,
0000
0010
0000
0010
,
0000
1000
0010
0001
,
0010
0001
0010
0100
,
1000
0200
0000
0000
,
0000
0000
0000
0000
,
0300
0000
0100
0000
,
1100
0000
1000
0000
,
1001
0000
0001
0001
,
0000
0000
0100
0000
0000
0100
0000
0000
,
0100
0101
0000
0001
,
0000
1001
0000
1000
,
0000
0000
0010
0100
0001
0000
0100
0010
,
1000
1000
0001
0100
0110
0000
0010
0010
,
0010
0000
1001
1000
0100
0000
1000
0010
,
0100
0100
0000
0001
0010
0000
0100
0010
,
0200
1300
0010
0001
,
0010
0010
0000
1000
0100
0100
0010
0000
,
0100
1100
0010
0011
,
0001
0000
0100
0010
0100
0100
0000
0001
,
1000
0001
0001
0000
0010
0000
1000
0000
,
0010
0010
0000
0001
0100
0100
0010
0000
,
0100
0101
0010
1010
,
1000
0000
0010
0100
0010
0010
0000
1000
,
0001
1000
2002
0000
0000
0000
0000
0000
,
0000
3003
0000
0000
,
0000
0000
0001
0001
,
1000
1000
0010
0000
,
1000
0000
0100
0000
,
1000
0000
0001
0000
,
0010
0000
0001
0000
,
1000
0000
0010
0000
,
0100
0000
0001
0000
,
0100
0000
0010
0000
,
1000
0000
0010
0000
,
0100
0000
0001
0000
,
0010
0000
1000
0000
,
0010
0000
0001
0000
,
0100
0010
0000
0010
,
0100
0000
0110
0000
,
0110
0000
1001
0000
,
1001
0000
1000
0001
,
1000
0001
0010
0100
,
0010
0100
2000
0010
,
3001
0000
0002
0100
,
1003
0000
2000
0010
,
3002
0000
0023
0000
,
0230
0000
0000
0000
1300
0000
1000
0010
,
0000
0001
0010
0010
0100
0000
0010
0000
,
1000
0001
1001
0000
,
1000
0000
0010
0100
,
0000
0100
0001
0000
,
0001
1000
0000
1000
,
0010
0000
0100
0000
,
0010
0000
1000
0000
,
0001
0002
0000
0103
,
0010
1000
0010
0100
,
0010
1000
1001
0000
,
0001
0000
0010
0100
,
0000
0100
1000
0000
,
1000
0010
0000
0010
,
0100
0000
0100
0001
,
0010
0001
0100
0001
,
1000
0002
2003
3002
,
2003
3002
2003
3002
,
2000
0000
0000
0000
,
3003
0000
0000
0000
;

//---------------dance-double - ----------------
#NOTEDATA:;
#CHARTNAME:;
#STEPSTYPE:dance-double;
#DESCRIPTION:;
#CHARTSTYLE:;
#DIFFICULTY:Easy;
#METER:11;
#RADARVALUES:0.333625,0.703371,0.147110,0.156305,0.000000,254.000000,238.000000,16.000000,17.000000,0.000000,0.000000,0.000000,0.000000,0.000000,0.333625,0.703371,0.147110,0.156305,0.000000,254.000000,238.000000,16.000000,17.000000,0.000000,0.000000,0.000000,0.000000,0.000000;
#CREDIT:MILEN;
#ATTACKS:;
#DISPLAYBPM:*;
#NOTES:
00000000
00000000
00000000
00000000
,
00000000
00000000
00000000
00000000
,
00000000
00000000
00000000
00000000
,
00000000
00000000
00000000
00000000
,
00000000
00000000
00000000
00000000
,
00000000
00000000
00000000
00000000
,
00000000
00000000
00000000
00000000
,
00000000
00000000
00000000
00000000
,
00000000
00000000
00000000
00000000
,
01000000
00000000
00001000
00000000
,
00010000
00000000
00001000
00000000
,
00000100
00000000
00001000
00000000
,
00010000
00000000
00010000
00000000
,
00000010
00000000
00010000
00000000
,
00001000
00000000
00010000
00000000
,
00100000
00000000
00010000
00000000
,
00010000
00001000
00010000
00001000
,
00100000
00000000
00001000
00000000
,
00010000
00000000
00000100
00000000
,
00010000
00001000
00010000
00001000
,
00010000
00000000
00000010
00000000
,
00010000
00000000
00001000
00000000
,
01000000
00000000
00001000
00000000
,
00022000
00000000
00000000
00000000
,
00033000
00010000
00000000
00000100
,
00000000
00000010
00000000
00000001
,
00000000
00000100
00000000
00001000
,
00000000
00020000
00000000
00030000
,
00000000
00001000
00000000
00010000
,
00000000
02000000
00000000
03000000
,
00000000
10000000
00000000
00100000
,
00000000
00010000
00001000
00010000
,
00000000
00001000
00000000
00100000
,
00000000
01000000
00000000
10000000
,
00000000
00100000
00000000
00010000
,
00000000
00001000
00000000
00100000
,
00000000
01000000
00000000
10000000
,
00000000
00100000
00000000
00010000
,
00000000
00001000
00010000
00001000
,
00010000
00000100
00001000
00000100
,
00000010
00000002
00000000
00000000
,
00000000
00000000
00000000
00000000
,
00000003
00000000
00000101
00000000
,
00000110
00000000
00001010
00000000
,
00001100
00000000
00000100
00010000
,
00000000
00000000
00001000
00000000
00000000
00001000
00000000
00000000
,
00001000
00010000
00000000
01000000
,
00000000
10000000
00000000
00100000
,
00000000
00000000
01000000
01000000
01000000
00000000
00010000
00100000
,
00100000
01000000
00000000
00010000
00001000
00000000
00010000
00010000
,
00010000
00000000
00001000
00001000
00001000
00000000
00000100
00000001
,
00000001
00000001
00000000
00000010
00000100
00000000
00000010
00001000
,
00020000
00030100
00000010
00000001
,
00000010
00000010
00000000
00001000
00010000
00000000
00001000
00000000
,
00010000
00010010
00001000
01001000
,
00010000
00000000
00001000
00010000
00001000
00010000
00000000
01000000
,
10000000
10100000
00100000
10000000
,
00100000
00100000
00000000
00010000
00001000
00000000
00010000
00000000
,
00001000
00101000
00010000
00010100
,
00001000
00000000
00010000
00001000
00010000
00001000
00000000
00000100
,
00000001
00001000
00002002
00000000
00000000
00000000
00000000
00000000
,
00000000
00003003
00000000
00000000
,
00000000
00000000
00000001
00000100
,
00001000
00010000
00011000
00000000
,
00001000
00000000
00100000
00000000
,
00010000
00000000
01000000
00000000
,
00001000
00000000
00010000
00000000
,
00000100
00000000
00001000
00000000
,
00000010
00000000
00010000
00000000
,
00001000
00000000
00100000
00000000
,
01000000
00000000
00010000
00000000
,
00001000
00000000
00000010
00000000
,
00000001
00000000
00000100
00000000
,
00001000
00000000
00010000
00000000
,
00100000
00000000
10000000
00000000
,
01000000
00000000
00010000
00000000
,
00011000
00000000
00001000
00000000
,
00011000
00000000
00010000
00001000
,
00010000
00001000
00010000
00001000
,
00010000
00001000
00020000
00000000
,
00030010
00000000
00002000
00000000
,
01003000
00000000
00020000
00000000
,
00032000
00000000
00003200
00000000
,
00000302
00000000
00000000
00000000
00000013
00000000
00000010
00000010
,
00000000
00000100
00000100
00000000
00010000
00000000
00001000
00000000
,
00100000
00010000
10010000
00000000
,
10000000
00000000
00100000
00000000
,
01000000
00000000
00100000
00000000
,
00010000
00000000
00001000
00000000
,
00000100
00000000
00000010
00000000
,
00000100
00000000
00000001
00000000
,
00001000
00002000
00000000
00003010
,
00000100
00000000
00000100
00000010
,
00001000
00000000
00001001
00000000
,
00000001
00000000
00000100
00000000
,
00000010
00000000
00000100
00000000
,
00001000
00000000
00010000
00000000
,
00001000
00000000
00100000
00010000
,
00100000
01000000
10000000
01000000
,
00100000
00002000
00000000
00000000
,
00000000
00000000
00000000
00000000
,
00020000
00000000
00000000
00000000
,
00033000
00000000
00000000
00000000
;

//---------------dance-single - ----------------
#NOTEDATA:;
#CHARTNAME:;
#STEPSTYPE:dance-single;
#DESCRIPTION:;
#CHARTSTYLE:;
#DIFFICULTY:Medium;
#METER:14;
#RADARVALUES:0.609457,1.219176,0.441331,0.551663,0.114930,464.000000,416.000000,48.000000,60.000000,0.000000,0.000000,0.000000,0.000000,0.000000,0.609457,1.219176,0.441331,0.551663,0.114930,464.000000,416.000000,48.000000,60.000000,0.000000,0.000000,0.000000,0.000000,0.000000;
#CREDIT:MILEN;
#DISPLAYBPM:*;
#NOTES:
0000
0000
0000
0000
,
0000
0000
0000
0000
,
0000
0000
0000
0000
,
0000
0000
0000
0000
,
0000
0000
0000
0000
,
0000
0000
0000
0000
,
0000
0000
0000
0000
,
0000
0000
0000
0000
,
0000
0000
0001
1000
,
0001
0000
0000
0001
0000
0000
0002
0000
,
0000
0103
0010
0100
,
0010
0000
0000
0010
0000
0000
0010
1000
,
0200
0000
0000
1300
,
1000
0010
0010
0100
,
0100
0001
0001
0010
,
0100
1000
0001
1000
,
0001
0100
0001
0000
1000
0010
1000
0000
,
0001
0000
0000
0100
0000
0000
1000
0000
,
1000
0000
0000
0010
0000
0000
0001
0000
,
0100
0010
0100
0000
0010
0000
1000
0000
,
0002
1000
0000
1003
,
1000
0000
0000
0010
0000
0000
0001
0000
,
0001
0000
0000
0100
0000
0000
1000
0000
,
1002
0000
0203
0000
,
0310
0110
0100
0001
,
0010
0000
0002
0100
0000
0103
0000
0000
,
0000
0000
0110
0000
0010
0000
2000
0010
,
0000
3010
0000
0000
1000
0000
1001
0000
,
0000
0000
0101
0000
0100
0000
0020
1000
,
0000
1030
0000
0000
1100
0000
0100
0000
,
0010
0000
0011
0000
0000
0101
0000
0000
,
0110
0000
0010
1000
0010
0000
0100
0000
,
0001
0011
0010
0100
,
1000
0000
0010
0000
0200
0010
0300
0000
,
0010
1010
1000
0001
,
0100
0010
0000
1000
0020
0000
0000
0000
,
0030
1000
0200
0310
,
0002
0103
0020
1030
,
0002
0013
0200
1300
,
0002
0103
0020
1030
,
0100
0120
0001
0000
,
0130
0210
1000
0000
,
0310
0100
1100
1000
,
1010
0001
0011
0100
,
0101
0001
1000
2002
,
3003
0000
1010
0000
0000
0011
0000
0000
,
1100
0000
0100
0010
0001
0000
0100
0010
,
1000
0000
0001
0010
0100
0000
1000
0010
,
0100
0000
0000
0000
0110
0000
0010
0010
0020
0000
0000
1030
0000
1000
0100
0010
,
0001
0000
0101
0100
0010
0000
1010
0000
2002
0000
3003
0000
0001
0100
0010
0200
,
0000
0000
0310
1000
1100
0000
0010
0010
0020
0000
0000
0031
0000
0001
0100
0010
,
1000
0000
1100
0100
0010
0000
0011
0000
0220
0000
0330
0000
0100
1000
0010
0100
,
0002
0000
0000
0000
1003
0000
0000
1000
0010
0000
0100
0000
0010
0000
0000
0001
,
0010
0000
0100
0000
0010
0000
0000
1000
0010
0000
0100
0000
0010
0000
0000
0001
,
0010
1000
1100
0000
0010
0001
0101
0000
,
0010
1000
0100
0001
0100
1000
0010
0100
,
0100
0000
0010
0000
0110
0000
0000
0100
0001
0000
0100
0000
0010
0000
0000
0100
,
1000
0000
0100
0000
0010
0000
0000
0100
0001
0000
0100
0000
0010
0000
0000
0100
,
1000
0100
0101
0000
0010
0100
1100
0000
,
0010
0100
0001
0010
1000
0010
0001
0100
,
0100
0010
0210
0000
0302
0000
0023
0000
,
0230
2300
0000
0000
,
0000
0000
3000
0000
1000
0010
0100
0001
,
1000
0100
0010
0001
1001
0000
1000
0000
,
0010
1000
0100
1000
,
0001
1000
0010
1000
,
0100
1000
0001
1000
,
0100
0100
0010
0001
,
0100
0001
0010
0001
,
1000
0001
0100
0001
,
0010
0001
1000
0001
,
0010
0010
0200
1300
,
1000
0010
0100
0010
,
1000
0010
0200
0301
,
0001
0010
0100
0010
,
0001
0000
0010
0000
0220
0330
0000
0000
,
2200
3300
0000
0000
0022
0033
0000
0000
,
2002
0000
3003
0000
1000
0000
0001
0100
,
0001
1000
0010
0100
,
0001
1000
1002
0010
,
0100
0103
0000
0000
0120
0000
0001
0000
,
1000
1030
0000
0000
1200
0000
0001
0000
,
0010
0310
0000
0000
1100
0000
1000
0000
,
1010
0000
0010
0000
0011
0000
0001
0002
,
0000
1003
0100
0100
0001
0000
0010
0000
,
0100
0000
0000
0000
1000
0001
1000
0001
1000
0000
0000
0000
0010
0000
0000
0000
,
0100
0010
0001
0020
,
0000
1030
0100
0010
,
0100
2000
0000
3010
,
0100
1000
0100
0001
,
0010
0100
0001
0100
,
1000
0000
1010
0000
0000
0000
0010
0100
,
0001
0000
0010
0000
0100
0000
1000
0001
,
1000
1001
0001
0010
,
1000
0010
0001
0020
,
0000
0000
0130
1000
0100
0000
1000
0000
,
0010
0000
0200
0000
0000
0000
0301
1000
,
0001
0000
0100
0000
0010
1000
0010
0000
,
0100
0001
0100
0000
0001
0010
0001
0000
,
1000
0100
2000
0000
3020
0000
0230
0000
,
0302
0023
0230
2300
,
0002
0000
0000
0000
,
3003
0000
0000
0000
;

//---------------dance-double - ----------------
#NOTEDATA:;
#CHARTNAME:;
#STEPSTYPE:dance-double;
#DESCRIPTION:;
#CHARTSTYLE:;
#DIFFICULTY:Medium;
#METER:15;
#RADARVALUES:0.583187,1.125393,0.312609,0.367775,0.114930,444.000000,410.000000,34.000000,40.000000,0.000000,0.000000,0.000000,0.000000,0.000000,0.583187,1.125393,0.312609,0.367775,0.114930,444.000000,410.000000,34.000000,40.000000,0.000000,0.000000,0.000000,0.000000,0.000000;
#CREDIT:MILEN;
#DISPLAYBPM:*;
#NOTES:
00000000
00000000
00000000
00000000
,
00000000
00000000
00000000
00000000
,
00000000
00000000
00000000
00000000
,
00000000
00000000
00000000
00000000
,
00000000
00000000
00000000
00000000
,
00000000
00000000
00000000
00000000
,
00000000
00000000
00000000
00000000
,
00000000
00000000
00000000
00000000
,
00000000
00000000
00010000
00001000
,
00010000
00000000
00000000
00010000
00000000
00000000
00020000
00000000
,
00000000
00030100
00001000
00000100
,
00000010
00000000
00000000
00000010
00000000
00000000
00000010
00000001
,
00000200
00000000
00000000
00000310
,
00000010
00010000
00010000
00001000
,
00001000
00100000
00100000
00010000
,
01000000
00100000
10000000
00010000
,
00100000
01000000
00100000
00000000
01000000
00100000
01000000
00000000
,
10000000
00000000
00000000
00100000
00000000
00000000
00010000
00000000
,
00001000
00000000
00000000
00000100
00000000
00000000
00000001
00000000
,
00000010
00000100
00000010
00000000
00000100
00000000
00001000
00000000
,
00000002
00000100
00000000
00000103
,
00000001
00000000
00000000
00000010
00000000
00000000
00001000
00000000
,
00010000
00000000
00000000
01000000
00000000
00000000
10000000
00000000
,
10200000
00000000
02300000
00000000
,
03010000
00010000
00100000
01000000
,
00010000
00000000
00001000
00010000
00001000
00010000
00000000
00000000
,
00000000
00000000
00001010
00000000
00001000
00000000
00000001
00000100
,
00000001
00000100
00000000
00000000
00000010
00000000
00001000
00000000
,
00000100
00000000
00000010
00000000
00000001
00000000
00000100
00001000
,
00000100
00001000
00000000
00000000
00011000
00000000
00010000
00000000
,
01000000
00000000
10000000
00000000
00000000
10100000
00000000
00000000
,
01010000
00000000
00010000
00100000
00010000
00000000
01000000
00000000
,
00100000
10000000
01000000
00010000
,
00001000
00000000
00000100
00000000
00000001
00000010
00000001
00000000
,
00000010
00001000
00010000
01000000
,
10000000
00100000
00000000
01000000
00200000
00000000
00000000
00000000
,
00300000
00010000
00001000
00000100
,
00001000
00010000
01000000
00010000
,
00001000
00000010
00001000
00010000
,
00100000
00010000
00001000
00000100
,
00000001
00000021
00000100
00000000
,
00001030
00021000
00100000
00000000
,
00030010
00010000
00001000
00000100
,
00001000
00010000
01000000
00010000
,
00001000
00010000
00100000
20000000
,
30000000
00000000
11000000
00000000
00000000
00110000
00000000
00000000
,
01001000
00001000
00010000
00100000
,
00001000
00000010
00010000
00001000
,
00000100
00000000
00000000
00000000
00000101
00000000
00000001
00000010
00000002
00000000
00000000
00001003
00000000
00001000
00000010
00010000
,
00001000
00000000
00010000
00001000
00100000
00000000
00110000
00000000
22000000
00000000
33000000
00000000
10000000
00100000
01000000
00020000
,
00000000
00000000
00130000
01000000
00010000
00000000
00001000
00010000
00002000
00000000
00000000
00103000
00000000
00100000
01000000
00010000
,
00001000
00000000
00010000
00001000
00000010
00000000
00000011
00000000
00002200
00000000
00003300
00000000
00001000
00000010
00000100
00001000
,
00020000
00000000
00000000
00000000
00031000
00000000
00000000
00001000
00010000
00000000
00000000
00000000
01010000
00000000
00000000
00010000
,
00001000
00000000
00000000
00000000
00001100
00000000
00000000
00001000
00010000
00000000
00000000
00000000
00110000
00000000
00000000
00010000
,
00001000
00000010
00000011
00000000
00000001
00000100
00001100
00000000
,
00001000
00010000
00100000
00001000
00000010
00010000
00001000
00000100
,
00010000
00000000
01000000
00000000
01100000
00000000
00000000
00100000
00010000
00000000
00000000
00000000
00011000
00000000
00000000
00000010
,
00001000
00000000
00000000
00000000
00011000
00000000
00000000
01000000
00010000
00000000
00000000
00000000
00011000
00000000
00000000
00000100
,
00001000
00010000
01010000
00000000
00010000
00001000
00001010
00000000
,
00000010
00000001
00000100
00001000
00010000
00100000
10000000
01000000
,
00100000
00010000
02000000
00000000
03002000
00000000
00023000
00000000
,
00030020
00000230
00000000
00000000
,
00000000
00000000
00000300
00000000
00000001
00000010
00000100
00010000
,
00001000
00100000
01000000
10000000
10010000
00000000
00010000
00000000
,
01000000
00001000
01000000
00010000
,
01000000
00100000
01000000
10000000
,
01000000
00100000
00010000
00001000
,
00020000
00030000
00000100
00001000
,
00000010
00010000
00000010
00001000
,
00000010
00000100
00000010
00000001
,
00000010
00000100
00001000
00010000
,
00002000
00003000
00100000
00010000
,
00100000
01000000
00010000
00001000
,
00000010
00000100
00000010
00000001
,
00000100
00001000
00010000
01000000
,
10000000
00100000
01000000
01000000
,
00010000
00010000
00001000
00001000
,
00000100
00000000
00000100
00000000
00000010
00000000
00000001
00001000
,
00000001
00000100
00000010
00000100
,
00001000
00010000
00012000
00100000
,
01000000
01003000
00000000
00000000
00021000
00000000
00000010
00000000
,
00000100
00030100
00000000
00000000
00012000
00000000
00000010
00000000
,
00100000
00103000
00000000
00000000
00110000
00000000
00010000
00000000
,
01001000
00000000
00001000
00000000
00010100
00000000
00000100
00000200
,
00000000
00000310
00000001
00000100
00001000
00000000
00010000
00000000
,
00100000
00000000
00000000
00000000
10000000
00010000
10000000
00010000
10000000
00000000
00000000
00000000
01000000
00000000
00000000
00000000
,
00100000
00010000
00100000
00002000
,
00000000
00013000
00001000
00000100
,
00001000
00020000
00000000
00031000
,
00000100
00000010
00000100
00000001
,
00000010
00001000
00010000
00000100
,
00000010
00000000
00000011
00000000
00000000
00000000
00000001
00000100
,
00000001
00000000
00000100
00000000
00001000
00000000
00010000
00001000
,
00010000
00001000
00000100
00000001
,
00000010
00000100
00001000
00000200
,
00000000
00000000
00010300
00001000
00010000
00000000
00100000
00000000
,
01000000
00000000
00200000
00000000
00000000
00000000
10300000
01000000
,
10000000
01000000
00100000
00010000
,
00001000
00000010
00000100
00000001
,
00000010
00000100
00000020
00000000
00002030
00000000
00023000
00000000
,
02030000
23000000
30200000
00320000
,
00002000
00000000
00000000
00000000
,
00033000
00000000
00000000
00000000
;

//---------------dance-single - ----------------
#NOTEDATA:;
#CHARTNAME:;
#STEPSTYPE:dance-single;
#DESCRIPTION:;
#CHARTSTYLE:;
#DIFFICULTY:Hard;
#METER:16;
#RADARVALUES:0.746059,1.453633,0.560858,0.459719,0.225262,568.000000,507.000000,61.000000,50.000000,0.000000,0.000000,0.000000,0.000000,0.000000,0.746059,1.453633,0.560858,0.459719,0.225262,568.000000,507.000000,61.000000,50.000000,0.000000,0.000000,0.000000,0.000000,0.000000;
#CREDIT:MILEN;
#DISPLAYBPM:*;
#NOTES:
0000
0000
0000
0000
,
0000
0000
0000
0000
,
0000
0000
0000
0000
,
0000
0000
0000
0000
,
0000
0000
0000
0000
,
0000
0000
0000
0000
,
0000
0000
0000
0000
,
0000
0000
0000
0000
,
0000
0000
0000
0000
1000
0010
0100
0001
,
1000
0000
0010
1000
0000
0100
2000
0000
,
0000
0000
3001
0000
0001
0000
0010
0001
,
1000
0000
0001
0010
0000
0001
0100
0010
,
0200
0301
0002
1003
,
1010
0010
0110
0100
,
0101
0001
1001
1000
,
0200
0320
0032
2003
,
3010
0100
0010
0100
0001
1000
0001
1000
,
0010
0000
0100
0001
0000
0010
0002
0000
,
1003
0000
0010
1000
0000
0100
2000
0000
,
3001
0010
0001
0010
0100
1000
0100
1000
,
0010
0110
0100
1001
,
0001
0000
0100
0010
0000
1000
0020
0000
,
1030
0000
0010
0100
0000
0001
0100
0000
,
0220
0000
0000
0000
0000
0000
0000
0000
0330
0000
0000
0000
0000
0000
0000
0000
0020
0030
0000
0000
2000
3000
0000
0000
0020
0030
0000
0000
2000
3000
0000
0000
,
0002
0003
0000
0000
0101
0000
0000
0000
0010
0000
0000
0000
1010
0000
0000
0000
,
1000
0000
0100
1000
0000
0001
0000
1000
,
0100
0000
1100
0000
0010
0000
0001
0100
,
0000
0010
0000
0100
0001
0000
0011
0000
,
0010
0000
0100
0000
1000
0000
0010
0100
,
0000
0001
0000
0100
0010
0000
1010
0000
,
0001
0101
1000
1001
,
0010
0000
0100
0010
1000
0001
0200
0000
,
0300
0110
0001
0011
,
0100
0000
1100
0000
1000
0010
0000
0100
,
0010
1010
0100
0101
,
0001
0010
0000
0100
0010
0000
0001
0000
,
1000
1010
0010
0110
,
0100
0101
0001
0011
,
0010
1100
1000
1001
,
0001
0101
0100
0110
,
0010
2000
0100
3001
,
0001
0010
0100
0010
0001
0000
1000
0000
,
1010
0020
0001
0130
,
0100
0010
1000
0010
0100
0000
0001
0000
,
0011
0020
1000
0130
,
0100
0010
0001
0010
0100
0000
1000
0000
,
1001
0002
0010
1003
,
1000
0100
0010
0100
1000
0000
0010
0000
,
0100
0000
0000
0000
0110
0000
0010
1000
0001
0000
0010
0100
0000
1000
0010
0100
,
0101
0000
0001
0010
1100
0000
0110
0000
2002
0000
3003
0000
0001
0100
0010
0200
,
0000
0000
1300
0100
0001
0000
0010
0001
1000
0000
0010
0100
0000
0001
0010
0100
,
1100
0000
1000
0010
0101
0000
0110
0000
2002
0000
3003
0000
1000
0100
0010
0001
,
0100
0010
0100
0000
0010
1000
0010
1000
0001
0000
0000
0000
0000
0000
0001
0000
0100
0000
0000
0000
0000
0000
0100
0000
0010
0000
0000
0000
0000
0000
0010
0000
,
1000
0000
0000
1000
0100
0000
0000
0100
0001
0000
0000
0001
0100
0000
0000
0100
,
1000
0100
0010
0000
0210
0000
0000
0000
1300
0010
0100
0000
0120
0000
0000
0000
,
1030
0100
0010
0000
0011
0000
0001
0000
0100
0000
0010
0000
1000
0000
1100
0000
,
0011
0000
0101
0000
1010
0000
0000
1000
0100
0000
0000
0100
0010
0000
0000
0010
,
0001
0000
0000
0001
0100
0000
0000
0100
1000
0000
0000
1000
0100
0000
0000
0100
,
0010
1000
0010
0000
0210
0000
0301
0000
0001
0010
0100
0000
0120
0000
0031
0000
,
0001
0100
0010
0000
0110
0000
1000
0010
0100
0000
0001
0010
0100
0000
1100
0000
,
1010
0101
0001
1000
0010
0100
0001
0010
,
0100
1000
0020
0000
0000
0000
0000
0000
,
0000
0000
0000
0000
0030
0000
0000
0000
0100
0010
0100
0000
0001
0010
0001
0000
,
1000
0100
1000
0000
0001
1000
0001
1000
0001
0000
0000
0000
0100
0000
0000
0000
,
0010
0100
1000
0100
,
0010
0010
1000
0100
,
0010
0100
0001
0100
,
0010
0010
0001
0010
,
1000
0010
0100
0010
,
0001
0001
1000
0010
,
0001
0010
0100
0010
,
1000
0000
1000
0000
0100
1000
0010
0000
,
0100
0001
0010
0100
,
1000
0000
0010
0000
0100
0001
0010
0000
,
0001
0100
0010
1000
,
0100
0000
0010
0000
0001
0100
0010
0000
,
1000
0010
0100
0000
0010
1000
0001
0000
,
0100
0001
1000
0000
0010
0000
0100
0010
,
0200
0010
0010
0010
,
0010
0310
1002
0010
,
0100
0103
0000
0000
2001
0000
0100
0000
,
0010
3010
0000
0000
0201
0000
1000
0000
,
0010
0310
0000
0000
2010
0000
3100
0000
,
0012
0000
0103
0000
0120
0000
1000
2030
,
0000
0100
0100
0001
3001
0000
0011
0000
,
1100
0000
0000
0000
1000
0010
0100
0001
1000
0000
0000
0000
0100
0000
0000
0000
,
0010
0100
1000
0020
,
0000
0000
0130
0001
0010
0000
0001
0000
,
0100
0000
0010
0000
1000
0100
1000
0100
,
1000
0010
0100
0001
,
0010
0100
0001
0100
,
1000
0000
1010
0000
0000
0000
0010
0100
,
0001
0100
0010
0000
0100
0000
0001
1000
,
0100
1000
0001
0000
0100
0000
0010
0000
,
0001
0010
0100
0002
,
0000
0000
1003
0010
0100
0000
0001
0000
,
0010
0000
0100
0000
1000
0001
0100
0001
,
1000
0000
0010
0000
0100
0001
0100
0001
,
0010
0100
0010
0100
1000
0010
1000
0010
,
0100
0001
0020
0000
0230
0000
2300
0000
,
3020
0032
0203
2300
,
0002
0000
0000
0000
,
3003
0000
0000
0000
;

//---------------dance-double - ----------------
#NOTEDATA:;
#CHARTNAME:;
#STEPSTYPE:dance-double;
#DESCRIPTION:;
#CHARTSTYLE:;
#DIFFICULTY:Hard;
#METER:17;
#RADARVALUES:0.715849,1.312958,0.404553,0.560858,0.133319,545.000000,501.000000,44.000000,61.000000,0.000000,0.000000,0.000000,0.000000,0.000000,0.715849,1.312958,0.404553,0.560858,0.133319,545.000000,501.000000,44.000000,61.000000,0.000000,0.000000,0.000000,0.000000,0.000000;
#CREDIT:MILEN;
#DISPLAYBPM:*;
#NOTES:
00000000
00000000
00000000
00000000
,
00000000
00000000
00000000
00000000
,
00000000
00000000
00000000
00000000
,
00000000
00000000
00000000
00000000
,
00000000
00000000
00000000
00000000
,
00000000
00000000
00000000
00000000
,
00000000
00000000
00000000
00000000
,
00000000
00000000
00000000
00000000
,
00000000
00000000
00000000
00000000
00001000
00010000
00001000
00010000
,
00100000
00000000
00010000
00001000
00000000
00010000
00200000
00000000
,
00000000
00000000
10300000
00000000
10000000
00000000
01000000
00100000
,
00010000
00000000
00100000
00001000
00000000
00010000
00001000
00000100
,
00000020
00001030
00000002
00000103
,
00000110
00000010
00010010
00010000
,
00011000
00001000
00101000
00100000
,
02000000
23000000
30200000
00320000
,
00031000
01000000
00001000
01000000
00010000
00100000
00010000
00100000
,
01000000
00000000
00010000
00001000
00000000
00001000
00000010
00000000
,
00000001
00000000
00000100
00001000
00000000
00001000
00010000
00000000
,
00000010
00001000
00000010
00001000
00000100
00010000
00000100
00010000
,
00001000
01001000
00010000
00010100
,
00001000
00000000
00010000
00100000
00000000
00100000
10000000
00000000
,
01000000
00000000
00010000
00001000
00000000
00001000
00000010
00000000
,
00002002
00000000
00000000
00000000
00000000
00000000
00000000
00000000
00003003
00000000
00000000
00000000
00000000
00000000
00000000
00000000
00000002
00000003
00000000
00000000
00000200
00000300
00000000
00000000
00000002
00000003
00000000
00000000
00000200
00000300
00000000
00000000
,
00000020
00000030
00000000
00000000
00001010
00000000
00000000
00000000
00001000
00000000
00000000
00000000
00001001
00000000
00000000
00000000
,
00000001
00000000
00000100
00001000
00000000
00010000
00000000
00001000
,
00100000
00000000
00110000
00000000
01000000
00000000
10000000
00100000
,
00000000
00010000
00000000
00100000
01000000
00000000
01010000
00000000
,
00001000
00000000
00100000
00000000
01000000
00000000
00010000
00001000
,
00000000
00000010
00000000
00000100
00000010
00000000
00000011
00000000
,
00000001
00001100
00000010
00010010
,
00010000
00000000
00001000
00100000
00010000
01000000
00200000
00000000
,
00300000
10100000
01000000
01010000
,
00001000
00000000
00011000
00000000
00010000
00000100
00000000
00000010
,
00000100
00001100
00000001
00000101
,
00000100
00000010
00000000
00010000
00001000
00000000
00100000
00000000
,
01000000
20000000
30100000
00020000
,
00031000
00000200
00000301
00000020
,
00001030
00020000
00130000
20000000
,
31000000
00200000
00301000
00020000
,
00030100
00000120
00000001
00000130
,
00000100
00010000
00001000
00010000
01000000
00000000
10000000
00000000
,
00100000
02100000
00010000
03100000
,
00100000
10000000
01000000
00100000
00010000
00000000
00100000
00000000
,
00001000
00021000
00000010
00031000
,
00001000
00000100
00000010
00000100
00000001
00000000
00000010
00000000
,
00001000
00021000
00100000
00031000
,
00001000
00100000
01000000
00100000
00010000
00000000
10000000
00000000
,
00100000
00000000
00000000
00000000
01100000
00000000
01000000
00010000
00100000
00000000
01000000
00010000
00000000
00001000
00000010
00000100
,
00000010
00000000
00000001
00000100
00001010
00000000
00000010
00000000
00000202
00000000
00000303
00000000
00000001
00000010
00001000
00020000
,
00000000
00000000
00130000
10000000
01000000
00000000
00100000
00001000
00010000
00000000
00000100
00000010
00000000
00000001
00000100
00001000
,
00010000
00000000
00100000
10000000
01010000
00000000
00100000
00000000
20200000
00000000
30300000
00000000
10000000
00010000
00100000
01000000
,
00010000
00000000
00001000
00000000
00000010
00000100
00000010
00000100
00000010
00000000
00000000
00000000
00000001
00000000
00000000
00000000
00000100
00000000
00000000
00000000
00001000
00000000
00000000
00000000
00000100
00000000
00000000
00000000
00000001
00000000
00000000
00000000
,
00000010
00001000
00000010
00000001
00000100
00001000
00010000
00100000
,
10000000
00000000
01000000
00000000
01200000
00000000
00000000
00000000
00310000
01000000
00100000
00000000
00210000
00000000
00000000
00000000
,
01300000
00010000
00100000
00000000
11000000
00000000
10000000
00000000
00100000
00000000
00010000
00000000
00001000
00000000
00000100
00000000
,
00001000
00010000
00100000
10000000
01000000
00010000
01000000
10000000
,
00100000
00010000
00100000
10000000
01000000
00010000
00001000
00000010
,
00000001
00000000
00000100
00000000
00000120
00000000
00001030
00000000
00001000
00000100
00000010
00000000
00000210
00000000
00001300
00000000
,
00001000
00000010
00000100
00000000
00000101
00000000
00000001
00000010
00001000
00000000
00000010
00001000
00010000
00000000
00001000
00000000
,
00100000
01000000
10000000
00100000
01000000
00001000
00010000
00000100
,
00000010
00000001
00002002
00000000
00000000
00000000
00000000
00000000
,
00000000
00000000
00003003
00000000
00001000
00000010
00000100
00000001
,
00000010
00000000
00001000
00000000
00010000
00001000
00010000
00001000
00010000
00000000
00000000
00000000
00000100
00000000
00000000
00000000
,
00001000
00000010
00001000
00000100
,
00001000
00000001
00001000
00000010
,
00010000
00001000
01000000
00010000
,
00100000
00100000
00001000
01000000
,
00010000
00100000
00010000
01000000
,
00010000
10000000
00010000
00100000
,
00001000
00010000
00000010
00001000
,
00000100
00000000
00000100
00000000
00000010
00000001
00000010
00000000
,
00000100
00000010
00001000
00010000
,
00100000
00000000
01000000
00000000
00100000
10000000
00100000
00000000
,
01000000
00100000
00010000
00001000
,
00000010
00000000
00000100
00000000
00000010
00000001
00000100
00000000
,
00000010
00001000
00000100
00000000
00010000
00001000
00100000
00000000
,
00010000
01000000
00100000
00000000
10000000
00000000
01000000
00100000
,
00020000
01030000
00002000
00013000
,
00000200
00001300
00001002
00000203
,
00000010
00000310
00000000
00000000
00020010
00000000
00032000
00000000
,
00100000
00103000
00000000
00000000
00210000
00000000
02300000
00000000
,
10000000
13000000
00000000
00000000
10200000
00000000
00310000
00000000
,
00012000
00000000
01003000
00000000
00021000
00000000
00000100
00030200
,
00000000
00000010
00000010
00001000
00001300
00000000
00001001
00000000
,
00000101
00000000
00000000
00000000
00000100
00001000
00000100
00001000
00010000
00000000
00000000
00000000
00001000
00000000
00000000
00000000
,
00100000
01000000
10000000
00200000
,
00000000
00000000
00310000
00001000
00010000
00000000
00000100
00000000
,
00000010
00000000
00000001
00000000
00000100
00000010
00000100
00000010
,
00000100
00000001
00000010
00001000
,
00010000
01000000
10000000
00100000
,
01000000
00000000
01010000
00000000
00000000
00000000
00010000
00100000
,
01000000
00100000
00010000
00000000
00100000
00000000
00001000
00010000
,
00000010
00010000
00001000
00000000
00010000
00000000
00000100
00000000
,
00000010
00000001
00000100
00002000
,
00000000
00000000
00013000
00000100
00000010
00000000
00001000
00000000
,
00010000
00000000
01000000
00000000
10000000
00100000
01000000
00100000
,
00010000
00000000
00001000
00000000
00000100
00000001
00000010
00000100
,
00000010
00000100
00001000
00000010
00001000
00000010
00010000
00001000
,
01000000
00010000
20000000
00000000
32000000
00000000
03200000
00000000
,
00320000
00032000
00003200
00000320
,
00000002
00000000
00000000
00000000
,
00000033
00000000
00000000
00000000
;

//---------------dance-single - ----------------
#NOTEDATA:;
#CHARTNAME:;
#STEPSTYPE:dance-single;
#DESCRIPTION:;
#CHARTSTYLE:;
#DIFFICULTY:Challenge;
#METER:18;
#RADARVALUES:0.948335,1.688090,0.818300,0.753940,0.326401,722.000000,633.000000,89.000000,82.000000,0.000000,0.000000,0.000000,0.000000,0.000000,0.948335,1.688090,0.818300,0.753940,0.326401,722.000000,633.000000,89.000000,82.000000,0.000000,0.000000,0.000000,0.000000,0.000000;
#CREDIT:MILEN;
#DISPLAYBPM:*;
#NOTES:
0000
0000
0000
0000
,
0000
0000
0000
0000
,
0000
0000
0000
0000
,
0000
0000
0000
0000
,
0000
0000
0000
0000
,
0000
0000
0000
0000
,
0000
0000
0000
0000
,
0000
0000
0000
0000
,
0000
0000
0000
0000
1000
0010
0100
0001
,
2000
0000
3100
0020
0000
0130
2000
0000
,
3010
0000
0010
0100
0001
0000
0011
0000
,
1100
0000
1000
0010
0000
0001
0010
0100
,
0020
1030
0200
0301
,
0001
0010
0100
0000
1000
0010
0100
0000
,
0001
0100
0010
0000
1000
0100
0010
0000
,
0001
1000
0010
0100
0001
1000
0100
0010
,
0001
0001
0100
0100
0010
0010
1000
1000
,
0001
0010
0100
1000
0001
0010
0100
1000
,
0001
0100
0010
1000
0001
0100
0010
1000
,
0100
0010
0001
0100
0001
1000
0010
1000
,
0100
0010
0001
1000
0100
1000
0001
0010
,
0001
0100
0010
1000
0001
0010
0100
0001
,
0100
1000
0010
0001
0010
0100
0001
1000
,
1200
0000
0000
0000
0000
0000
0000
0000
0000
0000
0000
0000
0000
0000
0000
0000
0320
0030
0000
0000
0002
0003
0000
0000
2000
3000
0000
0000
0020
0030
0000
0000
,
0220
0330
0000
0000
0102
0000
0000
0000
1003
0000
0000
0000
2010
0000
0000
0000
,
3001
0000
0001
0100
0010
0100
1000
0000
,
0100
0000
0120
0000
1030
0000
1000
0100
,
0000
0110
0000
0010
0001
0100
0101
0000
,
1000
0000
1020
0000
0130
0000
0100
0001
,
0000
0011
0000
0010
0100
1000
1100
0000
,
0110
0000
0022
0033
0000
2020
3030
0000
,
0101
0000
0001
0100
1000
0100
0001
0010
,
0100
0120
0031
0210
,
1300
0000
1000
0010
0100
0010
0001
0000
,
0010
2010
3100
0011
,
0001
0100
0000
0100
1000
0000
0100
0010
,
1000
0001
0010
0000
0210
0000
1300
0000
,
1020
0031
0210
0301
,
0021
1030
0210
1300
,
1020
0130
0102
0013
,
1100
1020
0100
1030
,
1000
0100
0010
0001
0100
0010
1010
0000
,
0101
0021
0100
0031
,
0001
0100
0010
1000
0001
0010
0110
0000
,
1100
0012
0100
0013
,
0010
0001
1000
0010
0100
0001
0011
0000
,
1100
0210
1000
0310
,
0010
0001
0100
1000
0100
0010
1010
0000
,
0101
0000
0000
0000
1001
0000
0001
0100
0020
0000
1030
0200
0000
1300
0010
0001
,
0020
0000
1030
0100
0011
0000
1010
0000
2002
0000
3003
0000
0001
0100
1000
0100
,
0002
0000
0013
0100
1100
0000
1000
0100
0020
0000
0031
0200
0000
0301
0010
1000
,
0020
0000
0000
0000
0031
0000
0100
0000
1010
0000
0000
0000
0011
0000
0000
0000
2002
0000
0000
0000
3003
0000
0000
0000
1000
0010
1000
0010
0100
0010
0100
0010
,
0100
0001
0010
0100
1000
0010
0100
0001
2000
0000
0000
0000
3100
0000
0010
0000
0001
0000
0000
0000
0010
0000
0001
0000
0100
0000
0000
0000
0010
0000
1000
0000
,
0100
0000
0010
0100
1000
0000
0001
1000
0100
0000
1000
0001
0010
0000
0001
0100
,
0010
1000
0001
0010
0011
0000
1000
0010
0100
0001
1000
0100
0110
0000
0001
0100
,
0010
1000
0001
0000
0021
0000
0130
0000
1200
0000
0310
0000
1001
0000
0101
0000
,
1100
0000
0011
0000
1010
0000
0001
0010
0100
0000
1000
0010
0100
0000
1000
0100
,
0001
0000
1000
0010
0001
0000
0010
0100
0001
0000
0010
0100
1000
0000
0001
0100
,
0010
1000
0001
0010
0110
0000
0100
1000
0010
0100
0001
1000
1010
0000
0010
0100
,
0001
1000
0100
0000
0012
0000
1003
0000
2100
0000
3001
0000
0101
0000
1100
0000
,
0011
0000
1010
0000
1000
0100
1000
0100
1000
0010
1000
0010
0100
0001
0100
0001
,
0010
0001
0010
0100
2000
0000
0000
0000
0000
0000
0000
0000
0000
0000
0000
0000
,
0000
0000
0000
0000
3000
0000
0000
0000
0001
1000
0001
1000
0010
0100
0010
0100
,
0001
1000
0100
0010
0001
0100
0010
1000
0001
0000
0100
0000
0001
0000
0000
0000
,
0001
0010
0001
0000
0001
0100
0001
0000
,
0001
1000
0001
0000
1000
0010
1000
0000
,
1000
0100
1000
0000
1000
0010
1000
0000
,
1000
0001
1000
0000
0010
0100
0010
0000
,
0010
1000
0010
0000
0010
0001
0010
0000
,
0010
1000
0010
0000
0100
0001
0100
0000
,
0100
1000
0100
0000
0010
0000
0100
0001
,
0100
0010
0220
0300
,
1030
0001
0100
0001
0010
0100
1000
0010
,
1000
0100
0010
0000
0022
0000
0030
0000
,
0103
0010
1000
0010
0100
0010
1000
0001
,
0100
0010
0100
0001
0100
0010
1000
0001
,
0100
0010
1000
0001
0010
0100
1000
0001
,
0010
0100
1000
0010
0100
0001
1000
0200
,
0010
0010
0010
0010
,
0010
0000
0310
0000
0110
0010
0001
1000
,
1001
0001
0100
0010
0001
0010
1000
0100
,
1100
1000
0010
0100
1000
0100
0001
0010
,
0011
0100
1000
0010
2010
3001
0001
0010
,
0012
1003
1000
0010
0220
0030
0010
0302
,
0000
0100
0100
1003
1010
0000
0011
0000
,
1001
0000
0000
0000
1000
0010
0100
0001
1000
0000
0000
0000
0010
0000
0000
0000
,
0100
0001
0100
0000
0010
0000
2000
0000
,
0000
0000
3001
0100
0010
0000
0001
0010
,
0100
0000
0101
0000
1000
0100
0010
0100
,
2000
3001
0001
0100
,
1000
0100
0010
0000
0100
0000
0001
0000
,
0010
0000
0220
0000
0330
0000
0100
1000
,
0001
1000
0100
0000
1000
0000
0010
0100
,
0001
0100
0010
0000
1000
0010
0100
0010
,
0001
0010
0100
0000
0001
0000
2001
0000
,
0000
0000
3010
0100
0001
0100
0001
0010
,
0100
0000
0010
0000
0001
0100
0010
0100
,
0001
0000
0011
0000
1000
0010
0100
0001
,
0010
0100
0001
0100
1000
0100
0010
0001
,
0100
0000
0010
0000
2020
3030
0000
0000
2200
3300
0000
0000
0202
0303
0000
0000
,
0022
0033
0000
0000
0202
0303
0000
0000
2200
3300
0000
0000
2020
3030
0000
0000
,
2002
0000
0000
0000
,
3003
0000
0000
0000
;

//---------------dance-double - ----------------
#NOTEDATA:;
#CHARTNAME:;
#STEPSTYPE:dance-double;
#DESCRIPTION:;
#CHARTSTYLE:;
#DIFFICULTY:Challenge;
#METER:18;
#RADARVALUES:0.907617,1.688090,0.606830,0.744745,0.312609,691.000000,625.000000,66.000000,81.000000,0.000000,0.000000,0.000000,0.000000,0.000000,0.907617,1.688090,0.606830,0.744745,0.312609,691.000000,625.000000,66.000000,81.000000,0.000000,0.000000,0.000000,0.000000,0.000000;
#CREDIT:MILEN;
#DISPLAYBPM:*;
#NOTES:
// measure 0
00000000
00000000
00000000
00000000
,  // measure 1
00000000
00000000
00000000
00000000
,  // measure 2
00000000
00000000
00000000
00000000
,  // measure 3
00000000
00000000
00000000
00000000
,  // measure 4
00000000
00000000
00000000
00000000
,  // measure 5
00000000
00000000
00000000
00000000
,  // measure 6
00000000
00000000
00000000
00000000
,  // measure 7
00000000
00000000
00000000
00000000
,  // measure 8
00000000
00000000
00000000
00000000
00010000
00000100
00001000
00000010
,  // measure 9
00000200
00000000
00000301
00000020
00000000
00000130
00002000
00000000
,  // measure 10
00003010
00000000
00010000
00001000
00100000
00000000
00110000
00000000
,  // measure 11
11000000
00000000
10000000
00100000
00000000
00010000
00100000
01000000
,  // measure 12
00200000
10300000
02000000
03100000
,  // measure 13
00010000
00100000
01000000
00000000
00100000
00010000
01000000
00000000
,  // measure 14
00100000
00010000
00001000
00000000
00010000
00001000
00000010
00000000
,  // measure 15
00000100
00000010
00000001
00001000
00000100
00000010
00000001
00000100
,  // measure 16
00001000
00010000
00001000
00010000
00001000
00001000
00010000
00010000
,  // measure 17
00100000
10000000
01000000
00100000
01000000
10000000
00100000
00000000
,  // measure 18
01000000
00010000
00100000
01000000
00100000
00010000
01000000
00000000
,  // measure 19
00100000
00010000
00001000
00100000
01000000
00010000
00001000
00000010
,  // measure 20
00000100
00001000
00000100
00000001
00000100
00001000
00000100
00000010
,  // measure 21
00000001
00000100
00001000
00000100
00000001
00000010
00000100
00000000
,  // measure 22
00001000
00000010
00000001
00000010
00001000
00000100
00000010
00001000
,  // measure 23
00022000
00000000
00000000
00000000
00000000
00000000
00000000
00000000
00030000
00000000
00000000
00000000
00000000
00000000
00000000
00000000
02003000
03000000
00000000
00000000
00200000
00300000
00000000
00000000
00020000
00030000
00000000
00000000
00002000
00003000
00000000
00000000
,  // measure 24
00000020
00000030
00000000
00000000
00000012
00000000
00000000
00000000
00001003
00000000
00000000
00000000
00002100
00000000
00000000
00000000
,  // measure 25
00003010
00000000
00000010
00010000
00001000
00010000
00100000
00000000
,  // measure 26
10000000
00000000
12000000
00000000
03100000
00000000
00100000
00001000
,  // measure 27
00000000
00011000
00000000
00010000
00000100
00001000
00000001
00000000
,  // measure 28
00000100
00000000
00000120
00000000
00010030
00000000
00010000
00001000
,  // measure 29
00000000
00101000
00000000
00100000
01000000
10000000
00100000
00000000
,  // measure 30
01100000
00000000
02020000
03030000
00000000
00022000
00033000
00000000
,  // measure 31
00001100
00000000
00001000
00000100
00000010
00000001
00000100
00001000
,  // measure 32
00000100
00000102
00000013
00000210
,  // measure 33
00010300
00000000
00010000
00001000
00010000
01000000
10000000
00000000
,  // measure 34
00100000
02100000
03010000
00110000
,  // measure 35
00100000
01000000
00000000
01000000
00010000
00000000
00001000
00000010
,  // measure 36
00000001
00000010
00000100
00000000
00001100
00000000
00001000
00000000
,  // measure 37
00001010
00000010
00010010
00010000
,  // measure 38
00011000
00001000
00101000
00100000
,  // measure 39
01100000
01000000
11000000
10000000
,  // measure 40
10100000
02100000
00010000
03001000
,  // measure 41
00001000
00010000
00100000
00010000
00001000
00000010
00000001
00000000
,  // measure 42
00000101
00000120
00010000
00001030
,  // measure 43
00001000
00000100
00000010
00001000
00010000
01000000
10000000
00000000
,  // measure 44
10100000
02100000
10000000
03010000
,  // measure 45
00010000
00100000
01000000
00010000
00001000
00000010
00000100
00000000
,  // measure 46
00001100
00000012
00000100
00001003
,  // measure 47
00001000
00000010
00010000
00100000
10000000
01000000
00100000
00000000
,  // measure 48
00110000
00000000
00000000
00000000
10010000
00000000
10000000
00100000
02000000
00000000
03010000
00200000
00000000
01300000
00010000
00001000
,  // measure 49
00000020
00000000
00000031
00000100
00001010
00000000
00000011
00000000
00002002
00000000
00003003
00000000
00001000
00000010
00010000
00100000
,  // measure 50
20000000
00000000
31000000
00100000
00101000
00000000
00001000
00010000
00200000
00000000
00301000
00000020
00000000
00000130
00000001
00001000
,  // measure 51
00000200
00000000
00000000
00000000
00000310
00000000
00000001
00000000
00001001
00000000
00000000
00000000
00010100
00000000
00000000
00000000
00202000
00000000
00000000
00000000
00303000
00000000
00000000
00000000
00100000
00010000
00100000
00010000
01000000
00100000
01000000
00100000
,  // measure 52
10000000
01000000
00100000
00010000
01000000
00100000
00010000
00001000
00000200
00000000
00000000
00000000
00000301
00000000
00000010
00000000
00000100
00000000
00000000
00000000
00000010
00000000
00000000
00000000
00001000
00000000
00000000
00000000
00010000
00000000
00001000
00000000
,  // measure 53
00000100
00000000
00001000
00000000
00010000
00000000
00001000
00010000
01000000
00000000
00010000
00000000
00001000
00000000
00100000
01000000
,  // measure 54
10000000
00100000
01000000
00010000
00100000
00000000
01000000
00010000
00001000
00100000
00010000
01000000
00100000
00000000
00010000
00001000
,  // measure 55
00000010
00000001
00000100
00000000
00000120
00000000
00001030
00000000
00000210
00000000
00000301
00000000
00000011
00000000
00000100
00000000
,  // measure 56
00001010
00000000
00010000
00000000
00011000
00000000
00001000
00100000
01000000
00000000
10000000
00100000
00010000
00000000
00100000
00010000
,  // measure 57
00001000
00000000
00010000
00001000
00000010
00000000
00001000
00000010
00000001
00000000
00000100
00000010
00001000
00000000
00000100
00000010
,  // measure 58
00000001
00001000
00000100
00000010
00001000
00000000
00010000
00001000
00000010
00000100
00010000
00001000
00000100
00000000
00001000
00010000
,  // measure 59
01000000
10000000
00100000
00000000
02100000
00000000
03010000
00000000
01200000
00000000
10300000
00000000
11000000
00000000
00010000
00000000
,  // measure 60
00101000
00000000
00001000
00000000
00010000
00000100
00010000
00000100
00001000
00000100
00001000
00000100
00000010
00000001
00000010
00000001
,  // measure 61
00000100
00000010
00001000
00000100
00020000
00000000
00000000
00000000
00000000
00000000
00000000
00000000
00000000
00000000
00000000
00000000
,  // measure 62
00000000
00000000
00000000
00000000
00030000
00000000
00000000
00000000
00001000
00100000
00001000
00100000
00010000
01000000
00010000
01000000
,  // measure 63
00100000
10000000
01000000
00100000
00010000
01000000
00100000
00010000
00001000
00000000
00010000
00000000
00001000
00000000
00000000
00000000
,  // measure 64
00001000
00100000
00001000
00000000
00001000
00010000
00001000
00000000
,  // measure 65
00001000
01000000
00001000
00000000
00010000
00001000
00010000
00000000
,  // measure 66
00010000
00000010
00010000
00000000
00010000
00001000
00010000
00000000
,  // measure 67
00010000
00000100
00010000
00000000
00000010
00001000
00000010
00000000
,  // measure 68
00000100
00000001
00000100
00000000
00000010
00000100
00000010
00000000
,  // measure 69
00010000
00001000
00010000
00000000
01000000
00100000
01000000
00000000
,  // measure 70
20000000
30100000
01000000
00020000
,  // measure 71
00130000
01000000
00020000
00000000
,  // measure 72
00031000
00100000
00010000
00100000
00001000
00010000
00000010
00001000
,  // measure 73
00000010
00000100
00000001
00000000
00000022
00000000
00000003
00000000
,  // measure 74
00000130
00001000
00000100
00000010
00000100
00001000
00000010
00000100
,  // measure 75
00001000
00010000
00100000
01000000
00010000
00100000
01000000
00100000
,  // measure 76
00010000
00100000
01000000
10000000
00100000
01000000
00010000
00100000
,  // measure 77
00001000
00010000
00000100
00001000
00000010
00000100
00000001
00001000
,  // measure 78
00000200
00010300
00020000
00031000
,  // measure 79
00002000
00000000
01003000
00000000
01100000
00100000
10000000
01000000
,  // measure 80
00200000
00310000
00010000
01000000
00001000
00010000
00100000
00001000
,  // measure 81
00000020
00000130
00000100
00000001
00000010
00001000
00010000
01000000
,  // measure 82
20000000
30100000
00100000
01000000
00020000
00130000
01000000
00010000
,  // measure 83
00002000
00003010
00000001
00000100
00000220
00000300
00001000
00020030
,  // measure 84
00000000
00100000
00100000
00031000
01001000
00000000
00010100
00000000
,  // measure 85
00011000
00000000
00000000
00000000
00001000
00010000
01000000
10000000
00100000
00000000
00000000
00000000
01000000
00000000
00000000
00000000
,  // measure 86
00010000
00100000
00010000
00000000
01000000
00000000
00200000
00000000
,  // measure 87
00000000
00000000
00310000
00001000
00000010
00000000
00001000
00010000
,  // measure 88
00100000
00000000
00010000
00000000
00001000
00000100
00000010
00000100
,  // measure 89
00002000
00013000
00010000
00000100
,  // measure 90
00000010
00000001
00000100
00000000
00001000
00000000
00010000
00000000
,  // measure 91
00001000
00000000
00022000
00000000
00033000
00000000
00010000
00000100
,  // measure 92
00001000
00000100
00000010
00000000
00000001
00000000
00000100
00001000
,  // measure 93
00010000
00001000
00000100
00000000
00001000
00010000
01000000
00010000
,  // measure 94
00001000
00010000
01000000
00000000
10000000
00000000
10200000
00000000
,  // measure 95
00000000
00000000
01300000
00010000
00100000
01000000
00100000
01000000
,  // measure 96
00010000
00000000
00001000
00000000
00100000
00010000
01000000
00010000
,  // measure 97
00100000
00000000
00001000
00000000
00010000
00000100
00001000
00000001
,  // measure 98
00000100
00000010
00001000
00000100
00000010
00000001
00001000
00000010
,  // measure 99
00010000
00000000
00001000
00000000
02002000
03003000
00000000
00000000
00220000
00330000
00000000
00000000
22000000
33000000
00000000
00000000
,  // measure 100
00202000
00303000
00000000
00000000
00020020
00030030
00000000
00000000
00000202
00000303
00000000
00000000
00002020
00003030
00000000
00000000
,  // measure 101
00022000
00000000
00000000
00000000
,  // measure 102
00033000
00000000
00000000
00000000
;
