#VERSION:0.83;
#TITLE:Stolen Memory;
#SUBTITLE:;
#ARTIST:Pierre Blanche;
#TITLETRANSLIT:;
#SUBTITLETRANSLIT:;
#ARTISTTRANSLIT:;
#GENRE:BASS HARDCORE;
#ORIGIN:;
#CREDIT:;
#BANNER:Stolen Memory.png;
#BACKGROUND:Stolen Memory-bg.png;
#PREVIEWVID:;
#JACKET:Stolen Memory-jacket.png;
#CDIMAGE:;
#DISCIMAGE:;
#LYRICSPATH:Stolen Memory.lrc;
#CDTITLE:;
#MUSIC:Stolen Memory.ogg;
#OFFSET:-0.002000;
#SAMPLESTART:77.566360;
#SAMPLELENGTH:11.999998;
#SELECTABLE:YES;
#DISPLAYBPM:92.000000:200.000000;
#BPMS:0.000=190.000,
96.000=95.000,
112.000=380.000,
116.000=190.000,
148.000=95.000,
152.000=92.500,
168.000=185.000,
200.000=190.000,
272.000=200.000;
#STOPS:112.000=0.158,
113.000=0.158,
114.000=0.158,
115.000=0.158;
#DELAYS:;
#WARPS:;
#TIMESIGNATURES:0.000=4=4;
#TICKCOUNTS:0.000=4;
#COMBOS:0.000=1;
#SPEEDS:0.000=1.000=0.000=0;
#SCROLLS:;
#FAKES:;
#LABELS:0.000=Song Start;
#BGCHANGES:0.000=Stolen Memory.mp4=1.000=0=0=0=StretchNoLoop====,
99999=-nosongbg-=1.000=0=0=0 // don't automatically add -songbackground-
;
#KEYSOUNDS:;
#ATTACKS:
;

//---------------dance-single - ----------------
#NOTEDATA:;
#CHARTNAME:;
#STEPSTYPE:dance-single;
#DESCRIPTION:;
#CHARTSTYLE:;
#DIFFICULTY:Hard;
#METER:15;
#RADARVALUES:0.684370,1.093981,0.251695,0.402712,0.335593,571.000000,541.000000,30.000000,48.000000,0.000000,0.000000,0.000000,0.000000,0.000000,0.684370,1.093981,0.251695,0.402712,0.335593,571.000000,541.000000,30.000000,48.000000,0.000000,0.000000,0.000000,0.000000,0.000000;
#CREDIT:Ben Speirs;
#DISPLAYBPM:92.000000:200.000000;
#NOTES:
0000
0000
0000
0000
,
0000
0000
0000
0000
,
0000
0000
0000
0000
,
0000
0000
0000
0000
,
0000
0000
0000
0000
,
0000
0000
0000
0000
,
0000
0000
0000
0000
,
0000
0000
0000
0000
,
1000
0000
1020
0000
0130
1000
0100
0002
,
0010
0000
1003
0000
0000
0001
0010
0100
,
2000
0000
0010
0000
3001
0100
0010
0000
,
1000
0000
0100
0000
0010
0000
0002
0000
0000
0000
0103
0010
0100
0000
0001
0000
,
1000
0000
0201
0000
0310
0001
0010
2000
,
0100
0000
3001
0000
0000
1000
0100
0010
,
0002
0000
0100
0000
1003
0010
0103
0000
,
0001
0000
0010
0000
0100
0000
0000
0000
1000
0000
0001
0100
0001
0000
1000
0000
,
0200
0000
0310
0010
0002
0000
1003
0000
,
0001
0001
0100
0000
0020
0000
0130
0031
,
2000
0000
3001
0001
0020
0000
0130
0000
,
1000
1000
0001
0000
2000
0000
3010
0010
,
1000
0100
0010
0100
0001
0100
0010
0100
,
1000
0010
0100
0010
0001
0010
0100
0010
,
1010
0110
0101
0110
,
0001
1000
0001
0010
0010
0100
1003
0001
,
0101
0000
1000
0100
0010
0000
0001
0001
0100
0010
0100
0000
0001
0001
1000
1000
,
0100
0000
1000
0001
1000
0000
0010
0000
0100
0000
0000
0000
0001
0000
0100
0000
0010
0000
0000
0000
1000
0000
0100
0000
0010
0000
0000
0000
0001
0000
1000
0000
,
0001
0000
0000
0000
0000
0000
0100
0000
0000
0000
0000
0000
0001
0000
0000
0000
0000
0000
0100
0000
0000
0000
0000
0000
0001
0000
0000
0000
0000
0000
0000
0000
0000
0000
0000
0000
1000
0000
0000
0000
0000
0000
0000
0000
0000
0000
0000
0000
1000
0000
0000
0000
0000
0000
0000
0000
0000
0000
0000
0000
0000
0000
0000
0000
0000
0000
0000
0000
0000
0000
0000
0000
0001
0000
0000
0000
0000
0000
0000
0000
0000
0000
0000
0000
0010
0000
0000
0000
0000
0000
0000
0000
0000
0000
0000
0000
0100
0000
0000
0000
0000
0000
0000
0000
0000
0000
0000
0000
0000
0000
0000
0000
0000
0000
0000
0000
0000
0000
0000
0000
0100
0000
0000
0000
0000
0000
0000
0000
0000
0000
0000
0000
0000
0000
0000
0000
0000
0000
0000
0000
0000
0000
0000
0000
1000
0000
0000
0000
0000
0000
0000
0000
0000
0000
0000
0000
0000
0000
0000
0000
0000
0000
0000
0000
0000
0000
0000
0000
0001
0000
0000
0000
0000
0000
0000
0000
0100
0000
0000
0000
0000
0000
0000
0000
0001
0000
0000
0000
0000
0000
0000
0000
,
0100
0000
0001
0000
1000
0000
0001
1000
0001
0010
0100
1000
0010
0100
0001
1003
,
0001
0000
0000
0110
,
1001
0000
0001
0100
0010
0010
1000
0001
,
1000
0000
1000
0000
0010
0000
1000
0100
0010
0000
0001
0000
0100
0000
0010
0000
,
1000
0001
1000
0000
0001
0000
0100
0010
0100
0010
0100
0000
0001
0000
1000
0000
,
0200
0000
0320
0000
0031
0001
1000
1000
,
0020
0000
1030
0100
0100
0010
0001
1000
,
0010
0000
0010
0000
0100
0000
0001
0010
0100
0000
1000
0000
0001
0000
0100
0000
,
0010
0100
0010
0000
1000
0000
0001
0010
0001
0010
0001
0000
1000
0000
0010
0000
,
0100
0000
0100
0000
0010
0000
1000
0000
0001
0000
0010
0000
0100
0000
1000
0001
,
1000
0000
0000
0000
,
0002
0000
0000
0000
0000
0000
0000
0000
0200
0000
0000
0000
0000
0000
0003
0320
,
2000
0000
0000
0000
0000
0000
0000
0000
0000
0000
0000
0030
3002
0000
0000
0000
,
2000
0000
0000
0000
0000
0000
0000
0003
0200
0000
0000
0000
0000
0000
3000
0320
,
0002
0000
0000
0000
0000
0000
0000
0030
2000
0000
0000
0000
0000
0000
3003
0000
,
0101
0000
1000
0100
0010
0001
0100
0010
,
2000
0000
3020
0000
0032
0000
0013
1000
,
0200
0000
0302
0000
0203
0000
1300
0010
,
0200
0310
0220
0330
,
0001
0100
0010
1000
0100
0010
0001
1000
,
0002
0000
0233
0000
2300
0000
3100
0001
,
0020
0000
1030
0010
0100
0010
0001
1000
,
0020
0000
0230
0000
0301
1000
0001
1000
,
1100
0000
0001
0101
0000
1000
1001
0001
,
0101
0000
0000
0000
1010
0000
0000
0000
1001
0000
0000
0000
0001
1000
0001
1000
,
0001
0100
0010
0100
0001
0010
0100
1000
,
0001
0010
0001
1000
0010
0100
0001
1000
,
1000
0001
0010
0100
1000
0010
0100
0001
,
1000
0100
0010
0000
0001
0000
1000
0100
0010
0000
0001
0000
1000
0001
1000
0000
,
0001
0100
0010
1000
0100
0001
0100
1000
,
0010
0100
0001
0010
1000
0010
0001
0100
,
0100
0010
1000
0001
1000
0100
0010
0001
,
1000
0010
0100
0000
0001
0010
0100
0000
1000
0100
1000
0000
0001
0100
0001
0000
,
1000
0000
0010
0000
1010
0000
0000
0000
1001
0000
0000
0000
1000
0100
1000
0100
,
0010
0000
0000
0000
0011
0000
0000
0000
1001
0000
0000
0000
0001
0000
0100
0010
,
1000
1010
1001
0101
,
0001
0010
0100
0000
1000
0000
0001
0010
0100
0000
1000
0000
0001
1000
0001
0000
,
1000
0100
1000
0100
0010
0000
0010
0000
0001
1000
0001
0000
0100
0010
0100
0000
,
0001
0000
0000
0000
0101
0000
0000
0000
1000
0100
1000
0000
0100
0000
0010
0000
,
0001
0100
0001
0100
0001
0000
0000
0000
1000
0010
1000
0010
1000
0000
0000
0000
,
2002
0000
0000
3003
,
0102
0000
1003
0100
0010
0001
0100
0010
,
2000
0000
0000
3001
,
1000
0010
0010
0100
0010
0000
1000
0100
,
0020
0000
0000
0000
0031
1000
0001
1000
,
0010
0100
0010
0000
0100
0000
0001
0000
1000
0000
0000
0000
0001
0000
0010
0000
,
0200
0000
1300
0000
,
0001
0000
0101
0000
,
1000
0000
0100
0000
0000
0000
0100
0000
0010
0000
0001
0000
1000
0001
1000
0001
,
1000
0000
0010
0000
1000
0000
0001
0000
1000
0000
0100
0000
1000
0010
1000
0000
,
0001
0000
0010
0000
0001
0000
1000
0000
0001
0000
0100
0000
0001
1000
0001
0000
,
1000
0000
0010
0000
0100
0000
0010
0000
0001
0000
0010
0000
0100
0010
0100
0000
,
0001
0000
0100
0000
0010
0000
0100
0000
1000
0000
0100
0000
0010
0100
0010
0000
,
1000
0001
1000
0001
0010
0000
0001
0000
1000
0010
1000
0000
0001
0100
0001
0000
,
1000
0000
0100
0000
0010
0000
0001
0000
0100
0010
0100
0000
0001
1000
0001
0000
,
0100
0000
0000
0000
0101
0000
0000
0000
1010
0000
0000
0000
0001
1000
0001
1000
,
0001
0000
1000
0100
0010
0000
0001
0100
0010
0000
1000
0000
0001
0000
0020
0000
,
0000
0330
0000
0000
0000
0000
0000
0000
;

//---------------dance-single - ----------------
#NOTEDATA:;
#CHARTNAME:;
#STEPSTYPE:dance-single;
#DESCRIPTION:;
#CHARTSTYLE:;
#DIFFICULTY:Challenge;
#METER:17;
#RADARVALUES:0.780254,1.305719,0.285254,0.696355,0.704745,651.000000,617.000000,34.000000,83.000000,0.000000,0.000000,0.000000,0.000000,0.000000,0.780254,1.305719,0.285254,0.696355,0.704745,651.000000,617.000000,34.000000,83.000000,0.000000,0.000000,0.000000,0.000000,0.000000;
#CREDIT:Ben Speirs;
#DISPLAYBPM:92.000000:200.000000;
#NOTES:
0000
0000
0000
0000
,
0000
0000
0000
0000
,
0000
0000
0000
0000
,
0000
0000
0000
0000
,
0000
0000
0000
0000
,
0000
0000
0000
0000
,
0000
0000
0000
0000
,
0000
0000
0000
0000
,
1000
0001
0200
0000
1300
0100
0001
0020
,
0100
0000
1000
0000
0031
1000
0010
0100
,
0020
0000
0031
0000
0010
1000
0001
0000
,
1000
0000
0100
0000
0010
0000
0002
0000
0000
0000
0103
0010
0100
0000
0001
0000
,
1000
0000
0201
0000
0310
0001
0010
2000
,
0100
0000
3001
0000
1000
0200
0001
0000
,
0320
0000
0001
0000
0130
1000
0001
0000
,
1000
0000
0001
0000
0100
0000
0010
0000
1000
0000
0100
0010
0100
0000
1000
0000
,
0002
0000
0010
0010
2003
0000
0010
0000
,
3002
0010
0010
0000
2003
0000
3010
1000
,
0002
0000
0100
0100
2003
0000
0100
0000
,
3002
0100
0100
0000
2003
0000
3100
0000
,
1000
0100
0010
0100
0001
0100
0010
0010
,
0001
0100
0010
0100
1000
0100
0010
0010
,
1000
0000
0001
0100
0010
0000
1000
0100
0010
0000
0001
1000
0010
0000
1000
0001
,
0020
0000
0130
0100
1000
0001
1000
0010
,
0110
0000
0000
0000
0001
0000
0100
0000
0101
0000
0000
0000
1000
0000
0001
0000
1000
0000
0100
0000
0020
0000
0000
0000
0031
0100
0001
0100
0010
1000
0010
1000
,
0001
0000
0100
0010
0100
0000
0001
0000
1000
0000
0000
0000
0001
0000
0010
0000
0010
0000
0100
0000
1000
0000
0000
0000
1010
0000
0000
0000
0110
0000
0000
0000
,
0001
0000
0000
0000
0000
0000
0100
0000
0000
0000
0000
0000
0010
0000
0000
0000
0000
0000
0100
0000
0000
0000
0000
0000
0001
0000
0000
0000
0000
0000
0000
0000
0000
0000
0000
0000
1000
0000
0000
0000
0000
0000
0000
0000
0000
0000
0000
0000
0100
0000
0000
0000
0000
0000
0000
0000
0000
0000
0000
0000
0000
0000
0000
0000
0000
0000
0000
0000
0000
0000
0000
0000
1000
0000
0000
0000
0000
0000
0000
0000
0000
0000
0000
0000
0010
0000
0000
0000
0000
0000
0000
0000
0000
0000
0000
0000
1010
0000
0000
0000
0000
0000
0000
0000
0000
0000
0000
0000
0000
0000
0000
0000
0000
0000
0000
0000
0000
0000
0000
0000
1010
0000
0000
0000
0000
0000
0000
0000
0000
0000
0000
0000
0000
0000
0000
0000
0000
0000
0000
0000
0000
0000
0000
0000
0001
0000
0000
0000
0000
0000
0000
0000
0000
0000
0000
0000
1000
0000
0000
0000
0000
0000
0000
0000
0000
0000
0000
0000
0001
0000
0000
0000
0000
0000
0000
0000
0010
0000
0000
0000
0000
0000
0000
0000
0001
0000
0000
0000
0000
0000
0000
0000
,
0010
0000
0011
0000
0001
1000
0010
0100
0010
0010
1000
0001
0010
0010
0100
1000
,
0001
0000
0000
0110
,
1001
0000
0000
0000
0000
0000
0000
0000
0001
0000
0000
0000
0200
0300
0000
0000
0200
0300
0000
0000
1000
0000
0000
0000
0100
0000
0000
0000
0020
0030
0000
0000
,
0020
0030
0000
0000
1000
0000
0000
0000
0100
0000
0000
0000
0010
0000
0001
0000
1000
0000
0000
0000
0001
0000
0000
0000
0100
0000
0000
0000
0010
0000
0000
0000
,
1000
0000
0001
0000
1000
0000
0000
0000
0001
0000
0000
0000
0100
0000
0010
0000
0100
0000
0010
0000
0100
0000
0000
0000
0020
0030
0000
0000
0020
0030
0000
0000
,
0002
0000
0000
0000
0100
0000
0000
0000
2003
0000
0000
0000
0000
0000
0000
0000
3203
0300
0000
0000
0200
0300
0000
0000
0200
0300
0000
0000
0200
0300
0000
0000
,
0020
0000
0000
0000
0000
0000
0000
0000
1030
0000
0000
0000
0200
0300
0000
0000
0200
0300
0000
0000
0001
0000
0000
0000
0010
0000
0000
0000
0001
0000
0000
0000
,
1000
0000
0010
0000
0130
0000
0030
0000
0001
0000
0010
0000
0100
0000
0000
0000
1000
0000
0000
0000
0001
0000
0000
0000
0200
0300
0000
0000
0200
0300
0000
0000
,
1000
0000
0000
0010
0000
0000
1000
0000
0000
0000
0000
0000
0001
0000
0000
0000
0000
0000
1000
0000
0000
0100
0000
0000
1000
0000
0000
0100
0000
0000
0010
0000
0000
0000
0000
0000
0001
0000
0000
0000
1000
0000
0000
0000
0001
0000
0000
0000
,
1000
0000
0000
0000
1000
0000
0000
0000
0020
0030
0000
0000
0020
0030
0000
0000
0002
0000
0000
0000
0010
0000
0000
0000
1003
0000
0000
0000
0001
0000
1000
0000
,
0001
0000
0000
0000
,
2200
0000
0000
0000
0000
0000
0300
0000
0020
0000
0000
0000
0000
0000
3000
0230
,
0002
0000
0000
0000
0000
0000
0000
0000
0000
0000
0000
0300
1003
0000
0000
0002
,
0020
0000
0000
0000
0000
0000
0030
0000
0200
0000
0000
0000
0000
0000
0003
0320
,
2000
0000
0000
0000
0000
0000
0000
0030
0002
0000
0000
0030
0000
0000
3003
3003
,
0001
0100
0010
1000
0100
0001
0100
1000
,
0020
0000
0032
0000
0023
0000
0130
0001
,
0020
0000
2030
0000
3020
0000
0130
0010
,
0002
1003
2002
3003
,
0001
0100
0010
1000
0100
0001
0100
1000
,
0020
0000
0032
0000
0023
0000
1030
0001
,
0020
0000
1030
0010
0100
0010
0001
1000
,
0010
0010
0130
0100
0001
0010
0100
1000
,
1010
0010
0100
0110
0100
0001
0101
1000
,
1001
0000
0000
0000
0110
0000
0000
0000
1001
0000
0000
0000
0001
0010
0100
1000
,
0001
0100
0010
1000
0100
0001
0100
1000
,
0010
0000
0000
0000
0100
0000
0000
0000
0001
0000
0000
0000
1000
0000
0000
0000
0100
0000
0000
0000
0010
0000
0000
0000
0001
0000
0000
0000
0200
0300
0000
0000
,
0200
0300
0000
0000
1000
0000
0000
0000
0001
0000
0000
0000
0100
0000
0000
0000
0010
0000
0000
0000
1000
0000
0000
0000
0100
0000
0000
0000
0010
0000
0000
0000
,
0001
0100
0010
1000
0010
1000
0001
0010
0100
1000
0100
1000
0001
0100
0010
1000
,
0001
0100
0010
1000
0100
0010
0001
0100
,
0010
0000
0000
0000
1000
0000
0000
0000
0001
0000
0000
0000
0010
0000
0000
0000
0100
0000
0000
0000
1000
0000
0000
0000
0001
0000
0000
0000
0200
0330
0300
0000
,
0200
0330
0300
0000
1000
0000
0000
0000
0010
0000
0000
0000
0100
0000
0000
0000
0001
0000
0000
0000
0010
0000
0000
0000
0100
0000
0000
0000
1000
0000
0000
0000
,
0001
0100
0001
0100
0010
1000
0010
1000
0001
0010
0100
1000
0010
0100
0001
1000
,
0001
0000
0100
0000
0101
0000
0100
0000
0120
0000
0000
0000
1030
0100
0010
0001
,
1000
0000
0000
0000
0010
0000
0000
0000
1010
0000
0000
0000
0010
0000
0030
0000
0210
0000
0000
0000
0000
0000
0000
0000
0301
0000
0000
0000
0020
0030
0000
0000
,
0020
0030
0000
0000
1000
0000
0000
0000
1100
0000
0000
0000
0000
0000
0000
0000
0011
0000
0000
0000
0001
0000
0000
0000
1001
0000
0000
0000
0000
0000
0000
0000
,
1000
0010
0100
0001
0100
0001
1000
0100
0010
0001
0010
0001
1000
0010
0100
0001
,
1000
0100
1000
0100
0020
0000
0332
0000
1003
0010
1000
0010
0100
0001
1000
0000
,
1010
0000
0000
0000
0000
0000
0000
0000
0101
0000
0000
0000
0000
0000
0000
0000
1000
0000
0001
0000
1000
0000
0001
0000
1000
0000
0100
0000
0020
0330
0000
0000
,
0020
0330
1000
0000
0001
0000
1000
0000
0010
0000
0000
0000
0000
0000
0000
0000
1000
0000
0001
0000
0010
0000
0001
0000
1000
0000
0000
0000
0000
0000
0000
0000
,
0001
0100
0001
0100
0010
1000
0010
1000
0001
0010
0100
1000
0010
0100
0001
1000
,
0002
0000
0103
1000
0100
0301
0010
0100
,
2000
0000
0000
0000
0000
0000
3310
3100
,
0001
0000
1000
0010
1000
0000
0100
0000
0020
0000
0000
0000
0000
0000
0000
0000
,
0031
0000
0000
0000
0000
0000
0000
0000
0001
0100
0001
0000
1000
0100
1000
0000
,
0001
1000
0001
1000
0010
0000
0010
0000
0100
0000
0000
0000
0001
0000
0100
0000
,
0020
0000
1030
0000
,
2000
0000
3031
0000
,
0011
0010
0100
0110
0100
1000
1002
0000
,
1003
0100
1000
0000
0001
0100
0001
0000
1000
0010
1000
0000
0001
0100
0001
0000
,
1000
0010
0100
0000
0001
0010
0100
0000
1000
0001
0100
0000
0001
1000
0100
0000
,
1000
0010
1000
0000
0010
0100
0010
0000
0100
0001
0100
0000
0001
0010
0100
0000
,
1000
0100
1000
0000
0100
0010
0100
0000
0010
0001
0010
0000
0001
0100
0010
0000
,
1000
0100
1000
0100
0020
0000
0032
0000
1003
0010
1000
0010
0100
0001
1000
0000
,
1010
0000
0000
0000
0000
0000
0000
0000
0101
0000
0000
0000
0000
0000
0000
0000
1000
0000
0001
0000
1000
0000
0001
0000
1000
0000
0100
0000
0010
0300
0001
0000
,
1000
0300
0000
0000
0000
0000
0000
0000
1100
0000
0000
0000
0000
0000
0000
0000
1001
0000
0000
0000
0000
0000
0000
0000
0001
0000
0100
0000
0001
0000
0100
0000
,
0001
0000
1000
0010
0100
0000
0001
0010
0100
1000
0010
0100
0001
1000
0200
0000
,
0000
0333
0000
0000
0000
0000
0000
0000
;

//---------------dance-single - ----------------
#NOTEDATA:;
#CHARTNAME:;
#STEPSTYPE:dance-single;
#DESCRIPTION:;
#CHARTSTYLE:;
#DIFFICULTY:Medium;
#METER:13;
#RADARVALUES:0.583692,0.846953,0.402712,0.419491,0.125847,487.000000,439.000000,48.000000,50.000000,0.000000,0.000000,0.000000,0.000000,0.000000,0.583692,0.846953,0.402712,0.419491,0.125847,487.000000,439.000000,48.000000,50.000000,0.000000,0.000000,0.000000,0.000000,0.000000;
#CREDIT:Ben Speirs;
#DISPLAYBPM:92.000000:200.000000;
#NOTES:
0000
0000
0000
0000
,
0000
0000
0000
0000
,
0000
0000
0000
0000
,
0000
0000
0000
0000
,
0000
0000
0000
0000
,
0000
0000
0000
0000
,
0000
0000
0000
0000
,
0000
0000
0000
0000
,
1000
0000
1020
0000
0130
0002
0000
1003
,
0200
0000
0310
0000
0001
0010
0100
1000
,
0020
0000
0130
0000
0000
0001
1000
0000
,
0001
0100
1000
0200
0000
0310
1000
0001
,
1000
0000
0021
0000
0130
2000
0000
3001
,
0200
0000
0310
0000
1000
0001
0010
0100
,
2000
0000
3100
0000
0000
1000
0001
0000
,
1000
0010
0100
0001
0010
0100
1000
0001
,
2000
0000
0010
0000
0000
0001
0000
3001
,
0000
1000
0100
0000
1100
0000
0100
0010
,
0001
0000
1000
0010
0000
0010
0100
0000
,
0001
0010
0000
0010
0100
0000
1000
0001
,
1000
0010
1000
0010
0100
0010
0100
0010
,
0001
0010
0001
0010
0100
0010
0100
0010
,
2000
3200
0320
0032
,
0103
0010
0000
0010
0000
1000
0100
0010
,
0001
0000
1000
0100
1000
0000
0001
0000
0100
0010
0100
0000
0001
0100
0010
1000
,
0001
0000
0010
0100
0010
0000
0001
0000
0100
0000
0001
1000
0010
0000
0010
0000
,
1000
0100
1000
0100
1000
0000
0000
0000
0001
0000
0101
0000
1000
0000
0000
0000
,
1000
0000
1100
0000
0001
0000
0000
0000
1000
0001
1000
0001
0100
0010
0100
0000
,
0000
0000
0000
0110
,
2001
0000
3001
0100
0100
0010
1000
0100
,
0200
0301
0200
1300
,
0001
1000
0010
0100
0010
0010
1000
0001
,
0011
0000
1100
0000
0001
1000
0001
1000
,
0020
0000
1030
0100
0100
0010
0001
0100
,
0200
1300
0200
0301
,
1000
0100
0010
0001
0100
0100
0010
0010
,
1000
0000
0100
0000
0010
0000
0001
0000
1000
0000
0001
0000
0100
0000
0010
0100
,
0010
0000
0000
0000
,
2000
0000
3200
0000
,
0320
0000
0000
0331
,
0002
0000
0203
0000
,
0320
0000
2330
0000
,
3001
0000
1000
0000
0010
1000
0100
0000
,
1100
0000
0110
0000
0011
0000
1000
0001
,
0101
0000
0110
0000
1010
0000
1000
0100
,
1100
0110
2002
3003
,
0001
0000
0100
0000
0010
0000
1000
0100
,
1100
0000
0110
0000
0011
0000
1000
0001
,
0100
0010
1000
0100
0010
0001
1000
0001
,
0200
0000
0320
0000
1030
0100
0010
0000
,
0011
0000
0000
1100
0000
0001
0100
0000
,
0101
0003
0000
0000
1010
0000
0000
0000
1001
0000
0000
0000
1000
0001
1000
0000
,
0020
0000
0130
0001
1000
0001
0010
0100
,
2300
0000
3010
0100
0010
1000
0100
0010
,
0020
0000
0031
1000
0001
0100
0010
1000
,
0001
0100
0001
0000
0000
0000
1000
0100
1000
0000
0000
0000
0001
1000
0001
0000
,
0200
0000
0310
1000
0001
1000
0100
0010
,
0032
0000
0103
0010
0100
0001
0010
0100
,
0200
0000
1300
0001
1000
0010
0100
0001
,
0101
0000
1000
1100
0000
0001
1001
0000
,
1010
0000
0000
0000
0110
0000
0000
0000
0101
0000
0000
0000
0001
1000
0001
0000
,
0010
0000
0011
0000
0110
0000
1000
0001
,
1000
1010
0110
0101
,
1000
0010
1000
0000
0000
0000
0001
0010
0001
0000
0000
0000
1000
0001
1000
0000
,
0010
0000
0100
0000
0001
0000
1000
0000
0100
0000
0010
0000
0001
1000
0001
0000
,
0100
0000
0000
0000
0101
0000
0000
0000
1000
0100
1000
0000
0001
0000
0000
0000
,
1000
0010
1010
0000
0001
0010
0011
0000
,
2002
0000
0000
3003
,
0002
0100
1000
0010
,
2000
0000
0000
3003
,
2000
0100
0001
0010
,
0002
0000
3003
0000
1000
0100
0010
0001
,
0200
1000
0010
0001
,
0020
0000
0330
0000
,
0220
0330
2002
3003
,
0001
0100
1000
0100
0001
0010
0100
0000
,
1000
0100
1000
0000
0100
0000
1000
0000
0100
0000
1000
0000
0100
0000
1000
0000
,
0001
0100
0001
0000
0100
0000
0001
0000
0100
0000
0001
0000
0100
0000
0001
0000
,
1000
0010
1000
0000
0010
0000
1000
0000
0010
0000
1000
0000
0010
0000
1000
0000
,
0001
0010
0001
0000
0010
0000
0001
0000
0010
0000
0001
0000
0010
0000
0001
0000
,
1000
0010
0100
0001
0010
0100
1000
0001
,
0101
0000
0000
0000
1010
0000
0000
0000
0001
0010
0000
0010
0100
0000
0000
0000
,
1100
0000
0000
0000
0011
0000
0000
0000
1001
0000
0000
0000
1000
0001
1000
0000
,
0010
0100
0001
0010
0100
1000
0010
0200
,
0000
0300
0000
0000
0000
0000
0000
0000
;

//---------------dance-single - ----------------
#NOTEDATA:;
#CHARTNAME:;
#STEPSTYPE:dance-single;
#DESCRIPTION:;
#CHARTSTYLE:;
#DIFFICULTY:Easy;
#METER:9;
#RADARVALUES:0.389528,0.564635,0.201356,0.453051,0.000000,325.000000,301.000000,24.000000,54.000000,0.000000,0.000000,0.000000,0.000000,0.000000,0.389528,0.564635,0.201356,0.453051,0.000000,325.000000,301.000000,24.000000,54.000000,0.000000,0.000000,0.000000,0.000000,0.000000;
#CREDIT:Ben Speirs;
#DISPLAYBPM:92.000000:200.000000;
#NOTES:
0000
0000
0000
0000
,
0000
0000
0000
0000
,
0000
0000
0000
0000
,
0000
0000
0000
0000
,
0000
0000
0000
0000
,
0000
0000
0000
0000
,
0000
0000
0000
0000
,
0000
0000
0000
0000
,
0001
0000
0100
0000
0000
0001
0100
0000
,
0010
0000
1000
0000
0000
0010
1000
0000
,
0001
0000
0010
0000
0000
0001
0010
0000
,
0001
0000
1000
0010
0000
0010
0100
0000
,
0001
0000
1000
0000
0000
1000
0100
0000
,
0010
0000
0001
0000
0000
0001
0100
0000
,
0010
0000
1000
0000
0000
1000
0001
0000
,
1000
0100
0010
0001
,
0200
0310
2000
3100
,
0020
0031
2000
3001
,
0002
0103
0020
1030
,
0002
0013
0200
1300
,
0001
0100
0001
0000
0100
0000
0100
0000
,
0010
1000
0010
0000
1000
0000
1000
0000
,
0002
0023
0230
2300
,
3020
0000
0000
0030
,
1001
0000
1000
0100
0100
0010
0001
0000
,
1000
0000
0001
0100
0100
0010
1000
0000
,
0001
0100
1001
0000
1000
1000
0100
0000
,
0010
0010
0001
0000
1000
0001
0100
0010
,
0000
0000
0000
0110
,
1001
0000
0000
1000
0100
0000
1000
0001
,
2000
3010
2000
3001
,
1000
0000
0000
0001
0010
0000
0001
0000
,
0100
0000
0100
0000
0001
1000
0001
1000
,
0000
0000
0000
0001
0100
0000
0001
1000
,
0002
0013
0002
1003
,
0001
0000
0000
1000
0100
0000
1000
0000
,
0010
0000
0010
0000
1000
0001
1000
0001
,
0100
0000
0000
0000
,
1002
0000
0023
0000
,
0230
0000
0000
0300
,
2000
0000
3020
0000
,
0230
0000
0302
0000
,
1003
0000
0000
0000
0000
0001
0010
0100
,
1000
0000
1000
0000
1000
0000
0001
0100
,
0010
0000
0010
0000
0010
0000
1000
0100
,
0010
0010
2002
0000
,
3003
0000
0000
0000
0000
0000
1000
0100
,
0010
0000
0010
0000
0010
0000
0001
1000
,
0001
0000
1000
0010
0000
0010
0100
0000
,
0002
2003
3100
0010
,
0110
0000
0000
1001
0000
0000
0110
0000
,
1001
1001
2002
3003
,
0002
0000
0013
0000
0001
0100
0001
0000
,
2000
0000
3010
0000
1000
0100
1000
0000
,
0020
0100
0100
0100
,
1030
0010
0000
0100
0001
0000
1001
0000
,
2000
0000
3100
0000
1000
0010
1000
0000
,
0002
0000
0103
0000
0001
0010
0001
0000
,
0200
0010
0010
0010
,
0302
0023
0230
1300
,
1001
0000
1001
0000
1001
0000
1000
0001
,
0100
0000
0110
0000
0110
0000
0001
0010
,
0100
1001
1001
1001
,
1000
0010
0000
0010
0100
0000
0001
0000
,
1000
0100
1000
0000
0001
0100
0001
0000
,
2000
3002
0203
0310
,
1000
0100
0010
0000
0001
0100
0010
0000
,
2002
0000
0000
3003
,
0002
0000
0100
0000
,
1003
0000
0000
0000
,
2000
0000
0100
0000
,
3001
0000
0000
0000
,
0002
0000
0010
0000
,
2003
0000
0010
0000
,
3002
0000
0100
0000
,
1003
0100
0010
0001
,
1000
0010
1000
0000
0010
0000
0010
0000
,
0100
0001
0100
0000
0001
0000
0001
0000
,
1000
0100
1000
0000
0100
0000
0100
0000
,
0010
0001
0010
0000
0001
0000
0001
0000
,
2000
0010
0010
0010
,
3002
0010
0010
2003
,
3200
0010
0010
0310
,
0110
0000
0110
0000
0001
0010
0100
2000
,
0000
3000
0000
0000
0000
0000
0000
0000
;

//---------------dance-single - ----------------
#NOTEDATA:;
#CHARTNAME:;
#STEPSTYPE:dance-single;
#DESCRIPTION:;
#CHARTSTYLE:;
#DIFFICULTY:Beginner;
#METER:5;
#RADARVALUES:0.201356,0.281059,0.050339,0.218135,0.000000,168.000000,162.000000,6.000000,26.000000,0.000000,0.000000,0.000000,0.000000,0.000000,0.201356,0.281059,0.050339,0.218135,0.000000,168.000000,162.000000,6.000000,26.000000,0.000000,0.000000,0.000000,0.000000,0.000000;
#CREDIT:Ben Speirs;
#DISPLAYBPM:92.000000:200.000000;
#NOTES:
0000
0000
0000
0000
,
0000
0000
0000
0000
,
0000
0000
0000
0000
,
0000
0000
0000
0000
,
0000
0000
0000
0000
,
0000
0000
0000
0000
,
0000
0000
0000
0000
,
0000
0000
0000
0000
,
1000
1000
0000
1000
,
0000
0100
0000
0100
,
0000
0010
0000
0010
,
0010
0000
0001
0000
,
1000
1000
0000
1000
,
0000
0001
0000
0001
,
0000
0100
0000
0100
,
0100
0000
0010
0000
,
1001
0000
1000
0000
,
2000
0000
3000
0000
,
0100
0000
0100
0000
,
0200
0000
0300
0000
,
0010
0010
0000
0000
,
0010
0010
0000
0000
,
0001
0001
0001
0001
,
0001
0000
0000
0000
,
2002
3003
1000
1000
,
0010
0000
0100
0000
,
0001
0001
0010
0000
,
0100
0100
1000
0000
,
0000
0000
0000
0000
,
1001
0000
0001
0000
,
0100
0100
0100
0100
,
0000
0000
0010
0000
,
0010
0010
0000
0000
,
1000
0000
1000
0000
,
0100
0100
0100
0100
,
0100
0000
0000
0000
,
1000
1000
1000
0000
,
1001
0000
0000
0000
,
0002
0003
0020
0030
,
0200
0000
0300
0000
,
2000
3000
0020
0030
,
0200
0000
0300
0000
,
0001
0000
0000
0000
,
1000
1000
1000
0000
,
0100
0100
0100
0000
,
0010
0010
0010
0000
,
0001
0000
0000
0000
,
1000
1000
1000
0000
,
0001
0000
0001
0001
,
0001
0000
0000
0000
,
0100
0000
0000
0000
,
0010
0010
0010
0000
,
2002
0000
0000
3003
,
2000
0000
0000
3000
,
0200
0000
0000
0300
,
1000
0100
0010
0001
,
0200
0000
0000
0300
,
0020
0000
0000
0030
,
2000
0000
0000
3000
,
0001
0010
0100
1000
,
0001
0001
0001
0000
,
1000
1000
1000
0000
,
0010
0010
0010
0000
,
0100
0000
0100
0000
,
0001
0001
0001
0000
,
0010
0010
0010
0000
,
0100
0100
0100
0000
,
2002
0000
0000
3003
,
2000
0000
0000
3000
,
0200
0000
0000
0300
,
0020
0000
0000
0030
,
0002
0000
0000
0003
,
2000
0000
0000
3000
,
0002
0000
0000
0003
,
0200
0000
0000
0300
,
0010
0000
0010
0000
,
1000
1000
0000
1000
,
0100
0100
0000
0100
,
0010
0010
0000
0010
,
0001
0001
0000
0001
,
1000
1000
1000
0000
,
0001
0001
0001
0000
,
0100
0100
0010
0010
,
1000
0100
0010
0001
;

//---------------dance-double - ----------------
#NOTEDATA:;
#CHARTNAME:;
#STEPSTYPE:dance-double;
#DESCRIPTION:;
#CHARTSTYLE:;
#DIFFICULTY:Challenge;
#METER:17;
#RADARVALUES:0.770665,1.270429,0.251695,0.755084,0.683771,643.000000,613.000000,30.000000,90.000000,0.000000,0.000000,0.000000,0.000000,0.000000,0.770665,1.270429,0.251695,0.755084,0.683771,643.000000,613.000000,30.000000,90.000000,0.000000,0.000000,0.000000,0.000000,0.000000;
#CREDIT:Ben Speirs;
#DISPLAYBPM:92.000000:200.000000;
#NOTES:
00000000
00000000
00000000
00000000
,
00000000
00000000
00000000
00000000
,
00000000
00000000
00000000
00000000
,
00000000
00000000
00000000
00000000
,
00000000
00000000
00000000
00000000
,
00000000
00000000
00000000
00000000
,
00000000
00000000
00000000
00000000
,
00000000
00000000
00000000
00000000
,
00001000
00000000
00201000
00000000
00310000
10000000
00100000
02000000
,
10000000
00000000
03010000
00000000
10000000
01000000
00100000
00001000
,
00020000
00000000
00130000
00000000
00010000
00001000
00100000
00000000
,
00001000
00000000
00010000
00000000
00000100
00000000
00000020
00000000
00000000
00000000
00000031
00001000
00000001
00000000
00000100
00000000
,
00000010
00000000
00002010
00000000
00033001
00000100
00000010
00000200
,
00001000
00000000
00000301
00000010
00000100
00020000
00000010
00000000
,
00032000
00000000
00000010
00000000
00013000
00001000
01000000
00000000
,
00001000
00000000
01000000
00000000
00100000
00000000
10000000
00000000
01000000
00000000
10000000
00010000
10000000
00000000
00100000
00000000
,
20000000
00000000
31000000
01000000
00200000
00000000
00320000
00000000
,
00031000
00001000
00000200
00000000
00000320
00000000
00000031
00001000
,
00000002
00000000
00000103
00000100
00000020
00000000
00002030
00000000
,
00013000
00010000
02000000
00000000
03200000
00000000
10300000
00010000
,
10000000
01000000
10000000
01000000
00010000
01000000
00010000
01000000
,
00010000
00001000
00010000
00001000
00000100
00000001
00000100
00000001
,
00001000
00000000
00000001
00000100
00000010
00000000
00001000
00000100
00000010
00000000
00000100
00010300
00001000
00000000
00010000
00001000
,
02000000
00000000
03100000
00100000
10000000
01000000
00100000
00001000
,
00102000
00000000
00000000
00000000
00013000
00000000
00010000
00000000
00000020
00000000
00000000
00000000
00000130
00000000
00000100
00000000
00000001
00000000
00000010
00000000
00000200
00000000
00000000
00000000
00001300
00000010
00001000
00000010
00010000
00000100
00010000
00000100
,
00010000
00000000
00001000
01000000
00100000
00000000
00100000
00000000
20000000
00000000
00000000
00000000
30010000
00000000
00100000
00000000
01000000
00000000
00000000
00000000
10000000
00000000
00100000
00000000
01000000
00000000
00000000
00000000
00001000
00000000
00001000
00000000
,
00010000
00000000
00000000
00000000
00000000
00000000
00000100
00000000
00000000
00000000
00000000
00000000
00010000
00000000
00000000
00000000
00000000
00000000
00000100
00000000
00000000
00000000
00000000
00000000
00010000
00000000
00000000
00000000
00000000
00000000
00000000
00000000
00000000
00000000
00000000
00000000
00000100
00000000
00000000
00000000
00000000
00000000
00000000
00000000
00000000
00000000
00000000
00000000
00001000
00000000
00000000
00000000
00000000
00000000
00000000
00000000
00000000
00000000
00000000
00000000
00000000
00000000
00000000
00000000
00000000
00000000
00000000
00000000
00000000
00000000
00000000
00000000
00000001
00000000
00000000
00000000
00000000
00000000
00000000
00000000
00000000
00000000
00000000
00000000
00000100
00000000
00000000
00000000
00000000
00000000
00000000
00000000
00000000
00000000
00000000
00000000
00000101
00000000
00000000
00000000
00000000
00000000
00000000
00000000
00000000
00000000
00000000
00000000
00000000
00000000
00000000
00000000
00000000
00000000
00000000
00000000
00000000
00000000
00000000
00000000
00000110
00000000
00000000
00000000
00000000
00000000
00000000
00000000
00000000
00000000
00000000
00000000
00000000
00000000
00000000
00000000
00000000
00000000
00000000
00000000
00000000
00000000
00000000
00000000
00001000
00000000
00000000
00000000
00000000
00000000
00000000
00000000
00000000
00000000
00000000
00000000
00000001
00000000
00000000
00000000
00000000
00000000
00000000
00000000
00000000
00000000
00000000
00000000
00001000
00000000
00000000
00000000
00000000
00000000
00000000
00000000
00000100
00000000
00000000
00000000
00000000
00000000
00000000
00000000
00001000
00000000
00000000
00000000
00000000
00000000
00000000
00000000
,
00000100
00000000
00010100
00000000
00010000
00001000
00010000
00001000
01000000
00100000
10000000
01000000
00100000
00001000
00010000
00000000
,
00000000
00000000
00000000
00100010
,
00012000
00000000
00000000
00000000
00000000
00000000
00000000
00000000
00013300
00000000
00000000
00000000
00002000
00003000
00000000
00000000
00002000
00003000
00000000
00000000
00000100
00000000
00000000
00000000
00000020
00000030
00000000
00000000
00000020
00000030
00000000
00000000
,
00001000
00000000
00000010
00000000
00000100
00000000
00000001
00000010
00000100
00000000
00001000
00000000
00000100
00000000
00010000
00000000
,
00001000
00000000
01000000
00000000
00001000
00000000
00000000
00000000
01000000
00000000
00000000
00000000
00010000
00000000
10000000
00000000
00010000
00000000
10000000
00000000
00010000
00000000
00000000
00000000
00200000
00300000
00000000
00000000
00200000
00300000
00000000
00000000
,
20000000
00000000
00000000
00000000
01000000
00000000
00000000
00000000
30020000
00000000
00000000
00000000
00000000
00000000
00000000
00000000
02030000
03000000
00000000
00000000
02000000
03000000
00000000
00000000
02000000
03000000
00000000
00000000
02000000
03000000
00000000
00000000
,
20000000
00000000
00000000
00000000
00000000
00000000
00000000
00000000
30100000
00000000
00000000
00000000
02000000
03000000
00000000
00000000
02000000
03000000
00000000
00000000
00100000
00000000
00000000
00000000
00001000
00000000
00000000
00000000
00010000
00000000
00000000
00000000
,
00000010
00000000
00010000
00000000
00001000
00000000
00000000
00000000
00010000
00000000
00000100
00000000
00000010
00000000
00000001
00000000
00001000
00000000
00000000
00000000
00000010
00000000
00000000
00000000
00000200
00000300
00000000
00000000
00000200
00000300
00000000
00000000
,
00010000
00000000
00000000
00000000
00000000
00000000
00000000
00000000
00000000
00000000
00000000
00000000
00001000
00000000
00000000
00000000
00000000
00000000
00000000
00000000
00000000
00000000
00000000
00000000
00010000
00000000
00000000
00000000
00000000
00000000
00000000
00000000
00000000
00000000
00000000
00000000
00000000
00000000
00000000
00000000
00000000
00000000
00000000
00000000
00000000
00000000
00000000
00000000
00000100
00000000
00000000
00000000
00000000
00000000
00000000
00000000
00000000
00000000
00000000
00000000
00000000
00000000
00000000
00000000
00000000
00000000
00000000
00000000
00000000
00000000
00000000
00000000
00002000
00000000
00000000
00000000
00000000
00000000
00003000
00000000
00000000
00000000
00000000
00000000
00000000
00000000
00000000
00000000
00000000
00000000
00000000
00000000
00000000
00000000
00000000
00000000
00002000
00000000
00000000
00000000
00000000
00000000
00003000
00000000
00000000
00000000
00000000
00000000
00000000
00000000
00000000
00000000
00000000
00000000
00000000
00000000
00000000
00000000
00000000
00000000
00100000
00000000
00000000
00000000
00000000
00000000
00000000
00000000
00000000
00000000
00000000
00000000
00000000
00000000
00000000
00000000
00000000
00000000
00000000
00000000
00000000
00000000
00000000
00000000
00010000
00000000
00000000
00000000
00000000
00000000
00000000
00000000
00000000
00000000
00000000
00000000
00000000
00000000
00000000
00000000
10000000
00000000
00000000
00000000
00000000
00000000
00000000
00000000
00000000
00000000
00000000
00000000
00000000
00000000
00000000
00000000
00010000
00000000
00000000
00000000
00000000
00000000
00000000
00000000
00000000
00000000
00000000
00000000
00000000
00000000
00000000
00000000
,
10000000
00000000
00000000
00000000
10000000
00000000
00000000
00000000
00200000
00300000
00000000
00000000
00200000
00300000
00000000
00000000
00020000
00000000
00000000
00000000
00100000
00000000
00000000
00000000
10030000
00000000
00000000
00000000
00010000
00000000
01000000
00000000
,
00100000
00000000
00000000
00000000
,
20200000
00000000
00000000
00000000
00000000
00000000
00000000
00300000
00020000
00000000
00000000
00000000
00000000
00000000
30000000
00230000
,
00002000
00000000
00000000
00000000
00000000
00000000
00000000
00000000
00000000
00000000
00000000
03300000
03020000
00000000
00003000
00030020
,
00002000
00000000
00000000
00000000
00000000
00000000
00000000
00000030
00000200
00000000
00000000
00000000
00000000
00000000
00003000
00000323
,
00000002
00000000
00000000
00000000
00000000
00000000
00000000
00000030
00002000
00000000
00000000
00000000
00003303
00000000
00000000
00000000
,
00001010
00000000
00000001
00000100
00001000
00000100
00000010
00010000
,
00002000
00000000
00003020
00000000
00020030
00000000
00130000
00001000
,
00020000
00000000
00230000
00000000
00302000
00000000
00003010
00010000
,
00002000
00013000
00022000
00033000
,
00001000
01000000
00100000
10000000
01000000
00010000
01000000
10000000
,
00200000
00000000
00320000
00000000
00032000
00000000
00003100
00000010
,
00001000
00000100
00000010
00000001
00000100
00000010
00001000
00000100
,
00010000
00010000
00001000
00001000
01000000
00100000
10000000
00010000
,
01010000
01000000
00000000
00011000
00010000
00000000
00001100
00000100
,
00001001
00000000
00000000
00000000
00000110
00000000
00000000
00000000
00001001
00000000
00000000
00000000
00000001
00000010
00000100
00001000
,
00000001
00000100
00000010
00001000
00000100
00000001
00000100
00001000
,
00000010
00000000
00000000
00000000
00010000
00000000
00000000
00000000
00001000
00000000
00000000
00000000
00100000
00000000
00000000
00000000
00001000
00000000
00000000
00000000
00010000
00000000
00000000
00000000
00000100
00000000
00000000
00000000
00020000
00030000
00000000
00000000
,
00020000
00030000
00000000
00000000
01000000
00000000
00000000
00000000
00100000
00000000
00000000
00000000
10000000
00000000
00000000
00000000
00010000
00000000
00000000
00000000
00100000
00000000
00000000
00000000
00001000
00000000
00000000
00000000
01000000
00000000
00000000
00000000
,
00010000
01000000
00010000
01000000
00100000
10000000
00010000
01000000
00010000
01000000
00100000
10000000
00010000
10000000
01000000
00100000
,
00010000
01000000
00100000
10000000
01000000
00100000
00001000
00010000
,
00000010
00000000
00000000
00000000
00000100
00000000
00000000
00000000
00000010
00000000
00000000
00000000
00001000
00000000
00000000
00000000
00000100
00000000
00000000
00000000
00010000
00000000
00000000
00000000
00001000
00000000
00000000
00000000
00020000
00030000
00000000
00000000
,
00020000
00030000
00000000
00000000
00100000
00000000
00000000
00000000
00001000
00000000
00000000
00000000
00010000
00000000
00000000
00000000
00000010
00000000
00000000
00000000
00000100
00000000
00000000
00000000
00000001
00000000
00000000
00000000
00001000
00000000
00000000
00000000
,
00000001
00000010
00000001
00000010
00000100
00001000
00000100
00001000
00000001
00000100
00000010
00001000
00000100
00000010
00000001
00001000
,
00000001
00000000
00000000
00000000
00000101
00000000
00000100
00000000
00000110
00000000
00000010
00000030
00001000
00000100
00010000
00001000
,
00100000
00000000
00000000
00000000
00000000
00000000
00000000
00000000
00110000
00000000
00000000
00000000
00010000
00000000
00000000
00000000
10010000
00000000
00000000
00000000
00000000
00000000
00000000
00000000
10000000
00000000
00000000
00000000
00200000
00300000
00000000
00000000
,
00200000
00300000
00000000
00000000
00010000
00000000
00000000
00000000
01010000
00000000
00000000
00000000
01000000
00000000
00000000
00000000
01100000
00000000
00000000
00000000
00000000
00000000
00000000
00000000
10020000
00000000
00000000
00000000
00000000
00000000
00000000
00000000
,
10030000
00100000
01000000
00010000
01000000
00010000
10000000
01000000
00100000
00001000
00100000
00001000
00010000
00001000
00010000
00000000
,
00000100
00001000
00000100
00001000
00000010
00000000
00000200
00000000
00000301
00000010
00000100
00001000
00000010
00000100
00000010
00000000
,
00001000
00000000
00000000
00000000
00001010
00000000
00000000
00000000
00001000
00000100
00001000
00000100
00010000
00001000
00100000
00000000
,
00010000
01000000
00010000
01000000
00200000
00000000
00000000
00000000
10300000
01000000
10000000
01000000
00200000
00000000
00000000
00000000
,
00310000
10000000
00010000
10000000
00100000
01000000
00100000
01000000
00010000
00100000
00001000
00010000
00000010
00010000
00001000
00100000
,
00002000
00000000
00013000
00010000
00000100
00000010
00001000
00010000
,
00022000
00000000
00000000
00033000
,
00010000
00000000
00000100
00001000
00000100
00000000
00001000
00000000
00000020
00000000
00000000
00000000
00000130
00000000
00000001
00000000
,
00001000
00000000
00000000
00000000
00000000
00000000
00000000
00000000
00000001
00000010
00000100
00000000
00001000
00000010
00010000
00000000
,
00001000
00010000
00001000
00010000
00001000
00000000
00100000
00000000
00020000
00000000
00000000
00000000
01030000
00000000
00100000
00000000
,
20000000
00000000
30010000
00000000
,
00020000
00000000
00130000
00000000
,
00101000
00000000
00002000
00000000
00000000
00000000
00013000
00000000
00010010
00000000
00000000
00000000
00010000
00001000
00010000
00001000
,
00010000
00000100
00010000
00000000
00000100
00001000
00000100
00000000
00001000
00000001
00001000
00000000
00000001
00000100
00000001
00000000
,
00001000
00000010
00000100
00000000
00000001
00000010
00000100
00000000
00001000
00000100
00010000
00000000
00001000
01000000
00010000
00000000
,
10000000
00100000
10000000
00000000
00100000
01000000
00100000
00000000
31000000
00010000
01000000
00000000
00010000
10000000
00010000
00000000
,
00100000
00001000
00010000
00000000
00001000
00010000
00000010
00000000
00001000
00000010
00000100
00000000
00000001
00000010
00000100
00000000
,
00001000
00000100
00001000
00000100
00010000
00000000
00001000
00000000
00100000
00010000
10000000
00010000
01000000
00100000
10000000
00010000
,
00200000
00000000
00000000
00000000
00301000
00000000
00010000
00000000
00000010
00000100
00000000
00000100
00000001
00001000
00000001
00000000
,
00001000
00000000
00000000
00000000
00001100
00000000
00000000
00000000
00011000
00000000
00000000
00000000
00100000
00001000
00100000
00001000
,
00100000
00000000
00010000
01000000
00100000
00000000
10000000
01000000
00100000
00010000
01000000
00100000
01000000
00001000
00020000
00000000
,
00000000
00030000
00000000
00000000
00000000
00000000
00000000
00000000
;

//---------------dance-double - ----------------
#NOTEDATA:;
#CHARTNAME:;
#STEPSTYPE:dance-double;
#DESCRIPTION:;
#CHARTSTYLE:;
#DIFFICULTY:Hard;
#METER:15;
#RADARVALUES:0.674782,1.129270,0.260085,0.520169,0.331398,563.000000,532.000000,31.000000,62.000000,0.000000,0.000000,0.000000,0.000000,0.000000,0.674782,1.129270,0.260085,0.520169,0.331398,563.000000,532.000000,31.000000,62.000000,0.000000,0.000000,0.000000,0.000000,0.000000;
#CREDIT:Ben Speirs;
#DISPLAYBPM:92.000000:200.000000;
#NOTES:
// measure 0
00000000
00000000
00000000
00000000
,  // measure 1
00000000
00000000
00000000
00000000
,  // measure 2
00000000
00000000
00000000
00000000
,  // measure 3
00000000
00000000
00000000
00000000
,  // measure 4
00000000
00000000
00000000
00000000
,  // measure 5
00000000
00000000
00000000
00000000
,  // measure 6
00000000
00000000
00000000
00000000
,  // measure 7
00000000
00000000
00000000
00000000
,  // measure 8
00010000
00000000
00201000
00000000
00310000
01000000
00100000
02000000
,  // measure 9
10000000
00000000
03010000
00000000
00000000
10000000
01000000
00100000
,  // measure 10
00020000
00000000
01030000
00000000
00010000
10000000
00100000
00000000
,  // measure 11
10000000
00000000
00010000
00000000
10000000
00000000
00200000
00000000
00000000
00000000
01300000
00001000
01000000
00000000
00001000
00000000
,  // measure 12
00010000
00000000
00010020
00000000
00001330
00000100
00000010
00000200
,  // measure 13
00000001
00000000
00001330
00000000
00000000
00000001
00000010
00000100
,  // measure 14
00002000
00000000
00003010
00000000
00001000
00000001
00000100
00000000
,  // measure 15
00000001
00000000
00001000
00000000
00000001
00000000
00000100
00000000
00000010
00000000
00010300
00001000
00010000
00000000
00001000
00000000
,  // measure 16
00200000
00000000
00310000
01000000
00200000
00000000
10300000
01000000
,  // measure 17
00200000
00000000
00310000
01000000
00001000
00010000
00000100
00001000
,  // measure 18
00000020
00000000
00000130
00000001
00000020
00000000
00000130
00001000
,  // measure 19
00000020
00000000
00000130
00000001
00000010
00000100
00020000
00000000
,  // measure 20
00031000
01000000
00001000
01000000
00001000
00100000
00001000
00001000
,  // measure 21
00010000
00000100
00010000
00000100
00010000
00000010
00010000
00010000
,  // measure 22
00001000
01000000
00100000
10000000
01000000
00100000
00001000
00010000
,  // measure 23
00000020
00000000
00000000
00000230
00000000
00000000
00000301
00001000
,  // measure 24
00001001
00000000
00000000
00000000
00000001
00000000
00000100
00000000
00000010
00000000
00000000
00000000
00001000
00000000
00000000
00000000
00000200
00000000
00000000
00000000
00000000
00000000
00000000
00000000
00010300
00001000
00010000
00000000
00001000
00010000
00001000
00000000
,  // measure 25
01000000
00000000
00010000
00100000
01000000
00000000
10000000
00000000
00200000
00000000
00000000
00000000
00000000
00000000
00000000
00000000
01300000
00000000
00010000
00000000
10000000
00000000
00000000
00000000
11000000
00000000
00000000
00000000
01100000
00000000
00000000
00000000
,  // measure 26
00001000
00000000
00000000
00000000
00000000
00000000
00010000
00000000
00000000
00000000
00000000
00000000
00001000
00000000
00000000
00000000
00000000
00000000
00010000
00000000
00000000
00000000
00000000
00000000
00001000
00000000
00000000
00000000
00000000
00000000
00000000
00000000
00000000
00000000
00000000
00000000
00010000
00000000
00000000
00000000
00000000
00000000
00000000
00000000
00000000
00000000
00000000
00000000
00000020
00000000
00000000
00000000
00000000
00000000
00000000
00000000
00000000
00000000
00000000
00000000
00000000
00000000
00000000
00000000
00000000
00000000
00000000
00000000
00000000
00000000
00000000
00000000
00001030
00000000
00000000
00000000
00000000
00000000
00000000
00000000
00000000
00000000
00000000
00000000
00000100
00000000
00000000
00000000
00000000
00000000
00000000
00000000
00000000
00000000
00000000
00000000
00000010
00000000
00000000
00000000
00000000
00000000
00000000
00000000
00000000
00000000
00000000
00000000
00000000
00000000
00000000
00000000
00000000
00000000
00000000
00000000
00000000
00000000
00000000
00000000
00000011
00000000
00000000
00000000
00000000
00000000
00000000
00000000
00000000
00000000
00000000
00000000
00000000
00000000
00000000
00000000
00000000
00000000
00000000
00000000
00000000
00000000
00000000
00000000
00001000
00000000
00000000
00000000
00000000
00000000
00000000
00000000
00000000
00000000
00000000
00000000
00000000
00000000
00000000
00000000
00000000
00000000
00000000
00000000
00000000
00000000
00000000
00000000
00000001
00000000
00000000
00000000
00000000
00000000
00000000
00000000
00000100
00000000
00000000
00000000
00000000
00000000
00000000
00000000
00000001
00000000
00000000
00000000
00000000
00000000
00000000
00000000
,  // measure 27
00000100
00000000
00000010
00000000
00001010
00000000
00001000
00000100
00010000
00001000
00010000
00001000
00100000
00010000
01000000
00001000
,  // measure 28
00000000
00000000
00000000
00011000
,  // measure 29
10020000
00003000
10030000
00100000
00100000
01000000
00010000
10000000
,  // measure 30
01000000
00000000
01000000
00000000
00100000
00000000
00001000
00010000
00001000
00000000
00010000
00000000
00000010
00000000
00000100
00000000
,  // measure 31
00000001
00001000
00000001
00000000
00001000
00000000
00000100
00010000
00000100
00010300
00000100
00000000
00010000
00000000
00001000
00000000
,  // measure 32
01001000
00000000
00010100
00000000
00010000
00001000
00010000
00001000
,  // measure 33
02000000
00000000
03010000
00100000
00100000
01000000
10000000
00010000
,  // measure 34
01000000
00000000
01000000
00000000
00100000
00000000
10000000
00010000
10000000
00000000
00010000
00000000
00100000
00000000
00001000
00000000
,  // measure 35
00010000
00000010
00010000
00000000
00001000
00000000
00100000
00010000
00100000
00010000
00100000
00000000
00001000
00000000
00010000
00000000
,  // measure 36
00000100
00000000
00001000
00000000
00000100
00000000
00000001
00000000
00000100
00000000
00001000
00000000
00000010
00000000
00010000
00000010
,  // measure 37
00001000
00000000
00000000
00000000
,  // measure 38
00000202
00000000
00000000
00000000
00000000
00000000
00000300
00000000
00002000
00000000
00000000
00000000
00000000
00000003
00000000
00003200
,  // measure 39
00020000
00000000
00000000
00000000
00000000
00000300
00032000
00000000
,  // measure 40
00200000
00000000
00000000
00000000
00000000
00000000
00000000
00003000
00020000
00000000
00000000
00000000
00000000
00300000
00000000
20030000
,  // measure 41
00200000
00000000
00000000
00000000
00000000
00000000
00000000
30000000
02000000
00000000
00000000
00000000
00000000
00000000
03300000
00000000
,  // measure 42
10010000
00000000
10000000
01000000
00010000
01000000
00100000
00001000
,  // measure 43
00020000
00000000
00230000
00000000
00302000
00000000
00003010
00010000
,  // measure 44
00002000
00000000
00003020
00000000
00020030
00000000
00133000
00001000
,  // measure 45
00020000
00031000
00022000
00033000
,  // measure 46
00010000
00000010
00000100
00000001
00001000
00000100
00000001
00000100
,  // measure 47
00002000
00000000
00003020
00000000
00020030
00000000
00031000
00100000
,  // measure 48
02000000
00000000
03010000
01000000
00100000
01000000
10000000
00100000
,  // measure 49
02000000
00000000
03200000
00000000
10300000
00010000
00100000
00001000
,  // measure 50
00101000
00000000
00000000
00010010
00000000
00010000
00001000
00010000
,  // measure 51
00011000
00000000
00000000
00000000
00000110
00000000
00000000
00000000
00001001
00000000
00000000
00000000
00000001
00001000
00000001
00001000
,  // measure 52
00000001
00000100
00000010
00001000
00000100
00000001
00000100
00001000
,  // measure 53
00000010
00010000
00001000
00100000
00010000
01000000
00100000
10000000
,  // measure 54
10000000
00010000
01000000
00100000
10000000
01000000
00100000
00001000
,  // measure 55
00010000
00000100
00001000
00000000
00000100
00000000
00010000
00000100
00001000
00000000
00000100
00000000
00010000
00001000
00010000
00000000
,  // measure 56
00001000
01000000
00100000
10000000
01000000
00010000
01000000
10000000
,  // measure 57
00100000
01000000
00010000
00100000
00001000
00010000
00000010
00000100
,  // measure 58
00000100
00000001
00000010
00000100
00001000
00000010
00010000
00000100
,  // measure 59
00020000
00000000
00031000
00002000
00000000
01003000
00100000
10000000
,  // measure 60
00010000
00000000
00100000
00000000
00110000
00000000
00000000
00000000
10010000
00000000
00000000
00000000
10000000
00100000
10000000
00100000
,  // measure 61
01000000
00000000
00000000
00000000
01010000
00000000
00000000
00000000
01001000
00000000
00000000
00000000
00001000
00000000
00010000
00000100
,  // measure 62
00000010
00000001
00001000
00000010
00010000
00001000
00101000
00000000
,  // measure 63
00001000
00100000
00010000
00000000
00100000
00000000
00001000
00100000
00010000
00000000
00100000
00000000
00001000
00010000
00001000
00000000
,  // measure 64
00010000
00000010
00010000
00000010
00001000
00000000
00000001
00000000
00001000
00000100
00001000
00000000
00000100
00010000
00001000
00000000
,  // measure 65
00100000
00000000
00000000
00000000
00110000
00000000
00000000
00000000
10000000
00100000
01000000
00000000
00010000
00000000
00100000
00000000
,  // measure 66
00001000
00010000
00001000
00010000
00000020
00000000
00000000
00000000
00010030
00001000
00010000
00001000
00100000
00000000
00001000
00000000
,  // measure 67
00022000
00000000
00000000
00033000
,  // measure 68
00002000
00000000
00100000
00100000
,  // measure 69
02003000
00000000
00000000
00000000
,  // measure 70
03100000
00000000
10000000
00010000
10000000
00000000
01000000
00000000
00200000
00000000
00000000
00000000
00301000
00000000
00000000
00000000
,  // measure 71
00022000
00000000
00000000
00000000
00003000
00000000
00000000
00000000
00030010
00001000
00000010
00000000
00001000
00000001
00001000
00000000
,  // measure 72
00000001
00000010
00000001
00000010
00000001
00000000
00001000
00000000
00000020
00000000
00000000
00000000
00001030
00000000
00000100
00000000
,  // measure 73
00020000
00000000
00031000
00000000
,  // measure 74
00002000
00000000
01003000
00000000
,  // measure 75
01001000
00000000
01000000
00000000
00100000
00000000
10000000
00000000
01000000
00000000
00100000
00000000
00010000
10000000
00010000
00000000
,  // measure 76
10000000
00000000
01000000
00000000
00100000
00000000
01000000
00000000
00010000
00000000
01000000
00000000
00100000
01000000
00100000
00000000
,  // measure 77
00001000
00000000
00010000
00000000
00100000
00000000
00010000
00000000
00001000
00000000
00010000
00000000
00000100
00001000
00000100
00000000
,  // measure 78
00001000
00000000
00000010
00000000
00000100
00000000
00000010
00000000
00000001
00000000
00000010
00000000
00000100
00000010
00000100
00000000
,  // measure 79
00000001
00000000
00000010
00000000
00000100
00000000
00000010
00000000
00001000
00003000
00000010
00000000
00000100
00000010
00000100
00000000
,  // measure 80
00001000
00000001
00001000
00000001
00000100
00000000
00000010
00000000
00001000
00000100
00000000
00000100
00010000
00000000
00001000
00000000
,  // measure 81
00100000
00000000
00010000
00000000
01010000
00000000
00000000
00000000
10000000
00010000
10000000
00010000
02000000
00000000
00000000
00000000
,  // measure 82
03100000
00000000
00000000
00000000
10100000
00000000
00000000
00000000
01010000
00000000
00000000
00000000
00001000
00010000
00001000
00010000
,  // measure 83
00000100
00000000
00001000
00000100
00000010
00000000
00000001
00000100
00000010
00000000
00001000
00000000
00000010
00000000
00020000
00000000
,  // measure 84
00000000
00030000
00000000
00000000
00000000
00000000
00000000
00000000
;

//---------------dance-double - ----------------
#NOTEDATA:;
#CHARTNAME:;
#STEPSTYPE:dance-double;
#DESCRIPTION:;
#CHARTSTYLE:;
#DIFFICULTY:Medium;
#METER:13;
#RADARVALUES:0.544140,0.811663,0.369152,0.570508,0.046144,454.000000,410.000000,44.000000,68.000000,0.000000,0.000000,0.000000,0.000000,0.000000,0.544140,0.811663,0.369152,0.570508,0.046144,454.000000,410.000000,44.000000,68.000000,0.000000,0.000000,0.000000,0.000000,0.000000;
#CREDIT:Ben Speirs;
#DISPLAYBPM:92.000000:200.000000;
#NOTES:
// measure 0
00000000
00000000
00000000
00000000
,  // measure 1
00000000
00000000
00000000
00000000
,  // measure 2
00000000
00000000
00000000
00000000
,  // measure 3
00000000
00000000
00000000
00000000
,  // measure 4
00000000
00000000
00000000
00000000
,  // measure 5
00000000
00000000
00000000
00000000
,  // measure 6
00000000
00000000
00000000
00000000
,  // measure 7
00000000
00000000
00000000
00000000
,  // measure 8
00010000
00000000
00010020
00000000
00001030
00000100
00000030
00000100
,  // measure 9
00000020
00000000
00000031
00000000
00000000
00001000
00000001
00000100
,  // measure 10
00000020
00000000
00000130
00000000
00000001
00000100
00000010
00000000
,  // measure 11
00002000
00000000
00003100
00000002
00000000
00000103
00020000
00000000
,  // measure 12
00331000
00000000
02001000
00000000
03010000
00100000
03000000
00100000
,  // measure 13
02000000
00000000
13000000
00000000
00000000
00010000
10000000
00100000
,  // measure 14
02000000
00000000
03100000
00000000
10000000
00100000
01000000
00000000
,  // measure 15
00010000
00100000
00010000
00000000
10000000
00100000
01000000
00010000
,  // measure 16
20000000
00000000
01000000
00000000
00000000
00010000
00000000
00020000
,  // measure 17
00000000
00000000
00000000
30030000
,  // measure 18
00010000
00100000
00002000
00000000
00000000
00023000
00000000
00000000
,  // measure 19
00030020
00000000
00000000
00000230
00000000
00000000
00000301
00001000
,  // measure 20
00000001
00000010
00000001
00000010
00000100
00000010
00000100
00000000
,  // measure 21
00001000
00000010
00001000
00000010
00000100
00000010
00000100
00000000
,  // measure 22
00000101
00001010
01010000
10100000
,  // measure 23
00010000
00100000
01000000
10000000
00100000
01000000
00010000
00000000
,  // measure 24
20000000
00000000
31000000
00000000
11000000
00000000
00010000
00000000
01000000
00100000
01000000
00000000
00010000
00100000
00010000
00100000
,  // measure 25
00001000
00000000
00010000
00000010
00000100
00000000
00000010
00000000
00001000
00000000
00000000
00000000
00000001
00000000
00000001
00000000
,  // measure 26
00001000
00000100
00001000
00000100
00010000
00000000
00000000
00000000
00001000
00000000
00001000
00000000
00011000
00000000
00000000
00000000
,  // measure 27
00100000
00000000
00100000
00000000
00110000
00000000
00000000
00000000
00010000
10000000
00010000
10000000
00100000
01000000
00100000
00000000
,  // measure 28
00000000
00000000
00000000
01100000
,  // measure 29
10020000
00000000
00000000
00130000
00200000
00000000
00310000
01000000
,  // measure 30
00001000
00000000
00021000
00300000
00030100
00000000
00001200
00000000
,  // measure 31
00001300
00000001
00001000
00000001
00000100
00001000
00000100
00000001
,  // measure 32
00000020
00000000
00000230
00000000
00010300
00001000
00010000
00001000
,  // measure 33
02000000
00000000
03010000
00100000
00100000
00010000
10000000
00100000
,  // measure 34
02000000
13000000
02000000
03010000
,  // measure 35
10000000
01000000
00100000
00001000
00010000
00010000
00000010
00000100
,  // measure 36
00000002
00000000
00002003
00000000
00003010
00000100
00000010
00010000
,  // measure 37
00001000
00000000
00000000
00000000
,  // measure 38
00012000
00000000
00000000
00000000
00000000
00000000
00000000
00000000
00203000
00000000
00000000
00000000
00000000
00000000
00000000
00310000
,  // measure 39
02000000
00000000
00000000
03002000
,  // measure 40
00023000
00000000
00000000
00000000
00000000
00000000
00000000
00000000
00030020
00000000
00000000
00000000
00000000
00000000
00000000
00001030
,  // measure 41
00000200
00000000
00000000
00000000
00000020
00000000
00000000
00000330
,  // measure 42
00001001
00000000
00000001
00000100
00000010
00000100
00001000
00000100
,  // measure 43
00000020
00000000
00020030
00000000
00032000
00000000
00103000
00010000
,  // measure 44
02000000
00000000
03200000
00000000
20300000
00000000
30010000
00100000
,  // measure 45
00002000
00013000
00022000
00033000
,  // measure 46
10010000
00000000
10000000
00100000
01000000
00100000
00010000
00100000
,  // measure 47
02000000
00000000
03002000
00000000
00023000
00000000
00030100
00001000
,  // measure 48
00000020
00000000
00000130
00001000
00000100
00000010
00000103
00000001
,  // measure 49
00000020
00000000
00030230
00000000
00010300
00001000
01003000
00000000
,  // measure 50
01010000
00000000
00000000
00011000
00000000
00000000
00010100
00000000
,  // measure 51
00011000
00000000
00011000
00000000
00011000
00000000
00010000
00001000
,  // measure 52
00200000
00000000
00310000
00100000
10000000
00100000
01000000
00100000
,  // measure 53
00002000
00000000
00013000
00001000
00000100
00001000
00010000
00000010
,  // measure 54
00000200
00000000
00000301
00000100
00001000
00000100
00000010
00000100
,  // measure 55
00000001
00000010
00000010
00001000
00000010
00000010
00000001
00001000
,  // measure 56
00000020
00000300
00001330
00000010
00000001
00000010
00000100
00000010
,  // measure 57
00020000
00000000
00031000
00010000
01000000
00010000
00001000
00100000
,  // measure 58
02000000
00000000
13300000
01000000
00010000
01000000
00100000
01000000
,  // measure 59
20000000
00000000
30100000
01000000
00000000
01000000
00010000
00000000
,  // measure 60
01010000
00000000
01001000
00000000
00010100
00000000
00010000
00000100
,  // measure 61
00000010
00000000
00000011
00000000
00001001
00000000
00000001
00001000
,  // measure 62
00000010
00001010
00011000
00101000
,  // measure 63
00100000
00010000
00010000
00100000
10000000
10000000
00100000
00010000
,  // measure 64
10000000
00100000
01000000
00010000
10000000
00010000
00200000
00000000
,  // measure 65
00301000
00000000
00011000
00000000
00010000
00000100
00000010
00000001
,  // measure 66
00001000
00000010
00001010
00000000
00000001
00000010
00000011
00000000
,  // measure 67
00002002
00000000
00000000
00003003
,  // measure 68
00000002
00000000
00000103
00000010
,  // measure 69
00002020
00000000
00000000
00003030
,  // measure 70
00001000
00000100
00001000
00000100
00010000
00000000
00001000
00000000
,  // measure 71
00012000
00000000
00000000
00000000
01003000
00100000
01000000
00100000
,  // measure 72
10000000
01000000
00100000
00000000
00010000
00000000
01000000
00000000
,  // measure 73
02010000
00000000
00000000
00000000
03001000
03000000
00000000
00000000
,  // measure 74
00002000
00000000
00013000
00000000
,  // measure 75
00010000
00000100
00000000
00000100
00000010
00000000
00000011
00000000
,  // measure 76
00001000
00000001
00001000
00000001
00000100
00000010
00001000
00000100
,  // measure 77
00010000
00001000
00010000
00001000
00100000
00010000
01000000
00100000
,  // measure 78
10000000
00010000
10000000
00010000
00100000
01000000
10000000
00010000
,  // measure 79
01000000
00001000
01000000
00001000
00010000
00000100
00000010
00000001
,  // measure 80
00000100
00000100
00000020
00000000
00001030
00000100
00010000
00000000
,  // measure 81
00011000
00000000
00011000
00000000
01000000
00010000
10000000
00000000
,  // measure 82
10100000
00000000
01010000
00000000
00011000
00000000
00010000
00000100
,  // measure 83
00000010
00000001
00000100
00000010
00000100
00000001
00001000
00000200
,  // measure 84
00000000
00000300
00000000
00000000
00000000
00000000
00000000
00000000
;

//---------------dance-double - ----------------
#NOTEDATA:;
#CHARTNAME:;
#STEPSTYPE:dance-double;
#DESCRIPTION:;
#CHARTSTYLE:;
#DIFFICULTY:Easy;
#METER:9;
#RADARVALUES:0.351174,0.564635,0.251695,0.469830,0.000000,293.000000,263.000000,30.000000,56.000000,0.000000,0.000000,0.000000,0.000000,0.000000,0.351174,0.564635,0.251695,0.469830,0.000000,293.000000,263.000000,30.000000,56.000000,0.000000,0.000000,0.000000,0.000000,0.000000;
#CREDIT:Ben Speirs;
#DISPLAYBPM:92.000000:200.000000;
#NOTES:
// measure 0
00000000
00000000
00000000
00000000
,  // measure 1
00000000
00000000
00000000
00000000
,  // measure 2
00000000
00000000
00000000
00000000
,  // measure 3
00000000
00000000
00000000
00000000
,  // measure 4
00000000
00000000
00000000
00000000
,  // measure 5
00000000
00000000
00000000
00000000
,  // measure 6
00000000
00000000
00000000
00000000
,  // measure 7
00000000
00000000
00000000
00000000
,  // measure 8
00010000
00000000
00001000
00000000
00000000
00010000
00001000
00000000
,  // measure 9
00100000
00000000
00010000
00000000
00000000
00100000
00010000
00000000
,  // measure 10
10000000
00000000
00100000
00000000
00000000
10000000
00100000
00000000
,  // measure 11
20000000
00000000
00000000
30020000
00000000
00000000
00230000
00000000
,  // measure 12
00301000
00000000
00010000
00000000
00000000
00001000
00010000
00000000
,  // measure 13
00000100
00000000
00001000
00000000
00000000
00000100
00001000
00000000
,  // measure 14
00000001
00000000
00000100
00000000
00000000
00000001
00000100
00000000
,  // measure 15
00000001
00000010
00000100
00010000
,  // measure 16
00002000
00000000
00203000
00000000
,  // measure 17
00320000
00000000
20030000
00000000
,  // measure 18
30200000
00000000
02300000
00000000
,  // measure 19
03002000
00000000
00023000
00000000
,  // measure 20
00030100
00000100
00000010
00000010
,  // measure 21
00000001
00000001
00001000
00001000
,  // measure 22
00000002
00000203
00002300
00023000
,  // measure 23
00230000
00000000
00000000
00300000
,  // measure 24
20020000
00000000
30030000
00000000
10000000
01000000
01000000
00000000
,  // measure 25
00100000
00010000
00100000
00001000
00020000
00000000
00030020
00000000
,  // measure 26
00000130
00000100
00000001
00000000
00001000
00001000
00000100
00000000
,  // measure 27
00010000
00010000
00001000
00000000
00100000
00010000
01000000
00100000
,  // measure 28
00000000
00000000
00000000
01100000
,  // measure 29
20020000
00000000
30030000
00000000
10000000
00000000
00010000
00100000
,  // measure 30
00020000
00230000
00302000
00023000
,  // measure 31
00030010
00000000
00000000
00000000
00001000
00000001
00001000
00000000
,  // measure 32
00000002
00000000
00000203
00000000
00000310
00000100
00000010
00000100
,  // measure 33
00000000
00000000
00000000
00000000
00000001
00000000
00001000
00000100
,  // measure 34
00002000
00003100
00020000
00031000
,  // measure 35
00100000
00000000
00000000
00000000
00010000
01000000
00010000
00000000
,  // measure 36
20000000
30200000
02300000
03001000
,  // measure 37
00011000
00000000
00000000
00000000
,  // measure 38
00020000
00000000
00030200
00000000
,  // measure 39
00000320
00000000
00000000
00000030
,  // measure 40
00000002
00000000
00000203
00000000
,  // measure 41
00000320
00000000
00020030
00000000
,  // measure 42
00031000
00000000
00000000
00000000
00000000
00010000
00001000
00010000
,  // measure 43
00001000
00000000
00100000
00000000
00100000
00000000
00010000
01000000
,  // measure 44
00100000
00000000
00100000
00000000
00100000
00000000
10000000
01000000
,  // measure 45
00100000
00100000
20020000
00000000
,  // measure 46
30030000
00000000
00000000
00000000
00000000
00000000
10000000
00010000
,  // measure 47
01000000
00000000
01000000
00000000
01000000
00000000
00001000
00010000
,  // measure 48
00001000
00010000
00000100
00000010
,  // measure 49
00000110
00002002
00000000
00003003
,  // measure 50
00000001
00000000
00000000
00000100
00000000
00000000
00000010
00000000
,  // measure 51
00000110
00000110
00002002
00003003
,  // measure 52
00000001
00000100
00000010
00001000
,  // measure 53
00000100
00000000
00010000
00000000
00001000
00000000
00100000
01000000
,  // measure 54
00100000
00010000
10000000
00100000
,  // measure 55
01000000
00000000
00000000
01000000
00000000
00000000
01000000
00000000
,  // measure 56
00100000
10000000
01000000
00100000
,  // measure 57
00010000
00000000
01000000
00000000
00001000
00000000
00010000
00000100
,  // measure 58
00010000
00000100
00001000
00000010
,  // measure 59
00000100
00000000
00000000
00000100
00000000
00000000
00000100
00000000
,  // measure 60
00000101
00000101
00000101
00001000
,  // measure 61
00010100
00010100
00010100
00001000
,  // measure 62
00110000
00110000
00110000
10000000
,  // measure 63
00100000
00000000
00000000
00100000
00000000
00000000
00100000
00000000
,  // measure 64
10000000
00010000
10000000
00000000
01000000
00000000
00100000
00000000
,  // measure 65
00010000
00010000
01000000
00001000
,  // measure 66
00010000
00000100
00010000
00000000
00001000
00100000
00001000
00000000
,  // measure 67
00022000
00000000
00000000
00033000
,  // measure 68
00020000
00000000
00000000
00000000
,  // measure 69
00030020
00000000
00000000
00000000
,  // measure 70
00000230
00000000
00000000
00000000
,  // measure 71
00000302
00000000
00000000
00000000
,  // measure 72
00002003
00000000
00003100
00000000
,  // measure 73
00000200
00000000
00010300
00000000
,  // measure 74
00020000
00000000
00031000
00000000
,  // measure 75
00100000
00010000
10000000
00100000
,  // measure 76
10010000
10010000
10000000
01000000
,  // measure 77
00100000
00100000
00001000
00010000
,  // measure 78
00000010
00000010
00000100
00000001
,  // measure 79
00001000
00001000
00000100
00000010
,  // measure 80
00001001
00001001
00000110
00000110
,  // measure 81
00001000
00000100
00010000
00001000
,  // measure 82
01100000
01100000
10010000
10010000
,  // measure 83
10000000
00000000
00100000
00000000
01000000
00000000
00001000
00020000
,  // measure 84
00000000
00030000
00000000
00000000
00000000
00000000
00000000
00000000
;
