#VERSION:0.83;
#TITLE:Spinner;
#SUBTITLE:;
#ARTIST:Aussie Asher;
#TITLETRANSLIT:;
#SUBTITLETRANSLIT:;
#ARTISTTRANSLIT:;
#GENRE:;
#CREDIT:;
#MUSIC:Spinner.ogg;
#BANNER:spinner-banner.mp4;
#BACKGROUND:sc2024-background.png;
#JACKET:spinner-jacket.mp4;
#DISCIMAGE:;
#CDIMAGE:;
#SELECTABLE:YES;
#LYRICSPATH:;
#CDTITLE:scr-cdtitle.png;
#SAMPLESTART:29.766;
#SAMPLELENGTH:12.000;
#BPMS:0.000=129.000,
216.000=128.000,
218.000=127.000,
220.000=124.000,
222.000=122.000,
224.000=120.000,
226.000=118.000,
228.000=116.000,
230.000=115.000,
232.000=113.000
;
#STOPS:;
#WARPS:;
#DELAYS:;
#SPEEDS:;
#SCROLLS:;
#TICKCOUNTS:;
#TIMESIGNATURES:;
#LABELS:;
#COMBOS:;
#FAKES:;
#BGCHANGES:;
#FGCHANGES:;
#ATTACKS:;

//---------------dance-single - JU, XO, RH----------------
#NOTEDATA:;
#CHARTNAME:;
#CHARTSTYLE:;
#CREDIT:Scrypts;
#STEPSTYPE:dance-single;
#DESCRIPTION:JU, XO, RH-;
#DIFFICULTY:Hard;
#METER:11;
#METERF:11;
#RADARVALUES:0,0,0,0,0;
#BPMS:0.000=129.000,
216.000=128.000,
218.000=127.000,
220.000=124.000,
222.000=122.000,
224.000=120.000,
226.000=118.000,
228.000=116.000,
230.000=115.000,
232.000=113.000
;
#NOTES:
// measure 0
0000
0000
0000
0000
,  // measure 1
0000
0000
0000
0000
,  // measure 2
0000
0000
0000
0000
,  // measure 3
0000
0000
0000
0000
,  // measure 4
1000
0000
0000
1000
0010
0000
0000
0000
0100
0000
0000
0000
0010
0000
0000
0000
,  // measure 5
1000
0000
0000
1000
0001
0000
0000
0000
0010
0000
0100
0000
1000
0001
1000
0000
,  // measure 6
0001
0000
0000
0001
0010
0000
0000
0000
0100
0000
0000
0000
0010
0000
0000
0000
,  // measure 7
0001
0000
0000
0001
1000
0000
0000
0000
0010
0000
0100
0001
1000
0000
1000
0000
,  // measure 8
0002
0000
0000
0000
,  // measure 9
0003
0000
0000
0000
,  // measure 10
2000
0000
0000
0000
,  // measure 11
3000
0000
0000
0000
,  // measure 12
0001
0100
0010
1000
,  // measure 13
0001
0010
0100
1000
,  // measure 14
0010
0100
0001
1000
0100
0010
0001
1000
,  // measure 15
0010
0100
1000
0100
0001
1000
1001
0000
,  // measure 16
0101
0000
1100
0000
0101
0000
1000
0100
,  // measure 17
0010
0001
1000
0001
0100
0020
1030
0000
,  // measure 18
1100
0101
1100
0002
,  // measure 19
0013
0000
0100
1000
0100
0000
0010
0000
0001
0000
0000
0000
1001
0000
0000
0000
,  // measure 20
0011
0000
1010
0000
0011
0000
1000
0001
,  // measure 21
0010
0001
1000
0010
0100
0001
1000
1000
,  // measure 22
1010
0011
1010
0002
,  // measure 23
1003
0100
0010
0001
0010
1000
0010
0001
,  // measure 24
0101
0000
1001
0000
1000
0100
0020
0000
,  // measure 25
0031
0000
1000
0000
0000
0010
0000
0100
0000
0010
0000
1000
0000
0000
0001
0010
,  // measure 26
0100
1100
2001
0010
,  // measure 27
3001
0000
0010
0000
0100
0000
1000
0000
0000
0000
0000
0000
0010
0000
0000
0100
0000
0000
0001
0000
0000
0000
0000
0000
,  // measure 28
0011
1010
0011
2000
,  // measure 29
3010
0100
0010
0100
0010
0000
1000
0000
0001
0000
0010
0000
0100
0000
0000
0000
,  // measure 30
1010
0000
0011
0000
1010
0001
0010
0100
,  // measure 31
1000
0001
1000
0001
1000
0000
0010
0000
0001
0000
0010
0000
1000
0000
0001
0000
,  // measure 32
0011
0000
0000
0000
,  // measure 33
0000
0000
0000
0000
0000
0000
0000
0000
0000
0000
0000
0000
1000
0000
0001
1000
,  // measure 34
0001
0100
0010
1000
0001
0100
0010
1000
,  // measure 35
0001
0100
0010
1000
0001
0100
0010
1000
,  // measure 36
0001
0010
0100
1000
0001
0010
0100
1000
,  // measure 37
0001
0010
0100
1000
0001
0010
0100
1000
,  // measure 38
0001
0100
0010
1000
0100
0010
0001
0100
,  // measure 39
0010
1000
0100
0010
0001
0100
0010
1000
,  // measure 40
0001
0010
0100
1000
0010
0100
0001
0010
,  // measure 41
0100
1000
0010
0100
0001
0010
0100
1000
,  // measure 42
0002
1000
1000
1003
,  // measure 43
1000
0100
1000
0001
1000
0010
1000
0001
,  // measure 44
2000
0001
0001
3001
,  // measure 45
0001
0100
0001
1000
0001
0010
0001
1000
,  // measure 46
0002
1000
1000
1003
,  // measure 47
1000
0001
1000
0010
1000
0001
1000
0100
,  // measure 48
2000
0001
0001
3001
,  // measure 49
0001
0010
0001
1000
0001
0100
0001
1000
,  // measure 50
1002
0000
0000
0000
,  // measure 51
0003
0000
0000
0000
,  // measure 52
2000
0000
0000
0000
,  // measure 53
3000
0000
0000
0000
,  // measure 54
0001
0100
0010
1000
,  // measure 55
0001
0010
0100
1000
,  // measure 56
0010
0100
0001
1000
0100
0010
0001
1000
,  // measure 57
0010
0000
1000
0001
1000
0100
1000
0000
0010
0000
0100
0000
0002
0000
0000
0000
,  // measure 58
1003
0010
0001
0010
1000
0010
0001
0010
,  // measure 59
1000
0000
0100
1000
0001
1000
0000
1000
0001
0000
0010
0000
0100
0000
1000
0000
,  // measure 60
0001
0100
1000
0100
0001
0100
1000
0100
,  // measure 61
0002
0000
1003
0100
0001
1000
0010
0100
,  // measure 62
1000
0010
0001
0010
0100
0010
0001
0010
,  // measure 63
1000
0001
0010
0100
1000
0001
1001
0000
,  // measure 64
0001
0100
1000
0100
0010
0100
1000
0100
,  // measure 65
0001
0100
0010
1000
0100
0001
0010
0010
;

//---------------dance-single - RO+, JU+, BU, FS, SJ, XO---------------
#NOTEDATA:;
#CHARTNAME:shoutouts Zarzob;
#CHARTSTYLE:;
#CREDIT:Scrypts;
#STEPSTYPE:dance-single;
#DESCRIPTION:RO+, JU+, BU, FS, SJ, XO;
#DIFFICULTY:Challenge;
#METER:15;
#METERF:15;
#RADARVALUES:0,0,0,0,0;
#BPMS:0.000=129.000,
216.000=128.000,
218.000=127.000,
220.000=124.000,
222.000=122.000,
224.000=120.000,
226.000=118.000,
228.000=116.000,
230.000=115.000,
232.000=113.000
;
#NOTES:
// measure 0
0000
0000
0000
0000
,  // measure 1
0000
0000
0000
0000
,  // measure 2
0000
0000
0000
0000
,  // measure 3
0000
0000
0000
0000
,  // measure 4
4010
0000
0000
0001
0000
0000
0000
0000
0100
0000
0000
0000
0001
0000
0000
0000
,  // measure 5
3100
0000
0000
0010
0001
0000
0000
0000
0100
0000
1000
0100
0001
1000
0100
0010
,  // measure 6
0004
0000
0000
1000
0000
0000
0000
0000
0100
0000
0000
0000
1000
0000
0000
0000
,  // measure 7
0103
0000
0000
0010
1000
0000
0000
0000
0200
0000
0310
0100
1000
0000
0010
0000
,  // measure 8
4010
0000
0000
0000
,  // measure 9
3000
0000
0000
0000
,  // measure 10
0014
0000
0000
0000
,  // measure 11
0003
0000
0000
0000
,  // measure 12
4100
3000
0104
0003
4010
3000
0014
0003
,  // measure 13
4100
3000
0014
0003
4010
3000
0104
0003
,  // measure 14
1000
0100
1000
0010
0100
0001
0010
0001
,  // measure 15
1000
0000
0000
0100
0000
0000
0010
0000
0000
0001
0000
0000
1000
0000
0010
0000
0100
0000
0001
0000
0000
1000
0000
0000
0100
0000
0000
1000
0000
0000
0001
0000
0000
0100
0000
0000
0120
0000
0000
0030
0000
0000
0000
0000
0000
0000
0000
0000
,  // measure 16
4100
0000
3000
0000
0104
0000
0003
0000
4100
0000
3000
0000
0001
0010
0100
1000
,  // measure 17
0010
1000
0001
1000
0100
0100
0001
0000
0100
0000
1000
0100
0001
0000
0010
0000
,  // measure 18
0104
0003
4100
3000
0104
0003
2000
3200
,  // measure 19
0310
0001
1000
0001
0100
0000
0010
0000
1200
0000
0001
0300
1100
0000
0000
0000
,  // measure 20
0014
0000
0003
0000
4010
0000
3000
0000
0014
0000
0003
0000
1000
0100
0010
0001
,  // measure 21
0100
0001
1000
0001
0010
0010
1000
0000
0010
0000
0001
0010
1000
0000
0001
0000
,  // measure 22
4010
3000
0014
0003
4010
3000
0002
0023
,  // measure 23
0130
0000
0000
1000
0000
0000
0001
0000
0000
1000
0000
0000
0010
0000
0000
0M00
0000
0000
0010
0000
0000
0000
0000
0000
0001
0000
0000
0100
0000
0000
0010
0000
0000
0100
0000
0000
0001
0000
0000
1000
0000
0000
0001
0000
0010
0000
0100
0000
,  // measure 24
4000
3000
0104
0003
1100
0001
2010
0000
,  // measure 25
3001
0000
0001
0000
0010
0100
0000
1000
0000
0100
0010
0001
0000
1000
0010
0100
,  // measure 26
0004
0003
4100
3000
0012
0000
0003
0001
,  // measure 27
1000
0000
0000
0000
0010
0000
0M00
0000
0010
0000
0000
0000
0002
0000
0000
0000
0000
0000
0000
0000
0000
0000
0000
0000
0013
0000
0000
0000
0000
0000
1000
0000
0000
0010
0000
0000
0001
0000
0000
0000
0000
0000
1000
0000
0000
0000
0000
0000
,  // measure 28
0104
0003
4100
3000
0101
1000
0012
0000
,  // measure 29
0013
0001
1000
0001
0100
0100
1000
0000
0010
0000
1000
0000
0001
0000
0100
0000
,  // measure 30
0104
0000
0003
0000
4100
0000
3000
0000
0102
0000
0013
0001
0100
0100
1000
0000
,  // measure 31
0010
0000
0000
1000
0000
0000
0001
0000
0000
1000
0000
0000
0100
0000
0000
00M0
0000
0000
0100
0000
0000
0000
0000
0000
0001
0000
0000
0100
0000
0000
0010
0000
0000
1000
0000
0000
0001
0000
0010
0000
0100
0000
1000
0000
0000
0001
0000
0000
,  // measure 32
1001
0000
0000
0000
,  // measure 33
0000
0000
0000
0000
0000
0000
0000
0000
0000
0000
0000
0000
1010
0000
0001
0010
,  // measure 34
0001
0100
0010
1000
0001
0010
0100
1000
,  // measure 35
0001
0100
0010
1000
0001
0010
0100
1000
,  // measure 36
0010
1000
0001
1000
0010
1000
0001
0100
,  // measure 37
0001
0010
0001
1000
0001
0010
0001
1000
,  // measure 38
0010
0100
0001
1000
0100
0010
0001
1000
,  // measure 39
0010
0100
0001
1000
0100
0010
0001
1000
,  // measure 40
0010
1000
0001
1000
0010
1000
0100
0010
,  // measure 41
0001
1000
0001
0100
0001
1000
0001
0010
,  // measure 42
4100
3000
0104
0003
4100
3000
0104
0003
,  // measure 43
1000
0000
0100
0010
0001
0000
0100
0010
1000
0000
0100
0010
0001
0000
1000
0001
,  // measure 44
0014
0003
4010
3000
0014
0003
4010
3000
,  // measure 45
0001
0000
0100
0010
1000
0000
0100
0010
0001
0000
1000
0010
0100
0000
0001
1000
,  // measure 46
4100
3000
0104
0003
4100
3000
0104
0003
,  // measure 47
1000
0000
0010
1000
0100
0000
0010
0001
0100
0000
0010
1000
0100
0000
1000
0001
,  // measure 48
0014
0003
4010
3000
0014
0003
4010
3000
,  // measure 49
0001
0000
0010
0001
0100
0000
0010
1000
0100
0000
0010
0001
0100
0000
0010
1000
,  // measure 50
4010
0000
0000
0000
,  // measure 51
3000
0000
0000
0000
,  // measure 52
0014
0000
0000
0000
,  // measure 53
0003
0000
0000
0000
,  // measure 54
4100
3000
0104
0003
4010
3000
0014
0003
,  // measure 55
4100
3000
0014
0003
4010
3000
0104
0003
,  // measure 56
1000
0100
1000
0010
0100
0001
0010
0001
,  // measure 57
1000
0000
0000
0100
0000
0000
0010
0000
0000
0001
0000
0000
0100
0000
0000
0010
0000
0000
1000
0000
0001
0000
0010
0000
0100
0000
0000
1000
0000
0000
0001
0000
0000
0100
0000
0000
2000
0000
0000
0000
0000
0000
3200
0000
0000
0000
0000
0000
,  // measure 58
0301
0000
0010
0001
0200
0000
0310
0000
0102
0000
0013
0001
0200
0000
0010
0000
,  // measure 59
0301
0010
0100
1000
0001
0100
00M0
0100
1000
0000
0100
0000
0001
0000
0100
0000
,  // measure 60
1000
0000
0010
1000
0200
0000
0310
0000
2100
0000
3010
1000
0200
0000
0310
0000
,  // measure 61
0002
0000
2003
0000
3001
0100
0100
1000
0001
0010
0010
0100
1000
0000
0100
0000
,  // measure 62
0001
0000
0010
0002
1000
0000
0013
0000
0102
0000
0013
0001
0100
0010
1000
0010
,  // measure 63
0100
0001
1000
0001
0010
0010
2000
0000
3010
0000
0001
0010
1000
0000
0100
0000
,  // measure 64
1000
0000
0010
2000
0001
0000
3010
0000
2100
0000
3010
1000
0002
0000
0023
0000
,  // measure 65
0130
1000
0001
1000
0010
0010
0001
0010
1000
0000
0010
0001
0100
0000
0110
0000
;

//---------------dance-single - [XMOD-] RO+, JU+, BU, FS, SJ, XO---------------
#NOTEDATA:;
#CHARTNAME:gimmick version;
#CHARTSTYLE:;
#CREDIT:Scrypts;
#STEPSTYPE:dance-single;
#DESCRIPTION:[XMOD-] RO+, JU+, BU, FS, SJ, XO;
#DIFFICULTY:Edit;
#METER:15;
#METERF:15;
#RADARVALUES:0,0,0,0,0;
#BPMS:0.000=129.000,
216.000=128.000,
218.000=127.000,
220.000=124.000,
222.000=122.000,
224.000=120.000,
226.000=118.000,
228.000=116.000,
230.000=115.000,
232.000=113.000
;
#SPEEDS:0.000=1.000=0.000=0,
32.000=0.750=4.000=0,
40.000=1.000=4.000=0,
128.000=0.000=0.000=0,
128.021=1.000=7.000=0,
200.000=0.750=4.000=0,
208.000=1.000=4.000=0
;
#NOTES:
// measure 0
0000
0000
0000
0000
,  // measure 1
0000
0000
0000
0000
,  // measure 2
0000
0000
0000
0000
,  // measure 3
0000
0000
0000
0000
,  // measure 4
4010
0000
0000
0001
0000
0000
0000
0000
0100
0000
0000
0000
0001
0000
0000
0000
,  // measure 5
3100
0000
0000
0010
0001
0000
0000
0000
0100
0000
1000
0100
0001
1000
0100
0010
,  // measure 6
0004
0000
0000
1000
0000
0000
0000
0000
0100
0000
0000
0000
1000
0000
0000
0000
,  // measure 7
0103
0000
0000
0010
1000
0000
0000
0000
0200
0000
0310
0100
1000
0000
0010
0000
,  // measure 8
4010
0000
0000
0000
,  // measure 9
3000
0000
0000
0000
,  // measure 10
0014
0000
0000
0000
,  // measure 11
0003
0000
0000
0000
,  // measure 12
4100
3000
0104
0003
4010
3000
0014
0003
,  // measure 13
4100
3000
0014
0003
4010
3000
0104
0003
,  // measure 14
1000
0100
1000
0010
0100
0001
0010
0001
,  // measure 15
1000
0000
0000
0100
0000
0000
0010
0000
0000
0001
0000
0000
1000
0000
0010
0000
0100
0000
0001
0000
0000
1000
0000
0000
0100
0000
0000
1000
0000
0000
0001
0000
0000
0100
0000
0000
0120
0000
0000
0030
0000
0000
0000
0000
0000
0000
0000
0000
,  // measure 16
4100
0000
3000
0000
0104
0000
0003
0000
4100
0000
3000
0000
0001
0010
0100
1000
,  // measure 17
0010
1000
0001
1000
0100
0100
0001
0000
0100
0000
1000
0100
0001
0000
0010
0000
,  // measure 18
0104
0003
4100
3000
0104
0003
2000
3200
,  // measure 19
0310
0001
1000
0001
0100
0000
0010
0000
1200
0000
0001
0300
1100
0000
0000
0000
,  // measure 20
0014
0000
0003
0000
4010
0000
3000
0000
0014
0000
0003
0000
1000
0100
0010
0001
,  // measure 21
0100
0001
1000
0001
0010
0010
1000
0000
0010
0000
0001
0010
1000
0000
0001
0000
,  // measure 22
4010
3000
0014
0003
4010
3000
0002
0023
,  // measure 23
0130
0000
0000
1000
0000
0000
0001
0000
0000
1000
0000
0000
0010
0000
0000
0M00
0000
0000
0010
0000
0000
0000
0000
0000
0001
0000
0000
0100
0000
0000
0010
0000
0000
0100
0000
0000
0001
0000
0000
1000
0000
0000
0001
0000
0010
0000
0100
0000
,  // measure 24
4000
3000
0104
0003
1100
0001
2010
0000
,  // measure 25
3001
0000
0001
0000
0010
0100
0000
1000
0000
0100
0010
0001
0000
1000
0010
0100
,  // measure 26
0004
0003
4100
3000
0012
0000
0003
0001
,  // measure 27
1000
0000
0000
0000
0010
0000
0M00
0000
0010
0000
0000
0000
0002
0000
0000
0000
0000
0000
0000
0000
0000
0000
0000
0000
0013
0000
0000
0000
0000
0000
1000
0000
0000
0010
0000
0000
0001
0000
0000
0000
0000
0000
1000
0000
0000
0000
0000
0000
,  // measure 28
0104
0003
4100
3000
0101
1000
0012
0000
,  // measure 29
0013
0001
1000
0001
0100
0100
1000
0000
0010
0000
1000
0000
0001
0000
0100
0000
,  // measure 30
0104
0000
0003
0000
4100
0000
3000
0000
0102
0000
0013
0001
0100
0100
1000
0000
,  // measure 31
0010
0000
0000
1000
0000
0000
0001
0000
0000
1000
0000
0000
0100
0000
0000
00M0
0000
0000
0100
0000
0000
0000
0000
0000
0001
0000
0000
0100
0000
0000
0010
0000
0000
1000
0000
0000
0001
0000
0010
0000
0100
0000
1000
0000
0000
0001
0000
0000
,  // measure 32
1001
0000
0000
0000
,  // measure 33
0000
0000
0000
0000
0000
0000
0000
0000
0000
0000
0000
0000
1010
0000
0001
0010
,  // measure 34
0001
0100
0010
1000
0001
0010
0100
1000
,  // measure 35
0001
0100
0010
1000
0001
0010
0100
1000
,  // measure 36
0010
1000
0001
1000
0010
1000
0001
0100
,  // measure 37
0001
0010
0001
1000
0001
0010
0001
1000
,  // measure 38
0010
0100
0001
1000
0100
0010
0001
1000
,  // measure 39
0010
0100
0001
1000
0100
0010
0001
1000
,  // measure 40
0010
1000
0001
1000
0010
1000
0100
0010
,  // measure 41
0001
1000
0001
0100
0001
1000
0001
0010
,  // measure 42
4100
3000
0104
0003
4100
3000
0104
0003
,  // measure 43
1000
0000
0100
0010
0001
0000
0100
0010
1000
0000
0100
0010
0001
0000
1000
0001
,  // measure 44
0014
0003
4010
3000
0014
0003
4010
3000
,  // measure 45
0001
0000
0100
0010
1000
0000
0100
0010
0001
0000
1000
0010
0100
0000
0001
1000
,  // measure 46
4100
3000
0104
0003
4100
3000
0104
0003
,  // measure 47
1000
0000
0010
1000
0100
0000
0010
0001
0100
0000
0010
1000
0100
0000
1000
0001
,  // measure 48
0014
0003
4010
3000
0014
0003
4010
3000
,  // measure 49
0001
0000
0010
0001
0100
0000
0010
1000
0100
0000
0010
0001
0100
0000
0010
1000
,  // measure 50
4010
0000
0000
0000
,  // measure 51
3000
0000
0000
0000
,  // measure 52
0014
0000
0000
0000
,  // measure 53
0003
0000
0000
0000
,  // measure 54
4100
3000
0104
0003
4010
3000
0014
0003
,  // measure 55
4100
3000
0014
0003
4010
3000
0104
0003
,  // measure 56
1000
0100
1000
0010
0100
0001
0010
0001
,  // measure 57
1000
0000
0000
0100
0000
0000
0010
0000
0000
0001
0000
0000
0100
0000
0000
0010
0000
0000
1000
0000
0001
0000
0010
0000
0100
0000
0000
1000
0000
0000
0001
0000
0000
0100
0000
0000
2000
0000
0000
0000
0000
0000
3200
0000
0000
0000
0000
0000
,  // measure 58
0301
0000
0010
0001
0200
0000
0310
0000
0102
0000
0013
0001
0200
0000
0010
0000
,  // measure 59
0301
0010
0100
1000
0001
0100
00M0
0100
1000
0000
0100
0000
0001
0000
0100
0000
,  // measure 60
1000
0000
0010
1000
0200
0000
0310
0000
2100
0000
3010
1000
0200
0000
0310
0000
,  // measure 61
0002
0000
2003
0000
3001
0100
0100
1000
0001
0010
0010
0100
1000
0000
0100
0000
,  // measure 62
0001
0000
0010
0002
1000
0000
0013
0000
0102
0000
0013
0001
0100
0010
1000
0010
,  // measure 63
0100
0001
1000
0001
0010
0010
2000
0000
3010
0000
0001
0010
1000
0000
0100
0000
,  // measure 64
1000
0000
0010
2000
0001
0000
3010
0000
2100
0000
3010
1000
0002
0000
0023
0000
,  // measure 65
0130
1000
0001
1000
0010
0010
0001
0010
1000
0000
0010
0001
0100
0000
0110
0000
;
