#VERSION:0.83;
#TITLE:Spica;
#SUBTITLE:;
#ARTIST:BEMANI Sound Team "TATSUYA";
#TITLETRANSLIT:;
#SUBTITLETRANSLIT:;
#ARTISTTRANSLIT:;
#GENRE:;
#ORIGIN:;
#CREDIT:;
#BANNER:banner.png;
#BACKGROUND:background.png;
#PREVIEWVID:;
#JACKET:jacket.png;
#CDIMAGE:;
#DISCIMAGE:;
#LYRICSPATH:;
#CDTITLE:;
#MUSIC:Spica.ogg;
#OFFSET:-0.530000;
#SAMPLESTART:23.700001;
#SAMPLELENGTH:20.000000;
#SELECTABLE:YES;
#BPMS:0.000=176.000;
#STOPS:;
#DELAYS:;
#WARPS:;
#TIMESIGNATURES:0.000=4=4;
#TICKCOUNTS:0.000=4;
#COMBOS:0.000=1;
#SPEEDS:0.000=1.000=0.000=0;
#SCROLLS:0.000=1.000;
#FAKES:;
#LABELS:0.000=Song Start;
#BGCHANGES:;
#KEYSOUNDS:;
#ATTACKS:
;

//---------------dance-single - ----------------
#NOTEDATA:;
#CHARTNAME:;
#STEPSTYPE:dance-single;
#DESCRIPTION:;
#CHARTSTYLE:;
#DIFFICULTY:Beginner;
#METER:5;
#RADARVALUES:0.173268,0.278303,0.037608,0.000000,0.000000,129.000000,125.000000,4.000000,0.000000,0.000000,0.000000,0.000000,0.000000,0.000000,0.173268,0.278303,0.037608,0.000000,0.000000,129.000000,125.000000,4.000000,0.000000,0.000000,0.000000,0.000000,0.000000,0.000000;
#CREDIT:ZSL;
#NOTES:
0000
0000
0000
0000
,
0000
0000
0000
0000
,
0000
0000
0000
0000
,
0000
0000
0000
0000
,
0000
0000
0000
0000
,
0001
0000
0000
0000
,
1000
0000
0000
0000
,
0010
0000
0000
0000
,
0100
0000
0000
0000
,
0001
0000
0000
0000
,
1000
0000
0000
0000
,
0100
0000
0000
0000
,
0010
0000
0000
0000
,
0100
0000
0000
0000
,
1000
0000
0000
0000
,
0001
0000
1000
0000
,
0001
0000
0000
0000
,
0100
0000
0010
0000
,
0100
0000
0001
0000
,
1000
0000
0100
0000
,
0010
0000
0100
0000
,
1000
1000
0000
0001
,
0000
0100
0100
0000
,
0010
1000
0000
0001
,
0010
0000
0100
1000
,
0100
0000
0010
0000
,
0001
0000
1000
0000
,
0010
0000
0100
0000
,
0010
0000
1000
0000
,
0001
0000
0010
0000
,
0100
0000
1000
0000
,
0010
0000
0100
0000
,
0001
1000
0001
0000
,
1001
0000
0000
0000
,
0000
0000
0000
0000
,
0000
0000
0000
0000
,
0000
0000
0000
0000
,
1000
1000
0000
0000
,
0010
0010
0000
0000
,
0100
0000
0001
0000
,
1000
0001
0100
0000
,
0110
0000
0000
0000
,
0010
1000
0000
0001
,
0010
0000
0100
0000
,
1000
0000
0010
0000
,
0100
0000
0001
0000
,
1000
0000
0100
1000
,
0000
0001
0100
0000
,
0010
0000
1000
0100
,
0000
0010
0100
0000
,
0010
0001
0000
1000
,
0010
0000
0100
0000
,
0001
0000
0010
0000
,
0100
0000
1000
0000
,
0001
0000
0100
0001
,
0100
0000
0010
1000
,
0010
0000
1000
0000
,
0100
0010
0001
0000
,
1001
0000
0000
0000
,
0000
0000
0000
0000
,
0000
0000
0000
0000
,
0000
0000
0000
0000
,
1000
0000
0000
0000
,
0001
0000
0000
0000
,
0100
0000
0000
0000
,
0010
0000
0000
0000
,
1000
0000
0001
0000
,
0100
0000
0001
1000
,
0010
0000
1000
0000
,
0100
0010
0001
0000
,
1000
0000
0010
0000
,
0100
0000
0001
0000
,
0100
0010
1000
0000
,
0100
1000
0010
0000
,
0110
0000
0000
0000
;

//---------------dance-single - ----------------
#NOTEDATA:;
#CHARTNAME:;
#STEPSTYPE:dance-single;
#DESCRIPTION:;
#CHARTSTYLE:;
#DIFFICULTY:Easy;
#METER:9;
#RADARVALUES:0.306240,0.382666,0.056413,0.000000,0.000000,228.000000,222.000000,6.000000,0.000000,0.000000,0.000000,0.000000,0.000000,0.000000,0.306240,0.382666,0.056413,0.000000,0.000000,228.000000,222.000000,6.000000,0.000000,0.000000,0.000000,0.000000,0.000000,0.000000;
#CREDIT:ZSL;
#NOTES:
0000
0000
0000
0000
,
0000
0000
0000
0000
,
0000
0000
0000
0000
,
0000
0000
0000
0000
,
0000
0000
0000
0000
,
0001
0000
0100
0000
,
0010
0000
1000
1000
,
0100
0000
0010
0000
,
0001
1000
0001
0000
,
0100
0000
0010
0000
,
1000
0000
0001
0001
,
0010
0000
0100
0000
,
1000
0001
1000
0001
,
0100
0000
0010
0000
,
0100
0010
1000
0000
,
0100
0010
0100
1000
,
0001
0000
0000
0000
,
0100
0010
1000
0001
,
0010
0100
1000
0010
,
0100
0010
1000
0001
,
0010
0001
0100
0010
,
1000
0000
0001
0100
0000
0010
0000
0100
,
0000
0001
1000
0000
0100
0000
0010
0000
,
0100
0000
1100
0000
0000
0001
0000
0000
,
0101
0000
0000
1000
0000
0000
1010
0000
,
0010
0000
0100
0010
0000
0100
0010
0000
,
0000
1000
0001
0010
,
0100
0000
0010
0001
0000
0010
0001
0000
,
0000
1000
0010
0100
,
0001
0000
0100
0010
0000
1000
0001
0000
,
0000
0010
0100
1000
,
0001
0100
0010
1000
,
0100
0010
0100
1000
,
0001
0000
0000
0000
,
0000
0000
0000
0000
,
0000
0000
0000
0000
,
0000
0000
0000
0000
,
1001
0001
0000
0100
,
0110
0010
1000
0001
,
0010
0100
1000
0001
,
0100
0010
0100
0001
,
1000
0000
0000
0000
,
0001
0000
1000
0100
0000
0010
0000
0001
,
0000
0000
1000
0000
0010
0000
0100
0010
,
0000
0000
0100
0000
0001
0000
0010
0001
,
0000
0100
0000
0010
0000
1000
0001
0000
,
0000
0000
0010
0000
0100
0000
1000
0100
,
1000
0001
0100
0010
,
0000
1000
0001
0000
0100
0000
0010
1000
,
0000
0001
0010
0000
0100
0000
1000
0001
,
1000
0000
0001
0100
0000
0010
0000
1000
,
0000
0000
0001
0000
0010
0000
0100
0010
,
0000
0100
1100
0000
,
0001
0100
0000
0010
0000
1000
0100
0000
,
0010
0100
1000
0001
,
0100
0010
1000
0001
,
0010
0001
0100
0010
,
1000
0000
0010
0000
1000
0001
0000
0010
,
0100
0000
0000
0000
,
0000
0000
0000
0000
,
0000
0000
0000
0000
,
0000
0000
0000
0000
,
0001
0000
1000
0000
,
0100
0000
0010
0010
,
0001
0000
1000
0000
,
0010
0100
0001
0000
,
1000
0001
0100
0001
,
1000
0100
0010
0001
,
0100
0010
1000
0001
,
0010
0100
1000
0000
,
0001
1000
0100
1000
,
0010
0100
0010
0100
,
0001
0010
0100
1000
,
0010
0100
0010
1000
,
0100
0000
0000
0000
;

//---------------dance-single - ----------------
#NOTEDATA:;
#CHARTNAME:;
#STEPSTYPE:dance-single;
#DESCRIPTION:;
#CHARTSTYLE:;
#DIFFICULTY:Medium;
#METER:12;
#RADARVALUES:0.522489,0.591393,0.084619,0.000000,0.056413,389.000000,380.000000,9.000000,0.000000,0.000000,0.000000,0.000000,0.000000,0.000000,0.522489,0.591393,0.084619,0.000000,0.056413,389.000000,380.000000,9.000000,0.000000,0.000000,0.000000,0.000000,0.000000,0.000000;
#CREDIT:ZSL;
#NOTES:
0000
0000
0000
0000
,
0000
0000
0000
0000
,
0000
0000
0000
0000
,
0000
0000
0000
0000
,
0000
0000
0000
0000
,
0001
1000
0001
0000
0100
0000
0010
0000
,
1000
0001
1000
0000
0100
0000
0010
0000
,
0001
0000
1000
0010
1000
0000
0010
0000
,
0100
0001
0100
0001
1000
0000
0000
0000
,
0100
0010
0001
0000
1000
0000
0001
0000
,
0100
0010
1000
0000
0010
0000
0100
0000
,
0001
1000
0100
0000
0010
0000
0100
0000
,
0010
0001
1000
0000
0001
0100
0010
0000
,
1000
1100
0001
0101
,
1000
0110
0001
0110
,
1000
0010
0100
0001
1000
0100
0010
0001
,
1000
0000
0000
0000
,
0001
0100
0010
1000
0100
1000
0001
0000
,
1000
0001
0100
0010
1000
0010
0100
0000
,
0001
1000
0100
0010
0001
1000
0010
0000
,
0100
0001
1000
0100
0010
0001
0100
0000
,
0001
1000
0100
0010
0000
0010
0100
1000
,
0000
0001
0100
0010
1000
0100
0010
0001
,
1000
0000
0000
0000
0001
0100
0000
0010
0000
0000
0100
0001
0000
1000
0000
0000
,
0100
1000
0000
0010
0000
0000
0100
0001
0000
0010
0000
0000
0100
0000
1000
0000
,
0001
0000
0100
0001
0000
1000
0100
0000
,
0000
0010
0100
1000
0010
0100
0010
1000
,
0001
0000
0010
0001
0000
0100
0010
0000
,
0000
1000
0001
0010
0100
1000
0001
0100
,
0010
0000
1000
0100
0000
0010
0001
0000
,
0000
1000
0010
0100
0010
1000
0001
0000
,
0010
0100
1000
0001
0100
0010
1000
0000
,
0010
0100
0001
0010
0100
1000
0001
0000
,
1001
0000
0000
0000
,
0000
0000
0000
0000
,
0000
0000
0000
0000
,
0000
0000
0000
0000
,
1001
0000
1000
1000
0000
0100
0010
0001
,
0100
0000
0000
0100
0000
0000
0010
0000
0000
0010
0000
0000
1000
0000
0000
0000
0001
0000
1000
0000
0000
0000
0000
0000
,
0100
0010
0001
0000
0100
0010
1000
0000
,
0010
0000
0000
0100
0000
0000
0001
0000
0000
0000
0000
0000
1000
0000
0100
0000
0010
0000
0001
0000
0000
0000
0000
0000
,
1001
0000
0000
0000
,
1000
0010
0100
0001
0000
0100
0000
0010
,
0000
1000
0001
0010
0100
1000
0100
0010
,
0000
0001
1000
0001
0100
0010
0100
0001
,
1000
0100
0000
0010
0000
0100
1000
0001
,
0000
1000
0010
0100
0001
1000
0010
1000
,
0100
0000
1000
0001
0100
0001
0010
0100
,
0000
1000
0100
0010
1000
0010
0100
1000
,
0000
0001
0100
0010
0001
0010
0100
0000
,
0001
0010
0100
1000
0000
0100
0000
0010
,
0000
0001
1000
0010
0100
0001
0100
0010
,
0000
0000
1000
0000
0001
0000
1000
0000
0100
0000
0000
0010
0000
0000
0001
0000
,
1000
0010
0000
0100
0000
0010
1000
0001
,
0100
0010
0100
0010
1000
0001
1000
0001
,
0010
0100
0010
0100
1000
0001
1000
0001
,
0010
0100
1000
0001
0100
0010
1000
0001
,
0100
0010
1000
0100
0001
0100
0010
0001
,
1000
0000
0000
0000
,
0000
0000
0000
0000
,
0000
0000
0000
0000
,
0000
0000
0000
0000
,
0010
0100
0001
0000
0100
0000
0010
0000
,
1000
0100
0010
0000
0100
0000
1000
0000
,
0001
0000
0010
0001
1000
0000
0010
0000
,
0100
0001
0100
0001
0010
0000
0100
0000
,
1000
0100
0010
0001
0100
0010
1000
0000
,
0001
1000
0001
0100
1000
0100
0010
0000
,
0100
0001
0010
0100
1000
0001
0100
0000
,
0010
1000
0100
0010
0100
1000
0010
0000
,
0100
0101
0010
1010
,
1000
0001
0010
0001
0100
0010
1000
0000
,
0100
1000
0010
0100
0001
1000
0100
0010
,
1000
0010
0001
0100
0010
1000
0100
1000
,
0010
0000
0000
0000
;

//---------------dance-single - ----------------
#NOTEDATA:;
#CHARTNAME:;
#STEPSTYPE:dance-single;
#DESCRIPTION:;
#CHARTSTYLE:;
#DIFFICULTY:Hard;
#METER:15;
#RADARVALUES:0.698443,0.834908,0.216249,0.000000,0.361982,520.000000,497.000000,23.000000,0.000000,0.000000,0.000000,0.000000,0.000000,0.000000,0.698443,0.834908,0.216249,0.000000,0.361982,520.000000,497.000000,23.000000,0.000000,0.000000,0.000000,0.000000,0.000000,0.000000;
#CREDIT:ZSL;
#NOTES:
// measure 0
0000
0000
0000
0000
,  // measure 1
0000
0000
0000
0000
,  // measure 2
0000
0000
0000
0000
,  // measure 3
0000
0000
0000
0000
,  // measure 4
0000
0000
0000
0000
,  // measure 5
0001
0100
0010
0000
1000
0001
0010
0000
,  // measure 6
0100
1000
0001
0000
0010
0001
0100
0010
,  // measure 7
1000
0000
0100
1000
0100
0000
0010
0001
,  // measure 8
0010
0001
1000
0010
0100
0000
0001
0000
,  // measure 9
1000
0100
0010
0001
0100
0001
0010
0100
,  // measure 10
1000
0001
0100
0010
1000
0100
0010
0000
,  // measure 11
0001
0100
0010
1000
0100
1000
0010
0100
,  // measure 12
0001
1000
0100
0010
0001
0100
0010
0000
,  // measure 13
0100
0001
1000
0100
1000
0001
0100
0010
,  // measure 14
1000
0001
0010
0001
1000
0100
0010
0001
,  // measure 15
0100
0000
0100
0000
0010
0000
0010
0000
1000
0001
1000
0000
0100
0010
0100
0010
,  // measure 16
0001
0000
0000
0000
,  // measure 17
1000
0010
0100
0010
1000
0100
0010
0001
,  // measure 18
0100
0000
0001
0000
1000
0000
0100
0000
0010
0001
0010
0001
1000
0000
0001
0000
,  // measure 19
0100
0001
0010
0100
1000
0010
0100
0001
,  // measure 20
1000
0000
0001
0000
0010
0000
0100
0000
1000
0010
1000
0010
0100
0000
0001
0000
,  // measure 21
1000
0100
0010
1000
0000
0010
0100
1000
,  // measure 22
0000
0000
0010
0100
0001
0000
0100
0000
1000
0000
0100
0000
0001
0000
1000
0000
,  // measure 23
0100
0000
0010
0000
0001
0010
0100
1000
0000
0000
0001
0010
0100
1000
0000
0000
,  // measure 24
0001
0100
0010
1000
0000
0000
0001
0100
0010
1000
0000
0000
0100
0010
0001
0000
,  // measure 25
1000
0000
0010
1010
0000
0001
0101
0000
,  // measure 26
0000
0000
1000
0000
0100
0000
0010
0000
0110
0000
0000
0000
1001
0000
0001
0100
,  // measure 27
0001
0000
1000
1100
0000
0010
0110
0000
,  // measure 28
0000
0000
0001
0000
0100
0000
0010
0000
0001
0000
0010
1000
0001
0000
0010
0000
,  // measure 29
0110
0000
0100
1001
0000
0010
1001
0000
,  // measure 30
0000
0000
1000
0000
0010
0000
0100
0000
1000
0000
0100
0000
0010
0000
1000
0001
,  // measure 31
0010
0100
1000
0001
0100
0010
1000
0001
,  // measure 32
0010
0001
0010
0001
1000
0000
0010
0000
0100
0001
1000
0100
0010
0000
0000
0000
,  // measure 33
1001
0000
0000
0000
,  // measure 34
0000
0000
0000
0000
,  // measure 35
0000
0000
0000
0000
,  // measure 36
0000
0000
0000
0000
,  // measure 37
1001
0000
1000
0110
0000
0001
0001
1000
,  // measure 38
1100
0000
0000
0100
0000
0000
0010
0000
0000
0110
0000
0000
0100
0000
1000
0000
0001
0000
0100
0000
0010
0000
1000
0000
,  // measure 39
0001
0010
1000
0010
0001
0100
1000
0100
,  // measure 40
0001
0000
0000
0100
0000
0000
0010
0000
0000
1000
0000
0000
0100
0000
0010
0000
0001
0000
0100
0000
0010
0000
1000
0000
,  // measure 41
0001
0000
0000
0000
,  // measure 42
1000
0001
0010
0100
0000
0110
0000
1100
,  // measure 43
0000
0000
0001
0100
0001
0100
0001
0100
0010
0000
1000
0000
0100
0000
0010
0000
,  // measure 44
0000
0000
0100
1000
0100
1000
0100
1000
0001
0000
0100
0000
0010
0000
1000
0000
,  // measure 45
0000
0000
1010
0000
0000
0000
1100
0000
0000
0000
0100
0010
0001
0000
1000
0000
,  // measure 46
0000
0000
0010
0000
1000
0000
0001
0000
0010
0100
1000
0000
0001
0000
1000
0000
,  // measure 47
0010
0000
1000
0000
0001
0000
0100
0000
0010
0100
0001
0100
0010
0000
1000
0000
,  // measure 48
0000
0000
0001
0000
0001
0000
1000
0000
0100
0010
0001
1000
0010
1000
0001
0000
,  // measure 49
0000
0000
0100
0000
0100
0000
0001
0000
0100
0010
1000
0001
0010
0100
1000
0000
,  // measure 50
0001
1000
0010
0100
0000
0110
0000
0101
,  // measure 51
0000
0000
1000
0100
1000
0100
1000
0100
0010
0000
0001
0000
0100
0000
0010
0000
,  // measure 52
0000
0000
0100
0001
0100
0001
0100
0001
1000
0000
0000
0100
0000
0000
0010
0000
,  // measure 53
0011
0001
0000
0101
0000
0100
0010
1000
,  // measure 54
0001
0010
0100
0010
1000
0010
0100
0010
,  // measure 55
0001
0100
0010
0100
1000
0100
0010
0100
,  // measure 56
0001
0100
0010
1000
0001
0000
0010
0000
0100
1000
0001
0010
0100
0000
1000
0000
,  // measure 57
0010
1000
0100
0010
0001
0000
0010
0000
0110
0000
1000
0000
0001
0000
0100
0000
,  // measure 58
0010
0000
0000
0000
,  // measure 59
0000
0000
0000
0000
,  // measure 60
0000
0000
0000
0000
,  // measure 61
0000
0000
0000
0000
,  // measure 62
1000
0010
0100
0010
1000
0100
0010
0100
,  // measure 63
1000
0010
0100
0001
1000
0001
0100
0010
,  // measure 64
1000
0000
0100
0010
0001
0000
0010
0100
,  // measure 65
1000
0001
0100
0001
0010
0000
0100
0000
,  // measure 66
1000
0000
0001
0000
0100
0001
0100
0000
0001
0000
1000
0000
0100
1000
0100
0000
,  // measure 67
0010
0000
0001
0000
1000
0001
1000
0000
0010
0100
0001
0000
1000
0000
0100
0000
,  // measure 68
0010
0000
0001
0000
0100
0001
0100
0000
0010
0000
1000
0000
0100
1000
0100
0000
,  // measure 69
0010
0000
0100
0000
1000
0000
0010
0000
0100
0001
1000
0000
0010
0000
0100
0000
,  // measure 70
0001
0000
0010
0000
0100
0010
0001
0000
1000
0000
0010
0000
0100
0010
1000
0000
,  // measure 71
0001
0000
1000
0000
0100
0000
0010
0000
0100
1000
0001
0000
0100
0000
0010
0000
,  // measure 72
0001
0010
1000
0100
0001
0100
0010
0001
,  // measure 73
1000
0010
1000
0000
0010
0100
0010
0000
1000
0100
1000
0001
0010
0100
1000
0010
,  // measure 74
0100
0000
0000
0000
;
