#TITLE:Speed Over Beethoven;
#SUBTITLE:;
#ARTIST:Rose;
#TITLETRANSLIT:;
#SUBTITLETRANSLIT:;
#ARTISTTRANSLIT:;
#GENRE:;
#CREDIT:Braeden;
#MUSIC:Speed Over Beethoven.ogg;
#BANNER:ban.png;
#BACKGROUND:bg.png;
#JACKET:jacket.png;
#CDTITLE:;
#SAMPLESTART:27.874;
#SAMPLELENGTH:15.000;
#SELECTABLE:YES;
#OFFSET:0.000;
#BPMS:0.000=169.005;
#STOPS:;
#DISPLAYBPM:169.000;
#BGCHANGES:;
#FGCHANGES:;

//--------------- dance-single - ----------------
#NOTES:
     dance-single:
     :
     Beginner:
     5:
     0.247136,0.336073,0.253432,0,0,157,134,23,0,0,0,0.247136,0.336073,0.253432,0,0,157,134,23,0,0,0:
0000
0000
0000
0000
,
0000
0000
0000
0000
,
1001
0000
0000
0000
,
1001
0000
0000
0000
,
1001
0000
0000
0000
,
1000
0001
1000
0001
,
1001
0000
0000
0000
,
0110
0000
0000
0000
,
1001
0000
0000
0000
,
1000
0001
1000
0001
,
0100
0100
0100
0100
,
0010
0010
0010
0010
,
1001
0000
0000
1000
,
0010
0000
0000
0100
,
0002
0000
0000
0003
,
1000
0001
1000
0001
,
2002
0000
3003
0100
,
0020
0000
0030
1000
,
1001
0000
0001
0000
,
2000
0000
3000
0000
,
0001
0100
1000
0000
,
0010
0001
1000
0000
,
0001
0100
1000
0000
,
0010
0001
1000
0000
,
0001
0100
0001
0100
,
0001
0100
0001
0000
,
1000
0010
0100
0001
,
0200
0000
0310
0000
,
1000
0100
0001
0000
,
0010
1000
0001
0000
,
1000
0100
0001
0000
,
0010
1000
0000
0000
,
0001
1000
0001
1000
,
0010
0100
0001
0000
,
1001
0000
1000
0000
,
0002
0000
0003
1000
,
0100
2000
3200
1300
,
0010
2000
3020
0130
,
0001
0200
0302
0013
,
0100
0020
0230
1300
,
0001
0100
0001
0100
,
0010
1000
0010
0000
,
1000
0001
0010
0001
,
2000
0000
3010
1000
,
0001
2000
3002
0103
,
0010
0200
0320
0130
,
0001
0200
0302
1003
,
0100
2000
3200
1300
,
0001
0010
0100
1000
,
0001
0100
0010
0000
,
1000
0000
0001
0000
,
2000
0000
3000
0000
,
0001
0000
1000
0000
,
1001
0001
0000
0100
,
0010
0100
0000
0001
,
1001
0001
0000
0000
,
1000
0100
0010
0100
,
0010
0000
0000
0001
,
1000
0000
0000
0001
,
1000
0000
0010
0000
,
0100
0000
0001
0000
,
0110
0000
0000
0000
;

//--------------- dance-single - JA- ----------------
#NOTES:
     dance-single:
     JA-:
     Easy:
     10:
     0.294359,0.403288,0.374639,0,0,187,153,34,0,0,0,0.294359,0.403288,0.374639,0,0,187,153,34,0,0,0:
0000
0000
0000
0000
,
0000
0000
0000
0000
,
1001
0002
0003
0100
,
1001
0020
0030
1000
,
1001
0002
0003
0000
,
1001
0000
1001
0000
0110
0000
0100
0010
,
0100
0020
0030
1000
,
1001
0002
0003
1000
,
0110
0002
0003
0000
,
1001
1000
0001
1000
,
0001
0010
0001
0010
0100
1000
0100
0010
,
0001
1000
0001
1000
0001
1000
0001
0000
,
1001
0000
1000
0000
0010
0000
0100
0001
,
1000
0000
1010
0000
0100
0000
0001
0010
,
0100
1100
1000
0001
,
1000
0100
0010
0001
1000
0010
0100
0001
,
1000
0000
1001
0000
0001
0000
0100
0010
,
1000
0000
1001
0000
1000
0000
0001
1000
,
0010
0100
0001
1000
,
0001
0010
0100
1000
0001
0100
0001
1000
,
0010
0000
1010
0000
1000
1000
0001
0100
,
0020
0000
1030
0000
0001
0010
0001
1000
,
0002
0000
0103
0000
0010
0010
1000
0001
,
2000
0000
3100
0000
0010
0001
0010
0000
,
0001
0100
1000
0100
,
0101
0001
1000
0001
,
1002
1000
0010
0103
,
0020
0000
0100
0000
1030
0000
0001
1000
,
0001
0000
1001
0000
1000
1000
0010
0100
,
0010
0000
1000
0000
0001
0000
1000
0100
,
2000
0000
3001
0000
1000
1000
0010
0100
,
0020
0000
1030
0000
0001
0000
1000
0100
,
0010
0001
1000
0001
,
1001
0000
1000
0000
0010
0000
0000
0100
,
0001
0100
0010
1000
0001
1000
0000
0002
,
0000
1003
0100
0010
0001
1000
0001
0000
,
0120
0000
0430
0000
0310
0010
0100
0001
,
0020
0000
0034
0000
0103
0000
0010
1000
,
0020
0000
4030
0000
3010
0010
0100
0001
,
2000
0000
3004
0000
1003
0000
0001
0100
,
0010
0001
0010
0100
,
0101
0010
1000
0000
,
2001
0001
0010
3100
,
2000
0000
0010
0000
3001
0000
0100
0010
,
0100
0000
0004
0000
1003
0000
0001
1000
,
1000
0000
0004
0000
0013
0000
0100
1000
,
0002
0000
0043
0000
0031
0000
1000
0100
,
0010
0000
0004
0000
1003
0000
0001
1000
,
0100
0010
1000
0010
,
0100
0000
1000
0000
0001
0000
0000
2000
,
0000
3010
0100
0001
0100
0010
0000
2000
,
0000
3100
0010
0001
1000
0000
0001
0000
,
1000
0100
0010
0001
0010
0100
1000
0000
,
1001
0000
0002
0000
0003
0100
0010
0100
,
0001
0000
1002
0000
0003
1000
0100
0010
,
0001
0201
0000
0300
,
0010
1000
0010
1000
0001
0100
0001
0100
,
0020
0000
1000
0000
1030
0100
0010
0001
,
2000
0000
0100
0000
3100
0010
0001
0100
,
0010
1000
0000
0001
0010
0001
0000
1000
,
0010
1000
0000
0001
0100
0001
0000
0000
,
0220
0000
0000
0330
;

//--------------- dance-single - XO+ FS ----------------
#NOTES:
     dance-single:
     XO+ FS:
     Medium:
     13:
     0.429733,0.518572,0.429733,0.231395,0,273,234,39,21,0,0,0.429733,0.518572,0.429733,0.231395,0,273,234,39,21,0,0:
0000
0000
0000
0000
,
0000
0000
0000
0000
,
1001
0000
0001
0000
0001
0000
0001
0000
0100
0000
0010
0000
1000
0000
0100
00M0
,
0100
0000
0001
0000
0001
0000
0001
0000
1000
0000
0001
0000
0100
0000
0010
0M00
,
0010
0001
0001
0001
1000
0100
0010
0001
,
1000
0000
0100
0000
0001
0000
0100
0000
1000
0000
0000
0001
1000
0000
0010
0000
,
1010
0000
1000
0000
1000
0000
1000
0000
0001
0000
1000
0000
0001
0000
0010
0M00
,
0010
1000
1000
1000
0001
0100
0010
1000
,
1010
0010
0010
0010
1000
0100
0010
0001
,
1000
1000
0010
0010
0100
0100
0001
0001
,
1000
0001
1000
0001
1000
0001
1000
0001
1000
0001
1000
0001
1000
0001
1000
0001
,
1000
0100
0001
0100
1000
0010
0001
0010
,
1010
0000
1000
0100
0001
0100
1000
0001
,
1002
0000
0103
0010
0001
0010
0100
0001
,
0102
0000
0103
0010
0001
0010
0100
0010
,
1000
0000
0100
0000
0001
0000
0100
0000
1000
0000
0001
0100
0001
0000
1000
0000
,
1002
0000
1003
0001
0010
1000
0010
0100
,
2000
0000
3001
0100
0010
0100
1000
0100
,
0101
0000
1000
0100
0010
0001
1000
0010
,
1000
0100
1000
0100
1000
0100
1000
0100
1000
0000
0001
0000
0100
0000
0010
0000
,
1000
0000
0000
0000
1010
0000
1000
0000
0010
0M00
0010
0000
0001
0000
1000
0000
,
0010
0000
0100
0000
0010
0000
1000
0000
0001
0000
1000
0010
1000
0000
0001
0000
,
1002
0000
0000
0000
1003
0000
0001
0000
0010
0M00
0010
0000
1000
0000
0001
0000
,
0200
0000
0000
0000
0301
0000
1000
0000
0100
0000
0010
0001
0010
0000
0001
0000
,
1000
0100
0001
0100
1000
0010
0100
0001
,
1002
0000
0000
0000
0203
0000
0000
0000
0301
0000
0100
0010
0100
0000
0001
0000
,
1001
0000
0000
0000
1000
0000
0001
0000
0010
000M
0010
0000
1000
0000
0001
0000
,
2000
0000
0000
0000
3001
0000
1000
0000
0010
0000
1000
0100
1000
0000
0001
0000
,
1001
0000
0000
0000
1100
0000
1000
0000
0100
00M0
0100
0000
0001
0000
1000
0000
,
0001
0000
0010
0000
0001
0000
0100
0000
0010
0000
1000
0001
1000
0000
0010
0000
,
1010
0000
0000
0000
0101
0000
0001
0000
0010
0M00
0010
0000
1000
0000
0001
0000
,
0200
0000
0000
0000
0310
0000
1000
0000
0100
0000
0010
0001
0010
0000
0001
0000
,
1000
0010
0001
0010
0100
0001
0100
0010
,
2010
0000
0000
0000
3002
0000
0000
0000
0103
0000
0010
1000
0010
0000
1000
0000
,
1001
0001
1000
0010
1000
0001
0010
1000
,
0010
0001
0010
0100
0010
0001
0010
0100
,
1000
0000
0002
0003
0020
0030
0200
0300
2000
3000
1000
0000
0010
0000
0100
0000
,
0001
0000
2000
3000
0020
0030
0200
0300
0002
0003
1000
0000
0100
0000
1000
0000
,
0001
0000
2000
3000
0200
0300
2000
3000
0002
0003
1000
0000
0010
0000
0100
0000
,
0010
0000
2000
3000
0020
0030
0200
0300
0020
0030
1000
0001
1000
0000
0001
0000
,
1001
1000
0001
0100
1000
0100
0010
1000
,
2001
0000
0000
0000
3001
0000
0100
0000
0001
0000
1000
0100
1000
0000
0010
0000
,
0210
0000
0000
0000
0320
0000
0000
0000
1030
0000
0001
0100
0001
0000
0100
0000
,
0020
0000
2030
0000
3001
1000
0010
0100
,
0001
0000
2000
3000
0020
0030
0200
0300
0002
0003
1000
0000
0100
0000
0001
0000
,
0100
0000
2000
3000
0200
0300
0002
0003
0200
0300
1000
0000
0100
0000
1000
0000
,
0001
0000
2000
3000
0200
0300
2000
3000
0002
0003
1000
0000
0100
0000
0010
0000
,
0001
0000
2000
3000
0200
0300
0020
0030
0002
0003
0100
0010
0100
0000
0001
0000
,
1001
1000
0001
0010
1000
0010
0001
0100
,
0020
0000
0000
0000
2030
0000
0000
0000
3001
0000
0100
0010
0100
0000
0001
0000
,
1001
1000
0010
0100
0001
0010
0100
1000
,
0001
0000
0010
0000
1000
0000
0010
0000
0001
0000
0000
1000
0100
0000
0010
0000
,
0100
0010
1000
0010
0001
0100
1000
0100
,
0102
0000
1003
0010
0100
1000
0100
0010
,
1000
0001
1000
0100
0010
1000
0010
0001
,
2001
0000
3001
0100
0010
1000
0001
1000
,
0001
0000
0100
0000
1000
0000
0100
0000
0001
0000
1000
0100
1000
0000
0001
0000
,
1002
0000
0103
0010
0100
0001
0100
1000
,
0100
0010
1000
0001
0010
0001
1000
0001
,
0001
0001
0000
0100
0100
0100
0000
0010
,
0010
0000
0010
0000
0000
0000
1000
0000
1000
0000
0000
1000
0001
0000
0100
0000
,
0022
0000
0033
0000
;

//--------------- dance-single - STR FS DS XO SJ ----------------
#NOTES:
     dance-single:
     STR FS DS XO SJ:
     Hard:
     16:
     0.598163,0.587715,0.08815,0.011019,0.286489,380,372,8,1,0,0,0.598163,0.587715,0.08815,0.011019,0.286489,380,372,8,1,0,0:
0000
0000
0000
0000
,
0000
0000
0000
0000
,
1001
0000
0001
0000
0001
0000
0001
0000
1000
0100
0010
0001
1000
0100
0010
000M
,
0010
1000
1000
1000
0001
0100
0010
1000
,
1010
0000
0010
0000
0010
0000
0010
1000
0001
0010
0100
1000
0001
0100
0010
0000
,
1010
0000
1000
0000
1001
0000
0001
0000
0101
0000
0100
0010
1000
0000
1001
0000
,
0101
0000
0001
0000
0001
0000
0001
0000
1000
0100
0010
0001
1000
0001
0010
0M00
,
0010
1000
1000
1000
0001
0100
0010
1000
,
1001
0000
0001
0000
0001
0000
0001
0000
1000
0100
0010
0001
1000
0010
0100
0001
,
1000
0000
1000
0000
0100
00M0
0100
0000
0001
0000
0001
0000
0010
0M00
0010
0000
,
1000
0100
1000
0010
0100
0001
0010
0100
1000
0001
1000
0010
0100
0001
0100
0010
,
1000
0001
1000
0001
0010
0100
0010
0100
1000
0010
0100
0001
0100
0010
1000
0001
,
1000
0000
0001
0000
1000
0010
0100
0001
1000
0000
0100
0000
0001
0000
0100
0000
,
1000
0000
0001
0000
1000
0010
1000
0001
1000
0000
0100
0000
0001
0000
0100
0000
,
0010
0000
0001
0000
1000
0010
0100
0001
1000
0100
0010
0001
1000
0010
0100
0001
,
1000
0000
0010
0000
0001
0000
0010
0000
1000
0000
0010
0100
0010
0000
1000
0000
,
1001
0000
0001
0000
1000
0100
1000
0100
0010
0000
1000
0000
0010
0000
0100
0000
,
1000
0000
0001
0000
0010
0001
0010
0001
1000
0000
0100
0000
0001
0000
0100
0000
,
1100
0000
1000
0000
0001
0100
0010
1000
0001
0010
0100
1000
0001
0100
0010
1000
,
0001
0100
0001
0100
0010
1000
0010
1000
0001
0010
0100
1000
0001
0100
0010
1000
,
0001
0000
1000
0000
1001
0000
0001
0000
0100
00M0
0100
0000
1000
0000
1000
0000
,
0002
0000
0100
0000
1003
0000
0100
0000
0010
0M00
0010
0000
1000
0000
0001
0000
,
0011
0000
0010
0000
0001
0000
1000
0000
0100
00M0
0100
0000
0001
0000
0010
0000
,
0200
0000
0010
0000
1300
0000
0001
0000
0100
00M0
0100
1000
0001
0000
0010
0000
,
0011
0010
1000
0010
0001
0100
0010
1000
,
1020
0000
0000
0000
1030
0000
0100
0000
1000
0000
0001
0010
0100
0000
1000
0000
,
1002
0000
0000
0000
1003
0000
0010
0000
0100
0000
0100
0001
1000
0000
0100
0000
,
0120
0000
0000
0000
0032
0000
0000
0000
1003
0000
0100
0010
0100
0000
1000
0000
,
1001
0000
0001
0000
1001
0000
1000
0000
0010
0M00
0010
0000
0001
0010
0001
0000
,
2000
0000
0010
0000
3001
0000
0010
0000
0100
00M0
0100
0001
1000
0000
0100
0000
,
1001
0000
1000
0000
1100
0000
0100
0000
0010
0M00
0010
0000
1000
0010
1000
0000
,
0002
0000
0100
0000
1003
0000
0010
0000
0100
000M
0100
1000
0010
0000
1000
0000
,
1001
0001
1000
0100
0001
0100
0010
0001
,
2000
0000
0100
0000
3001
0000
1000
0000
0010
M000
0010
0100
1000
0000
0001
0000
,
0011
0000
0010
0000
0100
0000
1000
0000
0001
0000
0010
0001
0010
0000
0001
0000
,
1000
0000
0100
0000
0001
0000
0100
0000
0010
0000
0001
1000
0100
0000
0010
0000
,
0001
0000
0010
0000
0011
0000
0001
0000
0100
00M0
0100
0000
1000
0001
1000
0000
,
0001
0010
0001
0000
0100
0000
1000
0000
0100
0001
1000
0000
0001
0010
0001
0000
,
1001
0000
1000
0000
1001
0000
0001
0000
0010
0M00
0010
0000
1000
0001
1000
0000
,
0100
0010
0001
0000
0010
0000
0100
0000
0010
0000
0001
0010
0001
0000
1000
0000
,
0001
0100
0001
0000
1000
0100
1000
0000
0001
0010
0100
0000
1000
0100
0010
0000
,
0001
0100
0010
0000
1000
0010
0100
0000
0001
0000
0010
0001
0010
0000
0001
0000
,
1001
0000
1000
0000
1000
0000
0100
0000
0010
0000
0001
1000
0001
0000
0100
0000
,
2010
0000
0000
0000
0001
0000
0000
0000
3001
0000
1000
0100
0010
0000
0001
0000
,
0011
0000
0010
0000
0011
0000
0001
0000
0010
0M00
0010
0000
1000
0001
0010
0000
,
0001
1000
0100
0000
0010
0000
1000
0000
0010
0000
0001
1000
0001
0000
1000
0000
,
1001
0000
0001
0000
1001
0000
1000
0000
0100
00M0
0100
0000
0001
1000
0001
0000
,
1000
0100
1000
0000
0010
0000
0001
0000
0010
0000
1000
0001
1000
0000
0100
0000
,
1000
0100
1000
0000
0001
0010
0001
0000
1000
0100
0010
0000
0001
0100
0001
0000
,
1000
0010
0100
0001
1000
0100
0010
0001
1000
0010
1000
0100
0010
0001
0100
0001
,
1000
0010
0100
0001
1000
0010
1000
0100
1000
0001
0100
0001
0010
0001
1000
0010
,
1000
0000
0100
0000
0001
0000
0100
0000
2000
0000
3000
0001
0010
0000
0100
0000
,
0010
0100
0001
0100
1000
0100
0010
0001
,
1001
0000
1000
0000
0001
0100
0010
1000
0001
0010
0100
0000
1000
0000
0100
1000
,
0001
0100
0010
1000
0001
0010
0100
1000
0001
0100
0010
0000
0001
0000
0010
0000
,
0100
0000
0001
0000
1000
0010
0100
0001
1000
0100
0010
0001
1000
0010
1000
0100
,
1000
0000
0010
0000
0001
0000
0010
0000
1000
0000
0100
0010
0100
0000
1000
0000
,
1001
0000
0001
0000
1000
0010
0100
0001
1000
0100
0010
0000
0001
0000
1000
0100
,
1000
0001
0100
0010
1000
0100
1000
0001
1000
0010
0100
0000
0001
0000
0100
0000
,
0100
0000
0100
0000
0010
0000
1000
0000
0100
0010
0001
1000
0001
0100
0010
1000
,
0001
0100
0001
1000
0010
0100
0001
1000
0100
0000
0000
0010
0100
0000
0100
0000
,
2002
0000
0000
0000
,
3003
0000
0000
0000
;

//--------------- dance-double - XO+ ----------------
#NOTES:
     dance-double:
     XO+:
     Hard:
     15:
     0.60446,0.587715,0.132226,0.011019,0.286489,384,372,12,1,0,0,0.60446,0.587715,0.132226,0.011019,0.286489,384,372,12,1,0,0:
00000000
00000000
00000000
00000000
,
00000000
00000000
00000000
00000000
,
00011000
00001000
00010000
00001000
00000000
00010000
00000100
00001000
,
00000010
00001000
00000001
00001000
00000000
00000001
00000010
00000100
,
00001000
00000100
00010000
00000100
00010000
00000000
00001000
00000000
,
01001000
00000000
01000000
00000000
01100000
00000000
00100000
00000000
10100000
00000000
10000000
00010000
10000000
00000000
00100000
00000000
,
10000000
00010000
00100000
00010000
01000000
00001000
00010000
00001000
,
00011000
00010000
00000100
00010000
00000000
00000100
00001000
00000010
,
00001010
00001000
00000001
00001000
00000000
00000000
00000000
00000000
,
00000001
00000010
00000100
00001000
00010000
00100000
01000000
10000000
,
00010000
01000000
00100000
10000000
00010000
00100000
01000000
10000000
00010000
01000000
00100000
10000000
00010000
00100000
01000000
10000000
,
00010000
00010000
00100000
00100000
00001000
00001000
00010000
00000100
,
00010100
00000000
00010000
00001000
00000100
00001000
00010000
00000010
,
00001000
00000100
00001000
00000001
00000100
00000010
00000001
00000010
,
00000110
00000000
00000010
00010000
00001000
00100000
00010000
10000000
,
00010000
00000000
01000000
00000000
10000000
00000000
01000000
00000000
00010000
00000000
00100000
00001000
00100000
00000000
00001000
00000000
,
00021000
00000000
00030100
00001000
00010000
00001000
00000100
00010000
,
00000010
00001000
00000100
00000010
00000001
00000100
00000010
00000001
,
00000010
00000000
00000100
00000001
00001000
00000100
00000010
00000001
,
00001000
00000010
00000100
00000001
00001000
00000100
00000010
00000001
00001000
00000010
00000100
00000010
00001000
00000001
00000010
00000100
,
00001000
00000100
00010100
00000000
00010000
00010000
00001000
01000000
,
00200000
00000000
10300000
00000000
00010000
01000000
00100000
10000000
,
10020000
00000000
01030000
00000000
00001000
00001000
00010000
00001000
,
00000100
00000000
00001000
00000000
00010000
00000000
00000000
00000000
00000100
00000000
00001000
00000001
00001000
00000000
00000001
00000000
,
00001000
00000010
00000100
00001000
00000100
00000010
00001000
00010000
,
00001000
00000000
00000010
00000000
00001000
00000000
00000100
00000000
00000010
00000000
00000000
00000001
00001000
00000000
00000010
00000000
,
00001020
00000000
00010030
00000000
00001000
00100000
00010000
01000000
,
00020000
00000000
00130000
01000000
00010000
01000000
00100000
00010000
,
00110000
00000000
00101000
00000000
00001000
00001000
00010000
00100000
,
00020000
00000000
00000000
00000000
00031000
00000000
00000000
00000000
00010000
00000000
00000100
00001000
00000100
00000000
00001000
00000000
,
00000001
00000000
00001001
00000000
00001000
00001000
00000100
00000010
,
00000001
00000000
00001000
00000000
00000100
00000000
00000000
00000000
00001000
00000000
00000100
00000010
00000100
00000000
00001000
00000000
,
00001100
00000100
00001000
00010000
00001000
00000100
00010000
00001000
,
00100000
00000000
00001000
00000000
00010000
00000000
00001000
00000000
10000000
00000000
00010000
01000000
00010000
00000000
10000000
00000000
,
10010000
00010000
01000000
00100000
10000000
00010000
10000000
00020000
,
00000000
10030000
00100000
00010000
00100000
10000000
01000000
00010000
,
00001000
00010000
00001000
00000010
00000001
00001000
00000100
00000001
,
00000100
00001000
00000100
00000010
00000100
00001000
00010000
00001000
,
00000100
00001000
00000010
00000100
00000001
00000100
00001000
00010000
,
00001000
00000000
00010000
00000000
01000000
00000000
10000000
00000000
00010000
00000000
01000000
00100000
01000000
00000000
00010000
00000000
,
01010000
00000000
00000000
00000000
01100000
00000000
00000000
00000000
00001000
00000000
00010000
00001000
00010000
00000000
00000010
00000000
,
00001010
00000000
00000000
00000000
00001000
00000000
00000000
00000000
00000001
00000000
00000010
00000100
00001000
00000000
00000100
00000000
,
00010200
00000000
00001000
00000000
00010000
00010000
00010300
00000000
,
00001020
00000000
00000000
00000000
00100030
00001000
00010000
00100000
,
00010000
00001000
00000100
00000010
00000100
00001000
00010000
00000100
,
00001000
00010000
00001000
00000100
00010000
00001000
00000010
00001000
,
00010000
00000100
00001000
00010000
00001000
00000100
00010000
00001000
,
00100000
00000000
00010000
00000000
00100000
00000000
01000000
00000000
10000000
00000000
00010000
10000000
00010000
00000000
10000000
00000000
,
20100000
00000000
00000000
00000000
00010000
00000000
00000000
00000000
30100000
00000000
01000000
00001000
01000000
00000000
00001000
00000000
,
00021000
00000000
00000000
00000000
00030010
00000000
00000000
00000000
00001000
00000000
00000001
00000010
00000100
00000000
00001000
00000000
,
00001100
00000100
00001000
00000001
00001000
00000010
00000100
00000002
,
00000000
00000000
00000103
00000000
00001000
00000000
00010000
00000000
00001000
00000000
00000000
00010000
00001000
00000000
01000000
00000000
,
00010000
00100000
01000000
10000000
00010000
01000000
00100000
10000000
,
10010000
00010000
10000000
00100000
01000000
00100000
00010000
00100000
,
01000000
00001000
00010000
00001000
00000100
00001000
00010000
00000100
,
00010100
00010000
00000010
00001000
00000001
00000010
00000100
00001000
,
00000001
00000100
00001000
00010000
00100000
10000000
00010000
01000000
,
01010000
00010000
00100000
00001000
00010000
00000100
00000010
00000100
,
00010000
00001000
10000000
00100000
01000000
00001000
00010000
00000010
,
00001010
00001000
00000001
00000100
00000010
00010000
00001000
01000000
,
01100000
00000000
00000000
00000000
00011000
00000000
00000000
00000000
00000110
00000000
00000000
00000010
00000001
00000000
00010000
00000000
,
00020002
00000000
00030003
00000000
;
