#VERSION:0.83;
#TITLE:Sorry;
#SUBTITLE:;
#ARTIST:Fox Stevenson;
#TITLETRANSLIT:;
#SUBTITLETRANSLIT:;
#ARTISTTRANSLIT:;
#GENRE:;
#CREDIT:;
#MUSIC:sorry.ogg;
#BANNER:bn.png;
#BACKGROUND:bg.png;
#CDTITLE:cdtitle-sorae.png;
#SAMPLESTART:46.047;
#SAMPLELENGTH:11.163;
#SELECTABLE:YES;
#OFFSET:0.000;
#BPMS:0.000=172.000
,230.000=160.000
,232.000=159.000
,236.000=150.000
,240.000=137.500
,244.000=132.500
,245.000=130.500
,246.000=128.500
,247.000=126.000
;
#STOPS:;
#SCROLLS:0.000=1.000;
#JACKET:jk.png;
#BGCHANGES:;
#FGCHANGES:;

//--------------- dance-single - XO ----------------
#NOTEDATA:;
#STEPSTYPE:dance-single;
#DESCRIPTION:XO;
#DIFFICULTY:Medium;
#METER:13;
#RADARVALUES:0,0,0,0,0;
#CREDIT:sorae;
#NOTES:
0000
0000
0000
0000
,
0000
0000
0000
0000
,
0000
0000
0000
0000
,
0000
0000
0000
0000
,
0000
0000
0000
0000
,
0000
0000
0000
0000
,
0000
0000
0000
0000
,
0001
1000
0001
2000
0000
0000
0000
0000
,
0000
3000
0000
0000
,
0001
0010
0001
0000
1000
0010
1000
0000
,
0001
0010
0100
2000
0000
3010
1000
0000
,
0001
0100
0001
0000
1000
0100
1000
0000
,
0001
0100
0010
2000
0000
3100
0010
0100
,
0001
0100
0010
0000
0001
1000
0001
0000
,
0100
0010
1000
0002
0000
0013
0001
0000
,
0100
0010
0100
0000
0001
1000
0001
0000
,
0010
0100
1000
0020
0000
0130
0001
0000
,
1000
0010
1000
0000
0001
0010
0001
0000
,
1000
0010
0100
0002
0000
0013
0001
0000
,
1000
0100
1000
0000
0001
0100
0001
0000
,
1000
0100
0010
0002
0000
0103
0010
0100
,
1000
0100
0010
0000
1000
0001
1000
0000
,
0100
0010
0001
2000
0000
3010
1000
0000
,
0100
0010
0100
0000
1000
0001
1000
0000
,
0010
0100
0001
0020
0000
0130
1000
0000
,
0002
0000
0000
0000
0000
0203
0000
0320
,
0000
0000
2030
0000
0000
3001
0010
0200
,
0000
0320
0000
0000
,
0031
1000
0010
1000
,
0001
0010
0001
0000
1000
0010
1000
0000
,
0001
0100
0001
0000
1000
0100
1000
0000
,
0001
1000
0001
1000
0001
1000
0001
1000
,
0010
0000
0000
0000
,
1000
0100
0010
0200
0000
0301
0100
1000
,
0001
0000
1000
0010
1000
0001
0010
0000
,
0001
0100
0010
0200
0000
1300
0100
0010
,
1000
0000
0001
0010
0001
1000
0010
0000
,
1000
0100
0010
0200
0000
0301
0100
1000
,
0001
0000
1000
0010
1000
0001
0010
0000
,
0001
0100
0010
0200
0000
1300
0100
0010
,
1000
0001
0000
0000
,
1000
0010
0100
0020
0000
0031
0010
1000
,
0001
0000
1000
0100
1000
0001
0100
0000
,
0001
0010
0100
0020
0000
1030
0010
0100
,
1000
0000
0001
0100
0001
1000
0100
0000
,
1000
0010
0100
0020
0000
0031
0010
1000
,
0001
0000
1000
0100
1000
0001
0100
0000
,
0001
0010
0100
0020
0000
1030
0010
0100
,
1000
0001
0000
0000
,
1000
0010
1000
0010
0000
0000
0000
0000
,
0000
0000
0000
1000
,
0001
0010
0001
0010
0000
0000
0000
0000
,
0000
0000
0000
0000
0000
0000
0001
1000
,
0001
0100
0001
0100
0000
0000
0000
0000
,
0000
0000
0000
0001
,
1000
0100
1000
0100
0000
0000
0000
0000
,
0000
0000
0000
0000
,
1000
0001
1000
0001
0000
0000
0100
0000
,
0010
0000
0000
2000
0000
0000
3000
0000
,
0001
1000
0001
1000
0000
0000
0100
0000
,
0010
0000
0000
0002
0000
0000
0003
0000
,
1000
0010
0100
0001
,
1000
0100
0010
0001
,
1000
0010
0100
0001
,
0010
0000
0000
0000
,
0001
0100
0010
0200
0000
1300
0001
0010
,
1000
0000
0001
0010
0001
0100
0010
0000
,
1000
0100
0010
0200
0000
0301
1000
0010
,
0100
0000
1000
0010
1000
0100
0010
0000
,
0001
0100
0010
0200
0000
1300
0001
0010
,
1000
0000
0001
0010
0001
0100
0010
0000
,
1000
0100
0010
0200
0000
0301
1000
0010
,
0100
1000
0001
0000
0000
0000
0000
0000
,
1000
0010
0100
0020
0000
0031
1000
0100
,
0001
0000
1000
0100
1000
0010
0100
0000
,
0001
0010
0100
0020
0000
1030
0001
0100
,
0010
0000
0001
0100
0001
0010
0100
0000
,
1000
0010
0100
0020
0000
0031
1000
0100
,
0001
0000
1000
0100
1000
0010
0100
0000
,
0001
0010
0100
0020
0000
1030
0001
0100
,
0010
0001
1000
0000
0000
0000
0000
0000
,
1001
0000
0000
0000
;

//--------------- dance-single - JA RH XO ----------------
#NOTEDATA:;
#STEPSTYPE:dance-single;
#DESCRIPTION:JA RH XO;
#DIFFICULTY:Hard;
#METER:14;
#RADARVALUES:0,0,0,0,0;
#CREDIT:sorae;
#NOTES:
0000
0000
0000
0000
,
0000
0000
0000
0000
,
0000
0000
0000
0000
,
0000
0000
0000
0000
,
0000
0000
0000
0000
,
0000
0000
0000
0000
,
0000
0000
0000
0000
,
0001
0001
1000
2000
0000
0000
0000
0000
,
0000
3000
0000
0000
,
0001
0100
0010
1000
0001
0010
0100
0010
,
0001
0100
0010
0002
0000
0013
0100
0001
,
1000
0100
0010
0001
1000
0010
0100
0010
,
1000
0100
0010
2000
0000
3010
0100
0001
,
0100
1000
0001
1000
0010
0100
0001
0010
,
0001
0100
0010
0002
0000
0013
0100
0001
,
1000
0100
1000
0001
0010
0001
0100
0010
,
1000
0100
0010
1000
0010
0100
1000
0001
,
1000
0010
0100
0001
1000
0100
0010
0100
,
1000
0010
0100
2000
0000
3100
0010
1000
,
0001
0010
0100
1000
0001
0100
0010
0100
,
0001
0010
0100
0002
0000
0103
0010
1000
,
0010
0001
1000
0001
0100
0010
1000
0100
,
1000
0010
0100
2000
0000
3100
0010
1000
,
0001
0010
0001
1000
0100
1000
0010
0100
,
0001
0010
0100
0001
0100
0010
0001
0000
,
2000
0000
0010
0000
3010
0100
0001
1000
,
0002
0000
0010
0000
0013
0100
1000
0001
,
0200
0000
0302
0000
0013
0100
0010
0000
,
0001
0000
1000
0000
0010
0100
0010
0000
,
1000
0100
1000
0100
0010
0001
0100
0001
,
0100
0010
1000
0001
1000
0100
0010
0001
,
0100
0010
0100
0010
0100
0010
0100
0010
,
1000
0000
0000
0001
1000
0001
1000
0100
,
1000
0010
0100
0002
0000
1003
1000
0100
,
0100
0010
0100
1000
0010
0100
0001
1000
,
0001
0010
0100
2000
0000
3001
0001
0100
,
0100
0010
0100
0001
0010
0001
1000
0010
,
1000
0100
0010
0002
0000
1003
1000
0010
,
0010
0100
0010
1000
0100
0010
0001
1000
,
0001
0100
0010
2000
0000
3001
0001
0010
,
0010
0100
0010
1000
0010
0100
2000
0000
,
3001
0010
0100
2000
0000
3001
0001
0100
,
0100
0010
0100
0001
0010
0100
1000
0001
,
1000
0010
0100
0002
0000
1003
1000
0100
,
0100
0010
0100
1000
0010
1000
0001
0010
,
0001
0100
0010
2000
0000
3001
0001
0010
,
0010
0100
0010
0001
0100
0010
1000
0001
,
1000
0100
0010
0002
0000
1003
1000
0010
,
0010
0100
0010
0001
0010
0100
0001
1000
,
0100
0100
0010
0010
0000
0000
0000
0000
,
0000
0000
0000
0001
,
0100
0100
0010
0010
0000
0000
0000
0000
,
0000
0000
0000
0000
0000
0000
1000
0001
,
0010
0010
0100
0100
0000
0000
0000
0000
,
0000
0000
0000
1000
,
0010
0010
0100
0100
0000
0000
0000
0000
,
0000
0000
0000
0000
,
0001
1000
0001
1000
0000
0100
0010
0100
,
1000
0010
0100
0002
0000
0000
0003
0000
,
1000
0001
1000
0001
0000
0100
0010
0100
,
0001
0010
0100
2000
0000
0000
3000
0000
,
0001
0000
0100
0000
0010
1000
0100
0010
,
0100
1000
0001
0100
0010
1000
0001
0000
,
1000
0000
0100
0000
0010
0001
0100
0010
,
2000
0000
0000
3001
0010
0001
0100
0001
,
1001
1000
0100
2000
0000
3010
0010
0100
,
0100
0000
0000
0001
0000
0000
1000
0000
0000
0100
0000
0010
0001
0000
0000
0010
0000
0000
0100
0000
0000
1000
0000
0000
,
0001
0100
0010
2000
0000
3001
0001
0010
,
0010
0000
0000
0001
0000
0000
1000
0000
0000
0010
0000
0100
0001
0000
0100
0010
0000
0000
1000
0000
0000
0100
0000
0000
,
1000
0010
0100
0002
0000
0013
0010
0100
,
0100
0000
0000
1000
0000
0000
0001
0000
0000
0100
0000
0010
1000
0000
0000
0010
0000
0000
0100
0000
0000
0001
0000
0000
,
1000
0100
0010
0002
0000
1003
1000
0010
,
0010
1000
0100
0001
0100
0010
0001
1000
,
1001
0001
0100
0002
0000
0013
0010
0100
,
0100
0000
0000
1000
0000
0000
0001
0000
0000
0100
0000
0010
1000
0000
0000
0010
0000
0000
0100
0000
0000
0001
0000
0000
,
1000
0100
0010
0002
0000
1003
1000
0010
,
0010
0000
0000
1000
0000
0000
0001
0000
0000
0010
0000
0100
1000
0000
0100
0010
0000
0000
0001
0000
0000
0100
0000
0000
,
0001
0010
0100
2000
0000
3010
0010
0100
,
0100
0000
0000
0001
0000
0000
1000
0000
0000
0100
0000
0010
0001
0000
0000
0010
0000
0000
0100
0000
0000
1000
0000
0000
,
0001
0100
0010
2000
0000
3001
0001
0010
,
0010
0001
0100
1000
0100
0010
1000
0001
,
0010
0000
0000
0000
;

//--------------- dance-single - DS RH XO ----------------
#NOTEDATA:;
#STEPSTYPE:dance-single;
#DESCRIPTION:DS RH XO;
#DIFFICULTY:Challenge;
#METER:16;
#RADARVALUES:0,0,0,0,0;
#CREDIT:sorae;
#NOTES:
0000
0000
0000
0000
,
0000
0000
0000
0000
,
0000
0000
0000
0000
,
0000
0000
0000
0000
,
0000
0000
0000
0000
,
0000
0000
0000
0000
,
0000
0000
0000
0000
,
1002
0100
1000
0203
0000
0000
0000
0000
,
0000
0000
0000
0000
0300
0000
0000
0000
0000
0000
0000
0000
0000
0000
0001
1000
,
0001
0000
0010
0000
0100
0000
1000
0000
0001
0100
0001
0000
1000
0000
0100
0010
,
0100
0000
1000
0000
0001
0000
0200
0000
0000
0000
0310
0000
0100
0000
0001
1000
,
0001
0000
0010
0000
0100
0000
1000
0000
0001
0100
0001
0000
1000
0000
0100
0010
,
0100
0000
1000
0000
0001
0000
0200
0000
0000
0000
0301
0000
1000
0100
0010
0100
,
0001
0000
0100
0000
0010
0000
0001
0000
1000
0010
1000
0000
0001
0000
0010
0100
,
0010
0000
0001
0000
1000
0000
0020
0000
0000
0000
0130
0000
0010
0000
1000
0001
,
1000
0000
0100
0000
0010
0000
0001
0000
1000
0010
1000
0000
0001
0000
0010
0100
,
0010
0000
0001
0000
1000
0000
0020
0000
0000
0000
1030
0000
0001
0010
0100
0000
,
1000
0000
0010
0000
0100
0000
0001
0000
1000
0100
1000
0000
0001
0000
0100
0010
,
0100
0000
0001
0000
1000
0000
0200
0000
0000
0000
0310
0000
0100
0000
1000
0001
,
1000
0000
0010
0000
0100
0000
0001
0000
1000
0100
1000
0000
0001
0000
0100
0010
,
0100
0000
0001
0000
1000
0000
0200
0000
0000
0000
1300
0000
0001
0100
0010
0100
,
1000
0000
0100
0000
0010
0000
1000
0000
0001
0010
0001
0000
1000
0000
0010
0100
,
0010
0000
1000
0000
0001
0000
0020
0000
0000
0000
0130
0000
0010
0000
0001
1000
,
0001
0000
0100
0000
0010
0000
1000
0000
0001
0010
0001
0000
1000
0000
0010
0100
,
0010
0000
1000
0000
0001
0000
0020
0000
0000
0000
0031
0000
1000
0010
0000
0000
,
2000
0000
0100
0000
3100
0010
0001
1000
,
0002
0000
0100
0000
0103
0010
1000
0001
,
0020
0000
0032
0000
0103
0010
0100
0000
,
0001
0000
1000
0000
0100
0010
0100
0000
,
1000
0010
1000
0010
0100
0001
0010
0001
,
0010
0100
1000
0001
1000
0010
0100
0001
,
1000
0100
0010
0001
0100
0010
1000
0010
0100
0001
1000
0100
0010
0001
0010
0100
,
1000
0000
0000
0001
0010
1000
0001
0100
,
1000
0000
0010
0000
0100
0000
0002
0000
0000
0000
1003
0100
1000
0100
1000
0100
,
0010
0001
0100
0010
0001
0010
0100
0010
,
1000
0000
0100
0000
0010
0000
0002
0000
0000
0000
1003
0010
1000
0010
1000
0010
,
0100
0000
0001
0000
0010
0000
0100
0000
0001
0000
0100
0000
0010
0100
1000
0000
,
0001
0000
0100
0000
0010
0000
2000
0000
0000
0000
3001
0010
0001
0010
0001
0010
,
0100
1000
0010
0100
1000
0100
0010
0100
,
0001
0000
0010
0000
0100
0000
2000
0000
0000
0000
3001
0100
0001
0100
0001
0100
,
0010
1000
0100
0001
1000
0010
0200
0000
,
1300
0000
0010
0000
0100
0000
0002
0000
0000
1003
0100
1000
0100
0000
0010
0001
,
1000
0000
0010
0000
0100
0000
1000
0100
0010
0100
0001
0000
1000
0000
0010
0000
,
1000
0000
0100
0000
0010
0000
0002
0000
0000
1003
0010
1000
0010
0000
0100
0001
,
1000
0000
0100
0000
0010
0000
1000
0010
0100
0010
0001
0000
1000
0010
0100
0000
,
0001
0000
0010
0000
0100
0000
2000
0000
0000
3001
0100
0001
0100
0000
0010
1000
,
0001
0000
0010
0000
0100
0000
0001
0100
0010
0100
1000
0000
0001
0000
0010
0000
,
0001
0000
0100
0000
0010
0000
2000
0000
0000
3001
0010
0001
0010
0000
0100
1000
,
0001
0100
0010
0001
1000
0100
0001
0010
,
0021
0100
0001
0130
0000
0000
0000
0000
,
0000
0000
0000
1001
,
1020
0100
1000
0130
0000
0000
0000
0000
,
0000
0000
0000
0000
0000
0000
1001
1001
,
0201
0010
0001
0310
0000
0000
0000
0000
,
0000
0000
0000
1001
,
1200
0010
1000
0310
0000
0000
0000
0000
,
0000
0000
0000
0000
,
0001
1000
0001
1000
0000
0010
0100
0010
,
1000
0100
0010
0002
0000
0000
0003
0000
,
1000
0001
1000
0001
0000
0010
0100
0010
,
0001
0100
0010
2000
0000
0000
3000
0000
,
0001
0000
0010
0000
0100
1000
0010
0100
,
0010
1000
0001
0010
0100
1000
0001
0000
,
1000
0000
0010
0000
0100
0001
0010
0100
,
2000
0000
0000
0000
0000
0000
3010
0000
0000
0001
0000
1000
0100
0000
0001
1000
0000
0100
0010
0000
0100
1000
0000
0000
,
1001
0000
0000
0001
0000
0000
0100
0000
0000
0020
0000
0000
1030
0000
0000
0001
0000
0010
0100
0000
0010
0001
0000
0010
,
0100
0000
0000
1000
0000
0000
0001
0000
0000
0100
0000
0010
0100
0000
0000
1000
0000
0000
0100
0000
0000
0010
0000
0000
,
1000
0000
0000
0001
0000
0000
0010
0000
0000
0200
0000
0000
1300
0000
0000
0001
0000
0100
0010
0000
0100
0001
0000
0100
,
0010
0000
0000
1000
0000
0000
0100
0000
0000
0001
0000
0100
0010
0000
0100
1000
0000
0000
0001
0000
0000
0100
0000
0000
,
0001
0000
0000
1000
0000
0000
0100
0000
0000
0020
0000
0000
0031
0000
0000
1000
0000
0010
0100
0000
0010
1000
0000
0010
,
0100
0000
0000
0001
0000
0000
1000
0000
0000
0100
0000
0010
0100
0000
0000
0001
0000
0000
0100
0000
0000
0010
0000
0000
,
0001
0000
0000
1000
0000
0000
0010
0000
0000
0200
0000
0000
0301
0000
0000
1000
0000
0000
0100
0000
0010
0001
0000
0010
,
0100
0000
0000
1000
0000
0000
0010
0000
0000
0001
0000
1000
0100
0000
0001
1000
0000
0000
0001
0000
0000
0010
0000
0000
,
1001
0000
0000
1000
0000
0000
0100
0000
0000
0020
0000
0000
0031
0000
0000
1000
0000
0010
0100
0000
0010
1000
0000
0010
,
0100
0000
0000
0001
0000
0000
1000
0000
0000
0100
0000
0010
0100
0000
0000
0001
0000
0000
0100
0000
0000
0010
0000
0000
,
0001
0000
0000
1000
0000
0000
0010
0000
0000
0200
0000
0000
0301
0000
0000
1000
0000
0100
0010
0000
0100
1000
0000
0100
,
0010
0000
0000
0001
0000
0000
0100
0000
0000
1000
0000
0100
0010
0000
0100
0001
0000
0000
1000
0000
0000
0100
0000
0000
,
1000
0000
0000
0001
0000
0000
0100
0000
0000
0020
0000
0000
1030
0000
0000
0001
0000
0010
0100
0000
0010
0001
0000
0010
,
0100
0000
0000
1000
0000
0000
0001
0000
0000
0100
0000
0010
0100
0000
0000
1000
0000
0000
0100
0000
0000
0010
0000
0000
,
1000
0000
0000
0001
0000
0000
0010
0000
0000
0200
0000
0000
1300
0000
0000
0001
0000
0000
0100
0000
0010
1000
0000
0010
,
0100
0000
0000
0001
0000
0000
0010
0000
0000
1000
0000
0001
0100
0000
1000
0001
0000
0000
1000
0000
0000
0010
0000
0000
,
0110
0000
0000
0000
;
