#TITLE:Snowy India;
#SUBTITLE:;
#ARTIST:Mutsuhiko Izumi;
#TITLETRANSLIT:;
#SUBTITLETRANSLIT:;
#ARTISTTRANSLIT:;
#GENRE:Symphonic Rock;
#CREDIT:Scuderia From Bad to Worse (Gameoson+tikal.);
#MUSIC:Snowy India.ogg;
#BANNER:Snowy India.png;
#BACKGROUND:Snowy India-bg.png;
#CDTITLE:cdtitle.png;
#SAMPLESTART:18.160;
#SAMPLELENGTH:10.971;
#SELECTABLE:YES;
#OFFSET:1.040;
#BPMS:0.000=175.000;
#STOPS:;
#LASTBEATHINT:0.113006;
#BGCHANGES:;
#FGCHANGES:;

//--------------- dance-single - Gameoson ----------------
#NOTES:
     dance-single:
     Gameoson:
     Beginner:
     6:
     0.288186,0.352811,0.103895,0.54545,0,233,221,12,63,0,0,0.288186,0.352811,0.103895,0.54545,0,233,221,12,63,0,0:
0000
0000
0000
0000
,
0000
0000
0000
0000
,
0000
0000
0000
0000
,
1000
0100
0010
0001
,
2000
3000
0020
0030
,
0200
0300
0001
1000
,
0200
0000
0300
0010
,
0001
0100
0010
1000
,
2002
0000
3003
0000
,
0220
0330
0001
1000
,
0001
0010
0010
0010
,
0001
1000
1000
1000
,
0001
0100
0100
0100
,
0001
0010
1001
0000
,
2000
0000
3010
1000
,
0002
0000
1003
0010
,
0200
0000
0310
1000
,
0200
0000
0320
0000
,
0032
0000
0013
0001
,
2000
0000
3001
0100
,
0020
0000
2030
0000
,
3001
0010
0100
1000
,
0001
0100
0010
0000
,
0100
0010
1000
0000
,
1000
0100
0010
0000
,
0100
0010
0001
1000
,
0001
0100
0010
0000
,
1000
0100
0010
0000
,
0002
0000
0203
0000
,
0320
0000
1030
0010
,
2000
0000
3200
0000
,
0320
0000
0031
0001
,
0010
0001
0200
0000
,
0000
0000
0000
0300
,
0100
0000
0000
0010
,
0000
0000
2002
3003
,
1000
0000
1000
0000
,
0010
1000
0100
0010
,
0220
0000
0000
0330
,
0001
1000
0002
0003
,
1000
0010
0100
0010
,
2000
0000
3010
0010
,
0200
0000
0301
1000
,
0200
0000
0320
0000
,
0130
0010
0001
0010
,
0200
0000
1300
1000
,
0001
0100
0010
1000
,
0001
0010
0100
1000
,
0010
1000
0100
1000
,
0020
0000
1030
0001
,
1000
0100
0010
0001
,
1000
0010
0100
0001
,
0020
0000
0130
0010
,
0220
0330
2002
3003
,
2000
0000
3000
0000
,
0020
0000
0030
0000
,
0200
0000
0300
0000
,
0002
0000
0003
0000
,
1000
0100
1000
0100
,
0020
0030
0002
0003
,
2000
3000
0010
0100
,
0002
0000
0003
1000
,
0001
0010
0100
0010
,
0220
0000
0330
0000
,
2002
3003
1000
0001
,
1000
0010
0010
0010
,
1000
0001
0001
0001
,
1000
0100
0100
0100
,
1000
0010
1001
0000
,
0002
0000
0013
0001
,
2000
0000
3001
0010
,
0200
0000
0310
0001
,
0200
0000
0320
0000
,
2030
0000
3010
1000
,
0002
0000
1003
0100
,
0020
0000
0032
0000
,
1003
0010
0100
0001
,
1000
0000
0000
0001
,
0000
0000
2002
3003
,
0001
0000
0001
0000
,
0010
0001
0100
0010
,
1000
0000
1001
0000
;

//--------------- dance-single - Gameoson ----------------
#NOTES:
     dance-single:
     Gameoson:
     Easy:
     10:
     0.491029,0.564497,0.363633,0.510818,0.056277,397,355,42,59,0,0,0.491029,0.564497,0.363633,0.510818,0.056277,397,355,42,59,0,0:
0000
0000
0000
0000
,
0000
0000
0000
0000
,
0000
0000
0000
0000
,
0001
1000
0001
0000
1000
0000
0001
0010
,
0002
0000
1003
0010
2000
0000
3001
0100
,
0002
0000
1003
0100
1000
0000
0001
0000
,
2002
0000
0000
0000
3003
0001
1000
0000
,
0001
0010
0100
0000
1000
0010
0100
0000
,
0202
0000
0303
1000
,
2200
0000
0000
3300
0001
0010
0100
1000
,
0001
0000
0101
0000
1010
0000
1000
0001
,
1000
0000
1100
0000
0011
0000
0001
1000
,
0010
0000
0101
0000
1010
0000
1000
0001
,
0010
0000
0100
1000
0002
0000
0003
1000
,
0020
0000
0130
0000
0010
0000
1000
0100
,
0020
0000
0130
0000
0010
0000
0100
1000
,
0020
0000
0130
0000
0010
0000
1000
0100
,
0010
0000
0100
0000
2000
0000
3000
0001
,
0020
0000
0130
0000
0010
0000
0001
0100
,
0020
0000
0130
0000
0010
0000
0100
0001
,
0020
0130
0110
0000
,
0001
0100
0010
0000
1000
0010
0100
0001
,
1000
0000
1100
0000
1100
0000
0001
1000
,
0010
0000
0101
0000
0101
0000
1000
0001
,
0010
0000
0110
0000
1001
0000
0001
0100
,
0010
0000
1000
0000
0001
0010
0100
1000
,
0001
0000
0011
0000
0011
0000
1000
0001
,
0100
0000
1010
0000
1010
0000
0001
1000
,
0200
0000
0320
0000
,
0032
0000
0000
0000
0013
0100
1000
0010
,
0200
0000
0320
0000
,
2030
0000
0001
3001
,
1000
0100
0010
0001
0200
0000
0000
0000
,
0000
0000
0000
0300
,
0101
0000
0000
0001
0000
0100
0000
0001
0000
0000
0000
0000
1100
0000
0000
1000
,
0000
0100
0000
1000
0000
0000
0000
0000
2002
0000
0000
0000
3003
0000
0000
0000
,
1000
0010
0000
1000
0010
0000
1000
0001
,
0020
0100
0100
0130
,
1000
0000
0010
0000
1000
0000
0010
1000
,
0001
0000
0010
0000
0001
0000
0010
0001
,
1000
0000
0010
0000
0100
0000
0001
1000
,
0200
0300
0110
0110
,
0001
0010
0001
0000
0100
0000
0010
0000
,
1000
0010
1000
0000
0100
0000
0010
0000
,
0001
0100
0010
0000
0100
0010
1000
0000
,
2020
0000
3030
0000
0001
1000
0100
0000
,
0010
0001
0010
0001
0010
0000
0001
0000
,
0100
0001
0100
0001
0100
0000
0001
0000
,
1000
0001
0010
0000
0010
0001
0100
0000
,
2002
0000
3003
0000
0001
1000
0001
0000
,
1000
0010
1000
0010
1000
0000
0001
0000
,
1000
0100
1000
0100
1000
0000
0001
0000
,
2020
0000
3030
0000
0010
1000
0100
0010
,
0002
0010
2003
0010
,
0002
0000
0000
0000
,
0000
0000
0000
3003
,
1000
0000
0100
0010
,
0001
0000
0100
0010
,
1000
0100
0010
0100
,
0002
0103
2000
3010
,
0002
0000
0013
0000
1000
0010
1000
0000
,
2020
0000
3030
0000
0000
0010
1000
0000
,
0002
0013
2000
3010
,
0022
0000
0033
1000
,
2020
0000
0000
3030
1000
0010
0100
0001
,
0010
0000
1100
0000
0011
0000
0010
0001
,
0100
0000
0101
0000
1010
0000
0010
1000
,
0100
0000
1100
0000
0011
0000
0001
1000
,
0010
0000
0100
0001
2000
0000
3000
0001
,
0020
0000
0130
0000
0010
0000
0001
0100
,
0020
0000
0130
0000
0010
0000
0100
0001
,
0020
0000
0130
0000
0010
0000
0001
0100
,
1000
0000
0100
0000
0002
0000
0003
1000
,
0020
0000
0130
0000
0010
0000
1000
0100
,
0020
0000
0130
0000
0010
0000
0100
1000
,
0020
0130
0101
0000
,
1000
0100
0001
0000
0001
0100
1000
0000
,
0011
0000
0000
0001
0000
0010
0000
0001
0000
0000
0000
0000
1010
0000
0000
1000
,
0000
0010
0000
1000
0000
0000
0000
0000
2002
0000
0000
0000
3003
0000
0000
0000
,
0001
0010
0000
0001
0010
0000
0001
1000
,
0020
0000
0130
0000
0001
1000
0100
0010
,
0000
0000
0000
0000
0000
0100
0000
0000
1001
0000
0000
0000
0000
0000
0000
0000
;

//--------------- dance-single - Scuderia From Bad to Worse ----------------
#NOTES:
     dance-single:
     Scuderia From Bad to Worse:
     Medium:
     13:
     0.634503,0.599778,0.129869,0.337659,0.190475,513,498,15,39,0,0,0.634503,0.599778,0.129869,0.337659,0.190475,513,498,15,39,0,0:
0000
0000
0000
0000
,
0000
0000
0000
0000
,
0000
0000
0000
0000
,
0001
0010
0001
1000
0010
0100
0001
1000
,
0200
0000
1300
0010
0200
0000
0301
0010
,
0200
0000
1300
0010
0100
1000
0100
0001
,
2000
0000
0000
0000
3000
0001
0010
0001
,
1000
1000
0010
0100
0001
0001
0010
0100
,
2200
0000
0000
0000
3300
0000
1000
0001
,
0202
0000
0000
0303
0100
0001
0010
0100
,
1000
0100
0010
0100
0001
0100
0010
0001
,
1000
0010
0100
0010
0001
0010
0100
0001
,
0001
0010
0100
0010
1000
0010
0100
1000
,
0001
0100
1000
0100
0001
1000
0000
0001
,
1000
0000
0000
1000
0100
0000
0000
0000
0010
0000
0000
0010
0100
0000
1000
0000
,
0002
0000
0010
0000
1000
1003
0000
0001
,
0001
0000
0000
0001
0100
0000
0000
0000
0010
0000
0000
0010
0100
0000
0001
0000
,
2000
0000
0010
0000
3001
1000
0001
1000
,
0100
0000
0000
0100
0010
0000
0000
0000
0001
0000
0000
0001
1000
0000
0010
0000
,
0200
0000
1000
0000
0010
0310
0000
0100
,
0100
0000
0000
0000
0000
0000
0000
0000
0000
0001
0000
0000
1000
0000
0000
0000
0000
0000
0000
0000
0000
0000
0000
0000
0001
0000
0000
0000
0000
0000
0000
0000
0010
0000
0000
0000
0000
0000
0000
0000
0100
0000
0000
0000
0000
0000
0000
0000
,
1000
0010
1000
0001
0010
0001
0100
0000
,
0001
0001
0010
0001
0100
0001
1000
0010
,
0100
0100
0010
1000
0001
1000
0100
0010
,
0100
0100
0010
0001
1000
0001
0100
0010
,
1000
1000
0100
1000
0010
0100
0001
0010
,
0100
0100
0010
0100
0001
0100
0010
0001
,
0100
0100
0010
0100
1000
0100
0010
1000
,
0002
0010
2003
0010
,
3002
0000
0100
0000
1003
0001
1000
0100
,
0020
1000
0230
0001
,
0320
0000
0001
0000
0130
1000
0001
0100
,
0010
0100
1000
0100
0220
0000
0000
0000
,
0000
0000
0000
0330
,
1000
0010
0000
0100
0000
0001
0000
1000
0000
0001
0000
0010
0000
0100
0000
1000
,
0000
0001
0000
1000
0000
0010
0000
0200
0020
0000
0000
0000
0000
0000
0330
0000
,
1000
0010
0010
0001
0010
0010
1000
0001
,
0010
1000
0010
0001
1000
0010
0100
0001
,
1000
0100
1000
0100
0001
0100
0001
0100
,
1000
0010
1000
0010
0001
0010
0001
0010
,
0100
0000
0001
0000
1000
0000
0100
0000
0010
0000
0100
0000
0000
1000
0000
0000
,
0001
0101
1000
1100
,
0001
0100
0001
0100
1000
0100
1000
0100
,
0001
0010
0001
0010
1000
0010
0001
0000
,
1000
0010
0100
1000
0100
0010
0100
0001
,
1000
0000
1100
0000
0101
0000
0001
1000
,
0100
0010
1000
0010
0100
1000
0001
0100
,
0010
0100
1000
0100
0010
1000
0001
0010
,
1000
0010
0001
0100
1000
0100
0001
0010
,
0100
0000
0110
0000
1001
0000
0001
1000
,
0001
0100
0010
1000
0100
0001
0100
1000
,
0001
0100
0010
0001
0010
0100
0001
0010
,
2000
0000
0000
0000
3001
0100
0010
0100
,
2100
0000
3001
0000
0201
0000
0310
1000
,
2002
0000
0000
0000
,
0000
0000
0000
3003
,
1000
1000
0000
0000
0100
0000
0010
0000
,
0001
0001
0000
0000
0100
0000
0010
0000
,
1000
0010
0100
0001
0010
0001
0100
0010
,
2000
0000
3001
0001
0020
0000
0031
0001
,
2000
0000
3001
0001
0100
0001
1000
0100
,
0020
0000
0000
0000
0030
0100
1000
0001
,
1000
1000
0010
1000
0001
0001
1000
0100
,
2200
0000
0000
0000
3300
0000
0001
0100
,
0202
0000
0000
0303
1000
0010
0100
0001
,
1000
0001
0010
0100
0001
0100
1000
0001
,
1000
0001
0100
0010
0001
0010
1000
0001
,
0001
1000
0100
0010
1000
0010
0001
1000
,
0001
0100
1000
0100
0001
1000
0000
0001
,
0010
0000
0000
0010
0001
0000
0000
0000
0100
0000
0000
0100
0001
0000
0010
0000
,
0200
0000
1000
0000
0310
0001
0000
1000
,
0010
0000
0000
0010
1000
0000
0000
0000
0100
0000
0000
0100
1000
0000
0010
0000
,
0200
0000
0001
0000
0310
1000
0001
1000
,
0100
0000
0000
0100
0010
0000
0000
0000
0001
0000
0000
0001
0010
0000
0100
0000
,
0002
0000
1000
0000
0103
0010
0000
0001
,
0100
0000
0000
0000
0000
0000
0000
0000
0000
0100
0000
0000
0010
0000
0000
0000
0000
0000
0000
0000
0000
0000
0000
0000
1000
0000
0000
0000
0000
0000
0000
0000
0100
0000
0000
0000
0000
0000
0000
0000
0010
0000
0000
0000
0000
0000
0000
0000
,
0001
0010
0001
1000
0010
1000
0100
0000
,
0010
0001
0000
1000
0000
0001
0000
0100
0000
0010
0000
1000
0000
0001
0000
1000
,
0000
0100
0000
0010
0000
0001
0000
0200
0020
0000
0000
0000
0000
0000
0330
0000
,
1000
0100
0100
0001
0100
0100
1000
0001
,
0100
1000
0100
0001
0010
0100
1000
0001
,
0000
0000
0000
0000
0000
0010
0000
0000
1001
0000
0000
0000
0000
0000
0000
0000
;

//--------------- dance-single - Scuderia From Bad to Worse ----------------
#NOTES:
     dance-single:
     Scuderia From Bad to Worse:
     Hard:
     15:
     0.770556,0.846746,0.173159,0.519476,0.653674,623,603,20,60,0,0,0.770556,0.846746,0.173159,0.519476,0.653674,623,603,20,60,0,0:
0000
0000
0000
0000
,
0000
0000
0000
0000
,
0000
0000
0000
0000
,
0001
0000
0100
0000
0010
0000
1000
0000
1000
0010
0100
0000
0001
0000
1000
0000
,
0200
0000
0000
0000
0310
0001
0100
0000
0020
0000
0000
0000
0130
0001
0010
0000
,
0200
0000
0000
0000
0310
0001
0100
0000
0010
0000
1000
0000
0001
0000
1000
0000
,
2200
0000
3300
0000
0100
1000
0001
1000
,
0010
1000
0100
0000
0100
0000
0010
0000
0100
1000
0010
0000
0100
0000
0100
0000
,
0102
0000
1000
0000
0013
0000
0100
0100
,
2100
0000
0000
0000
0001
0000
0000
0000
3010
0100
0001
0000
1000
0001
0010
0000
,
0100
1000
0100
0000
0010
0000
0100
0000
0001
0000
0100
0000
1000
0000
0001
0000
,
0100
0001
0100
0000
0010
0000
0100
0000
1000
0000
0100
0000
0001
0000
1000
0000
,
0100
0010
0100
0000
0001
0000
0100
0000
0010
0000
0100
0000
1000
0000
0001
0000
,
0100
0010
0100
0000
1000
0000
0100
0000
0010
0000
1001
0000
0000
0000
1000
0001
,
2000
0000
0000
0000
3100
0000
0000
0000
0110
0000
0000
0010
0001
0000
1000
0000
,
0020
0000
0000
0000
0100
0000
0000
0000
1030
0000
0010
0000
0100
0000
0001
1000
,
0002
0000
0000
0000
0013
0000
0000
0000
1100
0000
0000
1000
0001
0000
0100
0000
,
0010
1000
0000
1000
0001
0000
0000
0000
1000
0000
0100
0000
0010
0000
0001
1000
,
0002
0000
0000
0000
0103
0000
0000
0000
0110
0000
0000
0010
1000
0000
0001
0000
,
0020
0000
0000
0000
0100
0000
0000
0000
0031
0000
0010
0000
0100
0000
1000
0001
,
2000
0000
0000
3010
0000
0000
0100
0000
0010
0000
1000
0000
,
0100
0010
0100
0010
0001
0000
1000
0000
0010
0100
0010
0100
0001
0000
1000
0000
,
0001
0010
0001
0000
0100
0000
0001
0000
1000
0000
0001
0000
0010
0000
0100
0000
,
1000
0010
1000
0000
0100
0000
1000
0000
0001
0000
1000
0000
0010
0000
0100
0000
,
0001
0100
0001
0000
0010
0000
0001
0000
1000
0000
0001
0000
0100
0000
0010
0000
,
1000
0100
1000
0000
0010
0000
1000
0000
0001
1000
0001
0010
0100
0000
1000
0000
,
0001
0100
0001
0000
0010
0000
0100
0000
0010
0000
1000
0000
0010
0000
0001
0000
,
1000
0100
1000
0000
0010
0000
0100
0000
0001
1000
0000
1000
0001
0000
0010
0000
,
0012
0000
0000
0000
1003
0000
0000
0000
0102
0000
0000
0103
0010
0000
0000
0000
,
2010
0000
3001
0000
1100
0100
0010
0001
,
2001
0000
0000
0000
3010
0000
0000
0000
1002
0000
0000
0013
0100
0000
0010
0000
,
2001
0000
0010
0000
3001
0100
0010
1000
,
0001
0010
0100
1000
0001
0000
0100
0000
0220
0000
0000
0000
0000
0000
0000
0000
,
0000
0000
0000
0330
,
1000
0010
0000
1000
0000
0100
0000
1000
0000
0010
0000
1000
0001
0010
0000
0001
,
0000
0100
0000
0001
0000
0010
0000
0002
2000
0000
0000
0000
0000
0000
3003
0000
,
1000
0001
0100
0000
0000
0000
0001
1000
0100
0000
0000
0000
1000
0001
0100
0000
,
0010
0000
0001
0000
0010
0000
1000
0000
0100
0010
0001
0000
0100
0010
1000
0000
,
2002
0000
0000
0000
0000
0000
0000
0000
0000
0000
0000
0000
3003
0000
1000
0100
,
0000
0010
0000
0001
0100
0000
0020
0000
0000
0000
0000
0000
0000
0000
0030
0000
,
1000
0000
0001
0010
0001
0000
0200
0000
0000
0000
0320
0000
0000
2030
0000
0000
,
0002
0000
0000
0000
0000
0000
3003
0000
1000
0100
0000
0010
0001
0000
1000
0000
,
0020
0000
0000
0230
0000
0000
0310
1000
,
0200
0000
0000
0310
0001
1000
0010
0010
,
0100
0001
0000
0001
0010
0000
0100
0000
1000
0000
0010
0000
0100
0000
0002
0000
,
2000
0000
0000
0000
0000
0000
3003
0000
0001
0010
0100
0000
0010
0100
1000
0000
,
0001
0100
0010
0000
0001
0000
0010
0000
0100
0001
1000
0000
0001
0000
0001
0000
,
1000
0100
0010
0000
1000
0000
0010
0000
0100
1000
0001
0000
1000
0000
1000
0000
,
0010
1000
0100
0000
0010
0000
0100
0000
0010
0001
0100
0000
0010
0100
0001
1000
,
0200
0000
0000
0000
0001
0000
0000
0000
0310
0100
0000
1000
0001
0000
0100
0000
,
0010
1000
0010
0000
0100
0000
1000
0000
0100
0010
1000
0000
0001
1000
0001
0000
,
0010
0001
0010
0000
0100
0000
0001
0000
0100
0010
0001
0000
1000
0001
0100
0010
,
2000
0000
0000
0000
3001
0000
0010
0000
0100
0010
0001
0000
0100
0010
1000
0010
,
2000
0000
0000
0000
0010
0000
0000
0000
3002
0000
0000
0000
0013
0001
0100
0010
,
2000
0000
0000
0000
0000
0000
0000
0000
0000
0000
0000
0000
3010
1000
0010
1000
,
0002
0000
0000
0013
,
0200
0000
0000
0000
0000
0000
0000
0000
0000
0000
0000
0000
0310
0001
0010
0001
,
0200
0000
0320
0000
,
1030
0010
0100
0000
0001
0000
1000
0000
0100
0010
0001
0000
1000
0000
0010
0000
,
0002
0000
0000
0000
0013
0100
0010
0000
2000
0000
0000
0000
3100
0010
0100
0000
,
0002
0000
0000
0000
0103
0010
0100
0000
1000
0000
0001
0000
0100
0000
0010
0000
,
2000
0000
0000
0000
3000
0001
1000
0100
,
0010
0001
1000
0000
0001
0000
0001
0000
0100
0001
1000
0000
0001
0000
0001
0000
,
0022
0000
0000
0000
0033
0000
1000
1000
,
2020
0000
0000
0000
0000
0000
3030
0000
1000
0001
0010
0000
0100
1000
0001
0000
,
0100
0001
0100
0000
0010
0000
0100
0000
1000
0000
0001
0000
0010
0000
1000
0000
,
0100
1000
0100
0000
0010
0000
0100
0000
0001
0000
1000
0000
0010
0000
0001
0000
,
0100
0010
0100
0000
1000
0000
0001
0000
0010
0000
0100
0000
0001
0000
1000
0000
,
0100
0010
0100
0000
0001
0000
0100
0000
0010
0000
1001
0000
0000
0000
0001
1000
,
0200
0000
0000
0310
0001
0000
1000
0000
0001
0100
0000
0100
0010
0000
1000
0000
,
0200
0000
0000
0000
0001
0000
0000
0000
1300
0000
0100
0000
0010
0000
0001
1000
,
0020
0000
0000
0130
0001
0000
1000
0000
0001
0010
0000
0010
0100
0000
1000
0000
,
0010
0100
0000
0001
1000
0000
0000
0000
0001
0000
0100
0000
0010
0000
1000
0001
,
0020
0000
0000
0130
1000
0000
0001
0000
1000
0010
0000
0010
0100
0000
0001
0000
,
0020
0000
0000
0000
1000
0000
0000
0000
0031
0000
0010
0000
0100
0000
1000
0001
,
0200
0000
0000
0000
0000
0000
0000
0000
0000
0310
0000
0000
1000
0000
0000
0000
0000
0000
0001
0000
0000
0000
0000
0000
0010
0000
0000
0000
0000
0000
0000
0000
0100
0000
0000
0000
0000
0000
0000
0000
1000
0000
0000
0000
0000
0000
0000
0000
,
0001
0100
0001
0100
0010
1000
0010
0000
1000
0100
1000
0100
0010
0001
0010
0000
,
0100
1000
0000
0010
0000
0100
0000
0010
0000
1000
0000
0100
0010
0001
0000
0100
,
0000
0010
0000
0100
0000
0001
0000
0020
0200
0000
0000
0000
0000
0000
0330
0000
,
1000
0000
0001
1000
0010
0000
0000
0000
1000
0001
0010
0000
0100
1000
0001
0000
,
0100
0000
1000
0000
0100
0000
0001
0000
1000
0100
1000
0001
0100
0001
0010
0000
,
0000
0000
0000
0000
0100
0010
0000
0000
1001
0000
0000
0000
0000
0000
0000
0000
;

//--------------- dance-single - Scuderia From Bad to Worse ----------------
#NOTES:
     dance-single:
     Scuderia From Bad to Worse:
     Challenge:
     17:
     0.940004,1.093714,0.329001,0.701293,1.116874,760,722,38,81,0,0,0.940004,1.093714,0.329001,0.701293,1.116874,760,722,38,81,0,0:
0000
0000
0000
0000
,
0000
0000
0000
0000
,
0000
0000
0000
0000
,
1000
0100
0010
0000
0001
0000
1000
0000
0001
0100
0010
0000
1000
0000
0001
0000
,
0021
0000
0000
0000
0130
0010
0001
0000
1020
0000
0000
0000
0130
0010
1000
0000
,
0021
0000
0000
0000
0130
0010
0100
0000
1000
0001
0100
0000
0010
0000
1000
0000
,
2002
0000
3003
0000
0001
0010
1000
0010
,
0001
0010
0001
0000
0100
0000
0010
0000
1000
0010
1000
0000
0100
0000
0000
0000
,
0012
0000
0000
0000
1000
0000
0000
0000
0103
0001
0100
0000
0010
0000
0010
0000
,
2010
0000
0000
0000
0001
0000
0000
0000
3100
0010
0100
1000
0010
0100
0001
1000
,
0100
0000
0010
0001
0200
0000
0310
1000
0200
0000
0310
0001
0200
0000
0320
0000
,
1030
0001
0100
0001
0020
0000
0130
1000
0020
0000
0130
0001
0020
0000
0230
0000
,
0301
0100
0010
0100
2000
0000
3010
1000
0200
0000
0310
0100
2000
0000
3020
0000
,
0031
0010
0100
0010
2000
0000
3100
0010
0002
0000
0000
0000
0003
0000
1000
0001
,
0010
0001
0000
0010
0100
0000
1000
0000
0001
0010
0000
0001
0100
0000
0010
0000
,
2000
0010
0000
3001
0100
0000
0000
0000
0010
0000
1001
0000
0000
0000
0001
1000
,
0100
1000
0000
0100
0010
0000
0001
0000
1000
0100
0000
1000
0010
0000
0100
0000
,
0020
1000
0000
0130
0001
0000
0000
0000
0010
0000
1001
0000
0001
0000
0001
1000
,
0010
1000
0000
0010
0100
0000
0001
0000
1000
0010
0000
1000
0100
0000
0010
0000
,
0002
0010
0000
1003
0100
0000
0000
0000
0010
0000
1001
0000
0000
0000
1000
0001
,
0100
0000
0000
0001
0000
0000
0000
0000
0000
0100
0000
0000
0010
0000
0000
0000
0000
0000
1000
0000
0000
0000
0000
0000
1010
0000
0000
0000
0000
0000
0000
0000
0110
0000
0000
0000
0000
0000
0000
0000
0101
0000
0000
0000
0000
0000
0000
0000
,
0001
0100
0001
0100
0010
1000
0001
1000
0100
0010
0100
0010
0001
1000
0010
0000
,
1000
0100
1000
0100
0010
0000
0100
1000
0010
0000
1000
0100
0010
0000
0011
0000
,
0001
0100
0001
0100
0010
0000
0100
0001
0010
0000
0001
0100
0010
0000
1010
0000
,
0001
0010
0100
1000
0001
0000
0100
0001
0010
0000
0001
0100
0010
0000
0110
0000
,
1000
0010
0100
0001
1000
0000
0100
1000
0010
1000
0010
1000
0001
0010
0100
1000
,
0001
0010
0001
0010
0100
0000
0010
0001
0100
0000
0010
0100
0001
0000
0101
0000
,
1000
0010
1000
0010
0100
0000
0010
1000
0001
0010
0000
0100
1000
0000
0001
0000
,
0102
0000
0000
0000
0013
0000
0000
0000
0021
0000
0000
0130
1000
0000
0000
0000
,
1200
0000
0310
0000
0012
1000
0103
0010
,
1020
0000
0000
0000
0130
0000
0000
0000
0201
0000
0000
0310
1000
0000
0000
0000
,
2100
0000
0000
0000
0001
0000
0000
0000
3010
0000
0000
0100
0001
0000
1000
0000
,
0001
0010
0001
0100
0010
1000
0100
0000
2100
0000
0000
0000
0001
0000
3000
0000
,
1000
0010
0100
0010
1000
0001
0010
0000
,
0100
1000
0000
0010
0000
0100
0000
1000
0000
0100
0000
0001
1000
0001
0000
0010
,
0000
0100
0000
0001
0000
0100
0000
2000
0002
0000
0000
0000
0000
0000
3003
0000
,
1000
0010
0100
0001
0100
0000
0001
0010
0100
1000
0100
0000
1000
0010
0100
0001
,
1000
0100
1000
0000
0001
0100
0001
0000
1000
0010
0100
0001
0010
0100
1000
0001
,
0200
0000
0000
0000
0000
0000
0000
0000
0000
0000
0000
0000
0300
0000
0001
0010
,
0000
1000
0000
0010
0001
0000
2000
0000
0000
0000
0000
0000
0000
0000
3000
0000
,
1000
0000
0010
0100
0010
0000
0002
0000
0000
0000
2003
0000
0000
3200
0000
0000
,
0302
0000
0000
0003
0101
0000
0000
0000
0001
0100
0010
0000
1000
0010
0100
0001
,
0020
0000
0000
0000
0230
0000
0301
0100
,
2000
0000
0000
0000
3002
0000
1003
0010
,
0200
0000
0000
1300
0100
0000
0010
0100
0001
1000
0000
0001
0010
0100
0010
0100
,
2000
0000
0000
3000
1100
0000
0000
0000
1000
0100
0010
0000
0001
1000
0010
0100
,
0001
0100
0010
0000
0100
0000
0001
0010
0100
0010
0001
0000
0100
0000
0010
1000
,
0100
0000
1000
0000
0010
0000
1000
0100
0010
0100
1000
0000
0010
0000
0100
0001
,
1000
0001
0100
0000
0010
0000
0100
0001
1000
0001
0010
0000
0100
0000
0010
0001
,
1000
0010
0000
0000
1001
0000
0000
1000
0001
0010
0000
0000
1001
0000
1000
0001
,
1000
0100
0010
0000
1000
0000
0010
0100
1000
0100
0010
0000
0001
0010
0100
1000
,
0001
0100
0010
0000
0001
0000
0010
0100
0001
0100
0010
0000
1000
0010
0100
0001
,
1000
0001
0010
0000
0100
0000
0010
0000
0001
0100
0001
0100
0010
1000
0010
1000
,
0001
0020
0002
0000
0000
0000
0033
0000
1000
0020
2000
0000
0030
0000
3001
1000
,
0200
0000
0000
0000
0000
0000
0000
0000
0000
0000
0000
0000
0310
0001
1000
0001
,
0020
0000
0000
0031
,
0200
0000
0000
0000
0000
0000
0000
0000
0000
0000
0000
0000
0310
1000
0001
1000
,
0020
0000
0230
0000
,
0301
1000
0100
0000
0010
0000
0001
0000
1000
0010
0100
0000
1000
0000
0100
0000
,
0002
0000
0000
0000
0013
0001
0100
0000
0020
0000
0000
0000
0130
0001
0010
0000
,
0200
0000
0000
0000
0310
0100
0001
0000
2000
0000
3001
0000
0100
0000
1000
0000
,
0002
0000
0000
0000
0003
0100
1000
0100
,
0010
1000
0001
0000
0001
0000
0010
0000
0100
0010
0001
0000
1000
0000
1000
0000
,
2200
0000
0000
0000
3300
0000
0001
0001
,
0202
0000
0000
0000
0000
0000
0303
0000
1000
0010
0100
0001
1000
0100
0010
0001
,
0100
0000
0010
0100
2000
0000
3100
0010
2000
0000
3100
0010
2000
0000
3020
0000
,
0031
1000
0010
0100
0002
0000
0103
0010
0002
0000
0013
0100
0002
0000
0203
0000
,
1300
0100
0010
0100
0002
0000
1003
0010
0200
0000
0310
1000
0002
0000
0023
0000
,
1030
0010
0100
0010
0001
0000
1000
0010
0100
0000
0110
0000
0000
0000
0001
1000
,
0100
0010
0000
0001
1000
0000
0001
0000
0100
0010
0000
1000
0001
0000
0010
0000
,
0200
0001
0000
0310
0001
0000
1000
0000
0001
0000
1001
0000
0000
0000
1000
0001
,
0100
0010
0000
1000
0001
0000
1000
0000
0100
0010
0000
0001
1000
0000
0010
0000
,
0200
1000
0000
0310
1000
0000
0000
0000
1000
0000
1010
0000
0001
0000
1000
0001
,
0010
0100
0000
1000
0001
0000
1000
0000
0010
0100
0000
0001
1000
0000
0100
0000
,
0020
1000
0000
0130
1000
0000
0001
0000
1000
0000
1001
0000
0000
0000
0001
1000
,
0010
0000
0000
0100
0000
0000
0000
0000
0000
0001
0000
0000
1000
0000
0000
0000
0000
0000
0100
0000
0000
0000
0000
0000
0011
0000
0000
0000
0000
0000
0000
0000
1001
0000
0000
0000
0000
0000
0000
0000
1010
0000
0000
0000
0000
0000
0000
0000
,
0010
0100
0010
0100
0001
1000
0001
0010
0100
1000
0100
1000
0010
0100
0001
1000
,
0001
0010
0000
0100
0000
0010
0000
1000
0000
0010
0000
0001
1000
0010
0000
0100
,
0000
0010
0000
0001
0000
0010
0000
2000
0002
0000
0000
0000
0000
0000
3003
0000
,
0001
0100
0010
1000
0010
0000
1000
0100
0010
0001
0010
0000
0001
0100
0010
1000
,
0001
0010
0001
1000
0010
1000
0100
1000
0001
0100
0001
0010
0001
1000
0010
1000
,
0100
0000
0000
0000
0010
0100
0000
0000
1001
0000
0000
0000
0000
0000
0000
0000
;
