#TITLE:Slluuddggee;
#ARTIST:Hommarju;
#GENRE:Freeform hardcore;
#CREDIT:tikal.;
#MUSIC:Slluuddggee.ogg;
#BANNER:Slluuddggee.png;
#BACKGROUND:Slluuddggee-bg.png;
#CDTITLE:cdtitle.png;
#SAMPLESTART:83.798;
#SAMPLELENGTH:22.069;
#OFFSET:-1.446;
#BPMS:0=83,1=89,2=98,3=105,4=114,5=121,6=125,7=131,8=135,9=139,10=141,11=143,12=147,13=150,16=155,17=163,20=167,24=170,28=174,160=83,161=89,162=98,163=105,164=114,165=121,166=125,167=131,168=135,169=139,170=141,171=143,172=147,173=150,176=155,177=163,180=167,184=170,188=174,194=348,195=174,195.5=87,196=174,198=348,199=174,199.5=87,200=174,202=348,203=174,203.5=87,204=174;
#DISPLAYBPM:83:174;

//--------------- dance-single - tikal. ----------------
#NOTES:
     dance-single:
     tikal.:
     Medium:
     12:
     0,0,0,0,0:
0000
0000
0000
0000
,
0000
0000
0000
0000
,
0000
0000
0000
0000
,
0000
0000
0000
0000
,
0001
0001
0010
0010
,
0100
0000
0100
0000
1000
0000
1000
0001
,
1000
1000
0010
0010
,
0100
0000
0100
0000
0001
0000
0001
1000
,
0001
0010
0001
0000
0010
0100
0010
0000
,
0100
1000
0100
0000
1000
0000
1000
0001
,
1000
0010
1000
0000
0010
0100
0010
0000
,
0100
0001
0100
0000
0001
0000
0001
1000
,
0002
0000
0100
0100
0203
0000
0010
0010
,
0320
0000
1000
1000
2030
0000
0001
0001
,
3001
0010
0001
1000
0010
1000
0001
0010
,
0200
0000
0000
0300
,
0110
0000
0011
0000
0001
0100
0010
0000
,
0100
0001
0010
0100
0010
0001
0100
0000
,
0110
0000
1010
0000
0010
1000
0100
0000
,
0010
0000
0000
0010
0100
0000
0000
0000
1000
0000
0001
0000
0010
0000
0000
0000
,
0110
0000
1100
0000
1000
0010
0100
0000
,
0010
1000
0100
0010
0100
1000
0010
0000
,
0110
0000
0101
0000
0100
0001
0010
0000
,
0100
0000
0000
0100
0010
0000
0000
0000
0001
0000
1000
0000
0100
0000
0000
0000
,
0011
0000
1001
0000
,
1010
0000
1001
0000
,
0101
1001
1100
1001
,
0220
0330
0000
1001
,
2000
0100
3200
0001
,
0302
0010
0023
1000
,
1030
0010
1000
0001
0010
0001
1000
0010
,
0200
0000
0000
0300
,
0010
0000
0000
0000
0100
0000
0000
0100
0000
0000
0001
0000
0000
0001
0000
0000
,
1000
0000
0000
0010
0000
0000
1000
0000
0000
0100
0000
0000
1000
0000
0001
0000
,
0100
0000
0000
0000
0010
0000
0000
0010
0000
0000
1000
0000
0000
1000
0000
0000
,
0001
0000
0000
0100
0000
0000
0010
0000
0000
0001
0000
0000
0010
0000
0000
0000
,
1000
0000
0000
0000
0100
0000
0000
0100
0000
0000
1000
0000
0000
1000
0000
0000
,
0001
0000
0000
0010
0000
0000
0001
0000
0000
0100
0000
0000
0001
0000
1000
0000
,
0100
0000
0000
0000
0010
0000
0000
0010
0000
0000
0001
0000
0000
0001
0000
0000
,
1000
0000
0000
0100
0000
0000
0010
0000
0000
1000
0000
0000
0010
0000
0000
0000
,
2002
0000
0000
3003
,
0001
0100
0000
0100
0001
0000
0001
1000
,
2001
0100
0100
3100
,
1000
0010
0000
0010
1000
0000
1000
0001
,
1002
0100
0100
0103
,
0001
0010
0000
0010
0001
0000
0001
1000
,
1001
0000
1000
0000
0100
0010
0001
0000
,
1000
0100
0000
0001
0100
0000
0010
0000
,
0001
0100
0001
0000
2020
0000
0000
3030
,
1000
0100
1000
0000
0022
0000
0000
0033
,
0001
1000
0001
0000
0220
0000
0000
0330
,
1000
0001
1000
0000
0100
0010
0100
0000
,
2000
0000
0010
0010
3020
0000
0001
0001
,
0032
0000
0010
0010
0023
0000
1000
1000
,
1030
0100
0010
0001
1000
0001
0100
0010
,
0200
0000
0000
0300
,
0110
0000
1010
0000
1000
0100
0010
0000
,
0100
0001
0000
0100
0010
0000
0001
0100
,
0110
0000
0101
0000
0001
0010
0100
0000
,
1000
0000
0000
1000
0001
0000
0000
0000
1000
0000
0100
0000
0010
0000
0000
0000
,
0110
0000
0011
0000
0001
0100
0010
0000
,
0100
1000
0000
0100
0010
0000
1000
0100
,
0110
0000
1100
0000
1000
0010
0100
0000
,
0001
0000
0000
0001
1000
0000
0000
0000
0001
0000
0100
0000
0010
0000
0000
0000
,
0110
0000
0000
0000
1000
0000
0000
1000
0000
0000
0001
0000
0000
0001
0000
0000
,
0100
0000
0000
1000
0000
0000
0100
0000
0000
0001
0000
0000
0100
0000
0000
0000
,
0110
0000
0000
0000
0001
0000
0000
0001
0000
0000
1000
0000
0000
1000
0000
0000
,
0100
0000
0000
0001
0000
0000
0100
0000
0000
1000
0000
0000
0100
0000
0000
0000
,
1001
0000
0000
0001
0100
0000
0000
0000
0010
0000
0000
1000
0100
0000
0000
0000
,
1000
0000
0000
0010
0100
0000
0000
0000
0001
0000
0000
0010
0100
0000
0000
0000
,
1000
0100
0010
0000
0001
0100
0000
1000
,
0100
0000
0001
0010
0000
1000
0010
0000
,
0001
1000
0010
0100
,
0100
0001
0010
0100
,
0100
1000
0100
0010
,
0010
0001
0100
0010
,
2001
0000
0100
0100
3200
0000
0001
0001
,
0302
0000
0010
0010
0023
0000
1000
1000
,
1030
0001
0010
0100
1000
0010
0100
0001
,
1000
0100
0010
0001
0100
1000
0100
0001
,
0010
0000
0000
0000
;

//--------------- dance-single - tikal. ----------------
#NOTES:
     dance-single:
     tikal.:
     Hard:
     14:
     0,0,0,0,0:
0000
0000
0000
0000
,
0000
0000
0000
0000
,
0000
0000
0000
0000
,
0000
0000
0000
0000
,
1001
0001
0010
0100
,
0100
1000
0010
0100
,
1001
1000
0100
0010
,
0010
0001
0100
0010
,
1000
0010
1000
0000
0001
0100
0001
0000
,
1000
0100
0010
0000
0001
0001
0100
0010
,
1000
0100
1000
0000
0001
0010
0001
0000
,
1000
0010
0100
0000
0001
0001
0010
0100
,
1000
0000
0000
1000
0100
0000
0010
0000
0001
0000
0000
0001
0100
0000
0010
0000
,
1000
0000
0000
1000
0010
0000
0100
0000
0001
0000
0000
0001
0010
0000
0100
0000
,
1000
0000
1000
0000
0001
0000
0001
0000
0010
0000
0100
0000
1000
0001
1000
0000
,
0020
0000
0000
0030
,
0110
0000
1000
0010
1000
0100
0010
0001
,
0100
0010
0100
1000
0100
0010
0100
0001
,
0101
0000
1000
1000
0010
0100
0001
0010
,
0100
0000
0000
0100
1000
0000
0001
0000
0100
0000
0001
0000
0010
0000
0000
0000
,
0110
0000
0001
0010
0001
0100
0010
1000
,
0100
0010
0100
0001
0100
0010
0100
1000
,
1100
0000
0001
0001
0010
0100
1000
0010
,
0100
0000
0000
0100
0001
0000
1000
0000
0100
0000
1000
0000
0010
0000
0000
0000
,
0110
0000
0001
0100
0101
0000
1000
0100
,
1100
0000
1000
0010
1010
0000
0001
0010
,
0011
1010
0011
1010
,
2002
0000
0000
0000
3003
0000
0000
0000
0000
0000
0001
1000
0100
0000
0000
0000
,
0110
0000
0000
1000
0100
0000
1000
0000
0001
0000
0000
1000
0010
0000
1000
0000
,
1000
0000
0000
0001
0100
0000
0001
0000
1000
0000
0000
0001
0010
0000
0001
0000
,
0001
0000
0100
0000
0010
0000
1000
0000
0100
0000
0001
0000
0100
0010
0001
0000
,
0200
0000
0000
0300
,
0010
0000
0000
0000
0100
0000
0000
0001
0000
0000
1000
0000
0000
0010
0000
0000
,
0100
0000
0000
1000
0000
0000
0100
0000
0000
0001
0000
0000
0100
0000
0010
0000
,
1000
0000
0000
0000
0100
0000
0000
1000
0000
0000
0001
0000
0000
0010
0000
0000
,
0100
0000
0000
0001
0000
0000
0100
0000
0000
0010
0000
0000
1000
0000
0010
0000
,
0100
0000
0000
0000
0010
0000
0000
0001
0000
0000
1000
0000
0000
0100
0000
0000
,
0010
0000
0000
1000
0000
0000
0010
0000
0000
0001
0000
0000
0010
0000
0100
0000
,
1000
0000
0000
0000
0010
0000
0000
1000
0000
0000
0001
0000
0000
0100
0000
0000
,
0010
0000
0000
0001
0000
0000
0010
0000
0000
0100
0000
0000
1000
0000
0100
0000
,
0220
0000
0000
0330
,
0001
0100
0100
0010
0100
0100
0001
1000
,
2001
0100
0010
3100
,
1000
0100
0100
0010
0100
0100
1000
0001
,
1002
0100
0010
0103
,
0001
0100
0100
1000
0100
0100
0001
1000
,
1001
0000
1000
0100
0010
0001
0001
0000
,
1000
0100
0100
0001
0100
0100
0010
0001
,
1000
0000
0010
1000
0010
0000
0100
0000
0002
0000
0000
0000
0000
0000
0003
0000
,
0001
0000
0010
0001
0010
0000
0100
0000
2000
0000
0000
0000
0000
0000
3000
0000
,
0010
0000
1000
0100
0010
0000
0001
0000
0200
0000
0000
0000
0000
0000
0300
0000
,
0010
0000
0100
0001
1000
0000
0100
0000
0010
0000
0001
0000
0001
0000
1000
0000
,
1000
0000
0000
0001
0010
0000
0100
0000
1000
0000
0000
0001
0100
0000
0010
0000
,
1000
0000
0000
1000
0010
0000
0100
0000
0001
0000
0000
1000
0100
0000
0010
0000
,
0001
0000
0100
0000
1000
0000
0100
0000
0001
0000
0010
0000
0100
1000
0001
1000
,
0020
0000
0000
0030
,
0110
0000
0101
0100
0001
0010
0100
1000
,
0001
0100
0100
1000
0100
0100
0001
0010
,
0011
0000
1100
0100
1000
0010
0100
0001
,
0010
0000
0000
0010
0100
0000
0010
0000
0001
0000
1000
0000
0010
0000
0000
0000
,
0110
0000
1010
0010
1000
0100
0010
0001
,
1000
0010
0010
0001
0010
0010
1000
0100
,
1100
0000
0011
0010
0001
0100
0010
1000
,
0100
0000
0000
0100
0010
0000
0100
0000
1000
0000
0001
0000
0100
0000
0000
0000
,
0110
0000
0000
0000
0010
0000
0000
1000
0000
0000
0100
0000
0000
0010
0000
0000
,
0011
0000
0000
0001
0000
0000
0011
0000
0000
0010
0000
0000
0011
0000
1000
0000
,
0001
0000
0000
0000
0010
0000
0000
0001
0000
0000
0100
0000
0000
0010
0000
0000
,
1010
0000
0000
1000
0000
0000
1010
0000
0000
0010
0000
0000
1010
0000
0001
0000
,
1000
0000
0000
1000
0100
0000
0010
0000
1000
0000
0000
1000
0010
0000
0100
1000
,
0001
0000
0000
0001
0100
0000
0010
0000
0001
0000
0000
0001
0010
0000
0100
0001
,
1000
0001
0011
0000
0100
0101
0000
1000
,
1100
0000
0010
1010
0000
0001
1001
0000
,
0110
0001
0010
0100
,
0100
1000
0010
0100
,
1001
1000
0100
0010
,
0010
0001
0100
0010
,
1000
0000
0000
1000
0010
0000
0100
0000
1000
0100
0000
0100
0010
0000
1000
0000
,
0001
0000
0000
0001
0010
0000
0100
0000
0001
0100
0000
0100
0010
0000
0001
0000
,
1000
0010
1000
0001
0010
0100
1000
0010
,
0100
0001
0100
0000
0001
1000
0001
0000
1000
0100
1000
0000
0100
0010
0001
1000
,
0010
0000
0000
0000
;

//--------------- dance-single - tikal. ----------------
#NOTES:
     dance-single:
     tikal.:
     Challenge:
     17:
     0,0,0,0,0:
0000
0000
0000
0000
,
0000
0000
0000
0000
,
0000
0000
0000
0000
,
0000
0000
0000
0000
,
1001
0001
0010
0100
,
0010
1000
0010
0100
,
1001
1000
0010
0100
,
0010
0001
0010
0100
,
0001
0100
0101
0000
1000
0010
1010
0000
,
0001
0000
0010
0000
0110
0000
0000
0000
1000
0000
0100
0010
0001
0000
0001
0000
,
1000
0010
1010
0000
0001
0100
0101
0000
,
1000
0000
0100
0000
0110
0000
0000
0000
0001
0000
0010
0100
1000
0000
1000
0000
,
0001
0100
00M0
0100
1000
0000
0001
0000
1000
0100
00M0
0100
0001
0000
1000
0000
,
0001
0010
0M00
0010
1000
0000
0001
0000
1000
0010
0M00
0010
0001
0000
1000
0000
,
0001
0100
0001
0000
1000
0100
1000
0000
0001
0010
0100
1000
0010
0100
0001
1000
,
0200
0000
0000
0300
,
0110
0000
0011
0010
0001
0100
0010
1000
,
0100
0001
0100
1000
0100
0001
0100
1000
,
1100
0000
1010
0010
1000
0100
0010
0001
,
0100
0000
0000
0100
1000
0000
0100
0000
0001
0000
0100
0000
0010
0000
0000
0000
,
0110
0000
1010
0010
1000
0100
0010
0001
,
0100
1000
0100
0001
0100
1000
0100
0001
,
0101
0000
0011
0010
0001
0100
0010
1000
,
0100
0000
0000
0100
0001
0000
0100
0000
1000
0000
0100
0000
0010
0000
0000
0000
,
0011
0000
0000
0000
0010
0001
0100
0000
0101
0000
0000
0000
0100
0010
1000
0000
,
1010
0000
0000
0000
0010
1000
0100
0000
1100
0000
0000
0000
0100
0010
0001
0000
,
0100
1000
0100
0001
0100
1000
0100
0010
,
1002
0000
0000
0000
1003
0000
0000
0000
0001
0000
0010
0100
2000
0000
0000
3000
,
1001
0000
0000
0001
0020
0030
0001
0000
0200
0300
0000
0010
2000
3000
0100
0000
,
2000
3000
0000
1000
0020
0030
1000
0000
0200
0300
0000
0010
0002
0003
0100
0000
,
0001
0010
0001
0000
1000
0010
1000
0000
0001
0100
0010
1000
0100
0010
0001
1000
,
0020
0000
0000
0030
,
0100
0000
0000
0000
0110
0000
0000
0001
0000
0000
0101
0000
0000
1000
0000
0000
,
1100
0000
0000
0010
0000
0000
0101
0000
0000
0010
0000
0000
1100
0000
0001
0000
,
0100
0000
0000
0000
0110
0000
0000
1000
0000
0000
1010
0000
0000
0001
0000
0000
,
0011
0000
0000
0100
0000
0000
1010
0000
0000
0001
0000
0000
1010
0000
1000
0000
,
0010
0000
0000
0000
0110
0000
0000
0001
0000
0000
0011
0000
0000
1000
0000
0000
,
1010
0000
0000
0100
0000
0000
0011
0000
0000
0100
0000
0000
1010
0000
0001
0000
,
0010
0000
0000
0000
0110
0000
0000
1000
0000
0000
1100
0000
0000
0001
0000
0000
,
0101
0000
0000
0010
0000
0000
1100
0000
0000
0001
0000
0000
1100
0000
1000
0000
,
1MM1
0000
0001
0100
0010
1000
1000
0002
,
1003
0000
0100
00M0
0100
0000
0001
0000
0100
00M0
0100
0000
1000
0000
0010
0000
,
0110
0000
1000
0100
0010
0001
0001
2000
,
3001
0000
0100
00M0
0100
0000
1000
0000
0100
00M0
0100
0000
0010
0000
0100
0000
,
1001
0000
0001
0010
0100
1000
1000
0002
,
1003
0000
0010
0M00
0010
0000
0001
0000
0010
0M00
0010
0000
1000
0000
0100
0000
,
0110
0000
1000
0010
0100
0001
0001
2000
,
3001
0000
0010
0M00
0010
0000
1000
0000
0010
0M00
0010
0000
0100
0000
0010
0000
,
0001
0010
0001
0010
0100
1000
0100
1000
0002
0000
0000
0000
0000
0000
0003
0000
,
1000
0010
1000
0010
0100
0001
0100
0001
2000
0000
0000
0000
0000
0000
3000
0000
,
0001
0010
0100
1000
0001
0100
0010
1000
0200
0000
0000
0000
0000
0000
0300
0000
,
1000
0100
0010
0001
1000
0010
0100
0001
0010
0000
0100
1000
0001
0000
0100
0001
,
1000
0100
000M
0100
0010
0000
1000
0000
0001
0100
M000
0100
0010
0000
0001
0000
,
1000
0010
000M
0010
0100
0000
1000
0000
0001
0010
M000
0010
0100
0000
0001
0000
,
1000
0100
1000
0001
0100
0001
0010
0100
1000
0001
0010
0001
1000
0010
1000
0001
,
0200
0000
0000
0300
,
1001
0000
0101
0100
0010
1000
1010
0001
,
0010
0000
1000
000M
1000
0000
0100
0000
1000
000M
1000
0000
0010
0000
0001
0000
,
1001
0000
1010
0010
0100
0001
0101
1000
,
0100
0000
0000
0010
0001
0000
0100
0000
0010
0001
0010
0000
1000
0000
0001
0000
,
1001
0000
1100
0100
0010
0001
0011
1000
,
0010
0000
0001
M000
0001
0000
0100
0000
0001
M000
0001
0000
0010
0000
1000
0000
,
1001
0000
0011
0010
0100
1000
1100
0001
,
0100
0000
0000
0010
1000
0000
0100
0000
0010
1000
0010
0000
0001
0000
1000
0000
,
1001
0000
0000
0000
0001
0100
00M0
0100
1000
0000
1000
0100
00M0
0100
0001
0000
,
0001
0010
0M00
0010
1000
0000
1000
0010
0M00
0010
0001
0000
0100
0000
0010
0000
,
0110
0000
0000
0000
1000
0010
0M00
0010
0001
0000
0001
0100
00M0
0100
1000
0000
,
0001
0010
0M00
0010
1000
0000
0001
0100
00M0
0100
1000
0000
0010
0000
0100
0000
,
1001
0000
0000
1000
0100
00M0
0100
0001
0000
0001
0010
0M00
0010
1000
0000
0001
,
0100
00M0
0100
1000
0000
0001
0010
0M00
0010
1000
0000
1000
0100
0000
0010
0000
,
0001
0100
0001
0000
1000
0100
1000
0100
0010
000M
0010
1000
0010
1000
0100
00M0
,
0100
0001
0100
0001
0010
M000
0010
0100
0010
0100
0001
0000
1000
0100
0010
0001
,
0100
0000
0000
0000
0002
0003
1000
0000
0020
0030
1000
0000
0200
0300
1000
0000
,
0200
0300
0010
0000
0002
0003
1000
0000
0020
0030
1000
0000
0200
0300
1000
0000
,
0010
0000
0000
0000
2000
3000
0001
0000
0020
0030
0001
0000
0200
0300
0001
0000
,
0200
0300
0010
0000
2000
3000
0001
0000
0020
0030
0001
0000
0200
0300
0001
0000
,
0010
0100
M000
0100
0001
0000
0010
0000
0100
0001
M000
0001
0010
0000
0010
0000
,
0100
0010
000M
0010
1000
0000
0100
0000
0010
1000
000M
1000
0100
0000
0100
0000
,
0010
0001
1000
0010
0100
0010
1000
0001
0010
0100
1000
0010
0100
0001
1000
0001
,
0010
0100
0010
0100
0010
0100
0010
0100
1000
0001
1000
0001
1000
0001
1000
0001
,
0100
0000
0000
0000
;
