#VERSION:0.83;
#TITLE:〆;
#SUBTITLE:;
#ARTIST:lapix;
#TITLETRANSLIT:Shime;
#SUBTITLETRANSLIT:;
#ARTISTTRANSLIT:;
#GENRE:HiTECH;
#CREDIT:Graphics+BGA by forcednature;
#MUSIC:Shime.ogg;
#BANNER:Shime.png;
#BACKGROUND:Shime-bg.png;
#CDTITLE:;
#SAMPLESTART:93.001;
#SAMPLELENGTH:15.000;
#SELECTABLE:YES;
#OFFSET:0.000;
#BPMS:0.000=160.000;
#STOPS:;
#TIMESIGNATURES:0.000=4=4;
#BGCHANGES:0.000=Shime.mp4=1.000=0=0=0=StretchNoLoop====,
99999.000=-nosongbg-=1.000=0=0=0=StretchNoLoop====
;
#FGCHANGES:;

//--------------- dance-single - Extraordiberry ----------------
#NOTEDATA:;
#STEPSTYPE:dance-single;
#DESCRIPTION:Extraordiberry;
#DIFFICULTY:Beginner;
#METER:3;
#RADARVALUES:0,0,0,0,0;
#CREDIT:Extraordiberry;
#NOTES:
0000
0000
0000
0000
,
0000
0000
0000
0000
,
1000
0000
0000
0000
,
0000
0000
0000
0000
,
0001
0000
0000
0000
,
0000
0000
0000
0000
,
1000
0000
0000
0000
,
1000
0000
0000
0000
,
0001
0000
0001
0000
,
0001
0000
0000
0000
,
1000
0000
0000
0000
,
0100
0000
0000
0000
,
1000
0000
0000
0000
,
0000
0000
0000
0000
,
0001
0000
0000
0000
,
0100
0000
0000
0000
,
0001
0000
0000
0000
,
1000
0000
1000
0000
,
1000
0000
0000
0000
,
0100
0000
0000
0000
,
1000
0000
0000
0000
,
0001
0000
0000
0000
,
0100
0000
0000
0000
,
0000
0000
0000
0000
,
0010
0000
0000
0000
,
0100
0000
0000
0000
,
0001
0000
0000
0000
,
0000
0000
0000
0000
,
1000
0000
0000
0000
,
0000
0000
0000
0000
,
0001
0000
0000
0000
,
0001
0000
0000
0000
,
1000
0000
0000
0000
,
1000
0000
0000
0000
,
0001
0000
0000
0000
,
0100
0000
0000
0000
,
0010
0000
0000
0000
,
1000
0000
0000
0000
,
0100
0000
0000
0000
,
0010
0000
0000
0000
,
0001
0000
0001
0000
,
0001
0000
0000
0000
,
1000
0000
0000
0010
,
0000
0000
0100
0000
,
0000
0001
0000
0000
,
1000
0000
0000
0000
,
1001
0000
0000
0000
,
0000
0000
0000
0000
,
0000
0000
0000
0000
,
0000
0000
0000
0000
,
0001
0000
0000
0000
,
1000
0000
0000
0000
,
0100
0000
0000
0000
,
0010
0000
0000
0000
,
0001
0000
0000
0000
,
0100
0000
0000
0000
,
0010
0000
0000
0000
,
1000
0000
0000
0000
,
0001
0000
0000
0000
,
1000
0000
0000
0000
,
0001
0000
0001
0000
,
0001
0000
0000
0000
,
0000
0000
0000
0000
,
1000
0000
0000
0000
,
0100
0000
0100
0000
,
0100
0000
0000
0000
,
1000
0000
0000
0000
,
0001
0000
0000
0000
,
0100
0000
0100
0000
,
0100
0000
0000
0000
,
0001
0000
0000
1000
,
1000
0000
0000
0001
,
0001
0000
1000
0000
,
0001
0000
0000
0000
,
1000
0000
0100
0000
,
0010
0000
0001
0000
,
1000
1000
1000
0000
,
0001
0000
0000
0000
,
2002
0000
0000
0000
,
0000
0000
0000
0000
,
0000
0000
0000
0000
,
0000
0000
0000
0000
,
0000
0000
3003
0000
;

//--------------- dance-single - Extraordiberry ----------------
#NOTEDATA:;
#STEPSTYPE:dance-single;
#DESCRIPTION:Extraordiberry;
#DIFFICULTY:Easy;
#METER:7;
#RADARVALUES:0,0,0,0,0;
#CREDIT:Extraordiberry;
#NOTES:
0000
0000
0000
0000
,
0000
0000
0000
0000
,
1001
0000
0000
0100
,
0110
0000
0000
0000
,
1001
0000
0000
0010
,
0110
0000
0000
0000
,
1001
0000
0110
0000
,
1000
0100
0010
0001
,
1000
1000
0001
2002
,
0000
0000
0000
3003
,
1000
0100
0010
0000
,
0001
0100
0010
0000
,
1000
0100
0010
0000
,
0001
0100
0010
0010
,
1000
0100
0010
0000
,
0001
0100
0010
0000
,
1000
0100
0010
0010
,
0001
1000
1001
0000
,
0001
0100
0010
0000
,
1000
1000
0100
0010
,
0001
0100
0010
0000
,
1000
0100
0010
0001
,
2000
0000
0000
0000
,
0000
0000
0000
3000
,
0001
0001
0100
0100
,
0010
1000
1001
0000
,
2000
0000
0000
3000
,
0200
0000
0000
0300
,
0020
0000
0000
0030
,
0002
0000
0000
0003
,
1000
0001
0100
0000
,
0001
1000
0100
0000
,
0010
0001
1000
0010
,
0110
0000
1001
0000
,
1000
0100
0010
0000
,
0001
0100
0010
0000
,
1000
0100
0010
0010
,
0001
0100
0010
0000
,
0100
0001
1000
0000
,
0100
1000
0001
0000
,
0100
0100
0010
0010
,
1000
0001
1001
0000
,
1000
0000
0000
0001
0000
0000
1000
0000
,
0000
0001
0000
0000
1000
0000
0000
0001
,
0000
0000
1000
0000
0000
0001
0000
0000
,
0200
0000
0000
0300
,
0001
0000
1000
0000
,
0100
0000
0010
0000
,
0001
0000
1000
0000
,
0010
0000
0100
0000
,
0001
1000
0100
0000
,
0010
0001
1000
0000
,
0001
0100
0010
0000
,
1000
1000
1000
0000
,
1001
0000
0000
0100
,
0110
0000
0000
0000
,
1001
0000
0000
0010
,
0110
0000
0000
0000
,
1000
1000
0001
0001
,
1000
0001
1000
0001
,
1000
0100
0010
0001
,
1001
0000
0000
0000
,
1000
0100
0010
0100
,
1000
0001
1000
0000
,
0001
0100
0010
0000
,
1000
0100
0010
0000
,
0001
0100
0010
1000
,
0100
0010
0001
0000
,
1000
1000
0001
0001
,
1000
0001
1001
0000
,
0001
0100
0010
0000
,
1000
0100
0010
0000
,
0001
0100
0010
0100
,
0001
1000
0001
0000
,
1000
0100
0001
0100
,
1000
0100
0001
0100
,
2000
0000
3001
1001
,
1000
0010
0110
0000
,
0002
0000
0000
0000
,
0000
0000
0000
0000
,
0000
0000
0000
0000
,
0000
0000
0000
0000
,
0000
0000
0003
0000
;

//--------------- dance-single - Extraordiberry ----------------
#NOTEDATA:;
#STEPSTYPE:dance-single;
#DESCRIPTION:Extraordiberry;
#DIFFICULTY:Medium;
#METER:13;
#RADARVALUES:0,0,0,0,0;
#CREDIT:Extraordiberry;
#NOTES:
0000
0000
0000
0000
,
0000
0000
0000
0000
,
1001
0000
0000
0110
,
1001
0000
0000
0000
,
1100
0000
0000
1001
,
0101
0000
0000
0000
,
1001
0000
0110
0000
,
1100
0000
0000
0000
0110
0000
0000
0000
0011
0000
0000
0001
0000
0000
1000
0000
,
1010
0000
0000
0010
0000
0000
0100
0000
0000
0001
0000
0000
2002
0000
0000
0000
,
0000
0000
0000
3003
,
1000
0000
0100
0000
0010
0000
0001
0000
0000
0010
0000
0000
0011
0000
0000
0000
,
0001
0000
0100
0000
0010
0000
1000
0000
0000
0010
0000
0000
1010
0000
0000
0000
,
2000
0000
0000
0000
3100
0000
0010
0000
0000
0001
0000
0000
0011
0000
0000
0000
,
0001
0000
0001
0000
0100
0000
0010
0000
0000
1000
0000
0000
0010
1000
0010
0000
,
1000
0100
1000
0100
0010
0001
0011
0000
,
0001
0000
0100
0000
0001
0000
0100
0000
0010
1000
0000
0000
1010
0000
0000
0000
,
1001
0000
0000
0000
0110
0000
0000
1000
0000
1000
0000
1000
0001
0000
0100
0000
,
0010
0000
1000
0000
0001
0000
0000
2002
0000
0000
0000
0000
3003
0000
0000
0000
,
1000
0100
1000
0100
0010
0001
0011
0000
,
0002
0000
0000
0203
0000
0000
2300
0000
0000
3200
0000
0000
0302
0000
0000
0000
,
1003
0100
0010
0001
1000
0010
0100
0010
,
1000
0000
0100
0000
0001
0000
0100
0000
1000
0001
1000
0000
0001
0000
0000
0000
,
2002
0000
0000
3003
,
0001
0000
0100
0000
0010
0000
1000
0000
0001
0000
0000
1000
0000
0100
0010
0000
,
0002
0010
1000
0103
,
0001
0100
0001
0100
0001
0100
0010
0000
0000
1001
0000
0000
,
2000
3200
0302
0000
,
0203
2300
3002
0000
,
1003
0010
0100
0000
0010
1000
0001
0000
,
0010
0100
1000
0100
0010
0001
1000
0000
,
0002
0203
2300
0000
,
3200
0302
2003
0000
,
3001
0010
0100
1000
0100
0010
0001
1000
,
1010
0000
0000
0010
0000
0010
0000
0010
0100
0000
0000
0000
1001
0000
0000
0000
,
1000
0100
0001
0100
1000
0001
0010
0000
,
0001
0100
1000
0100
0001
1000
0010
0000
,
1000
1000
0001
0010
1000
0010
0001
1000
,
0010
0100
0001
1000
0001
0001
1000
0000
,
0001
0010
1000
0010
0001
1000
0100
0000
,
1000
0010
0001
0010
1000
0001
0100
0000
,
0001
0001
1000
0100
0001
0100
1000
0001
,
0100
0100
0010
0010
1000
1000
0001
0000
,
1000
0100
0100
0010
0001
0001
0100
0010
,
0010
1000
0001
0001
0010
0100
0100
1000
,
0001
0001
0100
0010
0010
1000
0001
0001
,
0020
0000
0000
0000
,
0031
0100
0010
0100
,
0001
1000
0100
0010
,
0100
1000
0001
0100
,
0010
1000
0001
0000
1001
0000
1000
1000
,
0100
0010
0001
0000
0011
0000
0001
0001
,
0100
0010
1000
0000
1010
0000
1000
1000
,
0001
0010
0100
1000
0001
0100
0001
0100
,
0010
1000
0000
1000
0000
1000
0000
2000
0000
0000
0000
0000
3001
0000
0000
0000
,
1001
0000
0000
0110
,
1000
1000
0100
0100
0010
0010
0001
0001
,
1001
0000
0000
0110
,
0001
0000
0100
0010
0000
0010
0000
0010
0000
0000
1000
0000
1001
0000
0000
0000
,
1000
0100
0010
0100
1000
0100
0010
0100
,
1000
0100
0000
0010
0100
0000
1000
0000
0100
0000
0010
0100
0000
1000
0100
0000
,
2000
0000
0000
3000
,
1001
1001
1001
0000
,
1000
0100
0010
0001
1000
0010
0001
0010
,
1000
0000
0001
0010
0000
0100
0000
0010
0000
0000
0001
0000
0100
0000
0010
0000
,
1010
0000
1000
0001
0000
1000
0000
0000
1010
0000
1000
0001
0000
1000
0000
0000
,
1010
0000
1000
0001
0000
1000
0000
1000
0000
0000
0100
0000
0010
0000
0010
0000
,
0001
0100
0010
1000
0001
0010
1000
0010
,
0001
0000
1000
0010
0000
0100
0000
0010
0000
0000
1000
0000
0100
0000
0010
0000
,
0011
0000
0001
1000
0000
0001
0000
0000
0011
0000
0001
1000
0000
0001
0000
0000
,
0011
0000
0001
1000
0000
0001
0000
0001
0000
0000
1000
0000
1001
0000
0000
0000
,
0001
0100
1000
0001
0010
1000
0001
0001
,
1000
0100
0001
1000
0010
0001
1000
0000
,
0101
0000
0000
0100
0000
0000
0010
0000
1010
0000
0000
0001
0000
0000
0010
0000
,
0011
0000
0000
0100
0000
1000
0000
0002
0000
0000
1000
0000
1003
0000
0000
0000
,
0001
0100
1000
0001
0010
1000
0001
1000
,
0010
0001
1000
0100
0001
1000
0001
0000
,
1000
0001
1000
0000
0001
1000
0001
0000
1000
0001
1000
0000
0001
1000
0001
0000
,
2000
0000
0000
3200
0000
0000
0310
0000
0011
0000
0000
0000
1001
0000
0000
0000
,
0002
0000
0000
0000
,
0000
0000
0000
0000
0000
0000
0000
0000
0000
0000
2003
0000
,
0000
0000
3020
0000
0000
0000
0000
0000
0000
0000
0000
0000
,
0000
0000
0000
0000
,
0000
0000
0030
0000
;

//--------------- dance-single - Extraordiberry ----------------
#NOTEDATA:;
#STEPSTYPE:dance-single;
#DESCRIPTION:Extraordiberry;
#DIFFICULTY:Hard;
#METER:17;
#RADARVALUES:0,0,0,0,0;
#CREDIT:Extraordiberry;
#NOTES:
0000
0000
0000
0000
,
0000
0000
0000
0000
,
1100
0000
0000
0110
,
0011
0000
0000
0000
,
0101
0000
0000
0000
0000
0000
0110
0010
,
0010
1000
0001
0001
1000
0100
0100
1000
,
1100
0000
0110
0000
,
0011
0000
0000
0000
1001
0000
0000
0000
0101
0000
0000
0110
0000
0000
1010
0000
,
2000
0000
0000
3020
0000
0000
0230
0000
0000
0302
0000
0000
0023
0000
0000
0000
,
0000
0000
0000
0000
0000
0000
0000
0000
0000
0000
0130
1000
0001
0000
0000
0000
,
1000
0000
0001
0000
0100
0010
0100
0010
0000
1000
0010
0000
1010
0000
0000
0000
,
0001
0000
1000
0000
0100
0010
0100
0010
0000
0001
0010
0000
0011
0000
0000
0000
,
1002
0000
0000
0000
0103
0010
0100
0010
0000
1000
0010
0000
1010
0000
0000
0000
,
1000
0001
1000
0000
0001
0010
0100
0010
0000
0001
2000
0000
0010
0000
3001
0000
,
1000
0000
0001
0000
1000
0100
1000
0100
0010
0001
0010
0000
0001
0000
1000
0000
,
0001
0000
0100
0000
0001
0100
0001
0200
0000
0320
0000
1030
0010
0100
0001
0000
,
1000
0100
0010
0002
0000
2003
0000
3020
0000
0230
0000
0310
1000
0001
0010
0000
,
0100
0010
0001
0000
1000
0001
0100
0020
0000
0000
0000
0000
0130
0001
1000
0000
,
2100
0000
0000
0000
3001
0100
0010
1000
0010
0000
0100
0000
1000
0000
0100
0000
,
0102
0000
0000
1003
0000
0000
2100
0000
0000
3100
0000
0100
0001
0000
0100
0000
,
1000
0000
0001
0000
0100
0010
0100
0010
1000
0001
1000
0100
1000
0001
1000
0000
,
0001
1000
0010
0100
0001
1000
0100
0010
0001
0000
0001
0000
1000
0000
1000
0000
,
2002
0000
0000
3003
,
0001
0000
1000
0010
0000
1000
0001
0000
1000
0100
0010
0100
0000
1000
0001
0100
,
0010
0100
0001
0000
1000
0100
0010
0001
0000
0010
0100
1000
0001
0100
0010
0000
,
1000
0000
0100
0000
1000
0000
0001
0000
0010
0000
0001
0000
1000
0000
0000
0010
0000
0000
0010
0000
0000
0000
0000
0000
,
2000
3200
0320
0000
,
0032
0203
0320
0000
,
1030
0100
0010
0100
1000
0001
0100
0001
,
1000
0100
0010
0001
0100
0001
1000
0100
,
2000
0000
0000
0010
0000
0000
0001
0000
3001
0000
0000
0000
0010
0000
0000
0000
,
0002
0000
0000
0010
0000
0000
1000
0000
1003
0000
0000
0000
0010
0000
0000
0000
,
1000
1000
0010
0100
0100
0001
1000
0100
,
0210
0000
0000
0010
0000
0010
0000
0310
0100
0000
1000
0001
1000
0000
0000
0000
,
0001
0100
0010
0000
0010
1000
0001
0000
0010
0000
0100
0000
0010
0000
0001
0000
,
1000
0010
0100
0000
0100
0001
1000
0000
0100
0000
0010
0000
0100
0000
1000
0000
,
0001
0100
0010
0000
0010
1000
0001
0000
0001
0010
0100
0000
1000
0000
0001
0000
,
0100
1000
0100
0001
2000
0001
3100
1000
,
0001
0100
0010
0100
0001
1000
0100
0000
0010
0000
0001
0000
0010
0000
0100
0000
,
1000
0001
0100
0001
1000
0100
0010
0000
0001
0000
1000
0000
0010
0000
0100
0000
,
0001
0001
0010
0010
1000
1000
0010
0010
,
0001
2000
3010
2000
3001
2000
3100
0100
,
1000
0000
1000
0001
0100
0000
0010
0000
0010
1000
0001
0000
0010
0000
0010
0100
,
1000
0000
0001
0000
0001
1000
0001
0000
0100
0000
0100
0010
1000
0000
0001
0000
,
0001
1000
0100
0000
0010
0000
0010
0100
1000
0000
0001
0000
0001
0100
0010
0000
,
2000
0000
0000
0000
0000
0000
0000
0000
0000
0000
0000
0000
0000
0000
0000
3000
,
1000
1100
0001
0011
,
1000
1010
0001
0101
,
1000
0001
0010
0200
0000
0310
0001
1000
,
0010
0000
0100
0010
0000
1000
0000
0001
0010
0000
0100
0000
1000
0000
1000
0000
,
0001
0100
0001
0000
0100
0000
1000
0000
0001
0000
0010
0000
1000
0001
0000
0000
,
1000
0100
1000
0000
0100
0000
0001
0000
1000
0000
0010
0000
0001
1000
0000
0000
,
0001
0001
0100
0100
0010
0010
1000
1000
,
0001
0020
0000
0230
0000
2300
0000
3002
0000
0000
0100
0000
1003
0001
0000
0000
,
1001
0000
0000
0110
,
0001
0100
0001
1000
0100
1000
0001
0100
0010
0100
0001
1000
0100
1000
0001
0100
,
0010
0000
0000
0110
,
0001
0000
0010
0100
0000
0010
0000
0001
0000
0100
0010
0000
1010
0000
1000
0000
,
0001
0010
0100
0000
1000
0100
0010
0000
0001
0010
0100
0000
1000
0100
0010
0000
,
0001
0010
0000
0100
0010
0000
0010
0000
0001
0000
0010
0100
0000
0100
0010
0000
,
0002
0000
0000
0000
0000
0000
0000
0003
,
1001
0100
1001
0100
1001
0100
0100
0000
,
1001
0000
0001
0000
0100
0000
0010
1000
0001
0010
0100
0000
0100
0010
0001
0000
,
1000
0000
0010
0200
0000
0302
0000
2003
0000
3100
0010
0000
0001
0000
0100
0000
,
0010
0000
1000
0010
0000
0010
0001
0000
0010
0000
1000
0010
0000
0010
0001
0000
,
0010
1000
0010
0200
0000
0320
0000
0032
0000
0003
0010
0000
1000
0000
0100
0000
,
1100
0000
1000
0000
0001
0000
0100
0001
1000
0100
0010
0000
0010
0001
1000
0000
,
0001
0000
0100
0020
0000
2030
0000
3200
0000
0310
0100
0000
1000
0000
0001
0000
,
0011
0000
0001
0020
0000
1030
0000
0000
0011
0000
0001
0020
0000
1030
0000
0000
,
0001
0010
0100
1000
0000
0001
0000
1002
0000
0000
1003
0001
0100
0000
0000
0000
,
0001
0000
1000
0200
0000
0310
0100
1000
0001
1000
0010
0000
0010
0100
0001
0000
,
1000
0000
0001
0020
0000
0130
0010
0001
1000
0001
0100
0000
0100
0010
1000
0000
,
1100
0000
0000
0101
0000
0000
0100
0000
1100
0000
0000
0101
0000
0000
0100
0000
,
1000
0200
0000
2300
0000
3002
0000
0203
0000
0000
0010
0000
0301
0000
0000
0000
,
1000
0100
0010
0100
1000
0001
0100
0001
1000
0100
0010
0100
1000
0001
0100
0001
,
1000
0100
0010
0001
1000
0001
0100
0010
1000
0001
0010
0100
1000
0100
0010
0001
,
0100
0000
0000
0010
0000
0000
0100
0000
0000
0010
0000
0000
0100
0000
0000
0010
0000
0000
0100
0000
0000
0010
0000
0000
1000
0000
0001
0000
1000
0000
0001
0000
1000
0000
0001
0000
1000
0000
0001
0000
1000
0000
0001
0000
1000
0000
0001
0000
,
0010
0000
0000
0110
0000
0000
1000
0000
1001
0000
0000
0000
0110
0000
0000
0000
,
2001
0000
0000
0000
,
0000
0000
0000
0000
0000
0000
0000
0000
0000
0000
0010
0000
,
0000
0000
3002
0000
0000
0000
0000
0000
0000
0000
0000
0000
,
0000
0000
0000
0000
,
0000
0000
0003
0000
;

//--------------- dance-double - Extraordiberry ----------------
#NOTEDATA:;
#STEPSTYPE:dance-double;
#DESCRIPTION:Extraordiberry;
#DIFFICULTY:Hard;
#METER:17;
#RADARVALUES:0,0,0,0,0;
#CREDIT:Extraordiberry;
#NOTES:
00000000
00000000
00000000
00000000
,
00000000
00000000
00000000
00000000
,
00011000
00000000
00000000
01010000
,
10100000
00000000
00000000
00000000
,
11000000
00000000
00000000
00000000
00000000
00000000
00000000
00000000
00000000
00000000
00000000
00000000
00110000
00000000
00001000
00010000
,
00001000
00010000
00001000
00001000
00010000
00001000
00001000
00010000
,
00011000
00000000
00001100
00000000
,
00000011
00000000
00000000
00000000
00001001
00000000
00000000
00000000
00000101
00000000
00000000
00001010
00000000
00000000
00011000
00000000
,
00020000
00000000
00000000
00032000
00000000
00000000
00003020
00000000
00000000
00000230
00000000
00000000
00020300
00000000
00000000
00000000
,
00000000
00000000
00000000
00000000
00000000
00000000
00000000
00000000
00000000
00000000
00031000
00010000
00001000
00000000
00000000
00000000
,
00010000
00000000
00001000
00000000
00000010
00000000
00000001
00001000
00000001
00001000
00000000
00000000
00001001
00000000
00000000
00000000
,
00000001
00000000
00000010
00000000
00001000
00000000
00010000
00001000
00010000
00001000
00000000
00000000
00011000
00000000
00001000
00000000
,
00020000
00000000
00000000
00000000
00130000
00000000
10000000
00010000
10000000
00010000
00000000
00000000
10010000
00000000
00000000
00000000
,
10000000
00000000
00100000
00000000
00010000
00000000
00001000
00010000
00001000
00020000
00000000
00000000
00000010
00000000
00031000
00000000
,
00010000
00000000
00001000
00000000
00000010
00000001
00001000
00000001
00001000
00000010
00000000
00001000
00000001
00000000
00001000
00000000
,
00000001
00000000
00000010
00000000
00001000
00010000
00001000
00010000
00001000
01000000
00000000
00010000
01000000
00000000
00010000
00000000
,
10000000
00000000
01000000
00010000
00000000
00001000
00000000
00010000
00000000
01000000
00000000
10000000
01000000
00000000
00100000
00000000
,
00001000
00000000
00010000
00001000
00010000
00000100
00001000
00000200
00000000
00000000
00000000
00000000
00000310
00001000
00010000
00000000
,
00012000
00000000
00000000
00000000
00003100
00000000
00000010
00001000
00000001
00000000
00000010
00000000
00001000
00000000
00010000
00000000
,
00011000
00000000
00000000
00001010
00000000
00000000
00000011
00000000
00000000
00000101
00000000
00000000
00000100
00000000
00001000
00000000
,
00010000
00000000
00100000
00000000
10000000
00000000
00100000
10000000
00010000
10000000
01000000
00100000
00010000
10000000
00100000
00000000
,
10000000
01000000
00100000
00010000
00100000
00001000
00010000
00000100
00002000
00000000
00000000
00000000
00003002
00000000
00000000
00000000
,
00000203
00000000
00000000
00000300
,
00011000
00000000
00001000
00010000
00000000
00010000
00100000
00000000
10000000
00010000
10000000
01000000
00000000
10000000
01000000
00010000
,
00002000
00000000
00000000
00000000
00010000
00000000
00000000
00003010
00000000
00001000
00000010
00000000
00000001
00000000
00000100
00000000
,
00000010
00000000
00001000
00000000
00000010
00000000
00010000
00000000
00001000
00000000
00010000
00000000
00200000
00000000
00000000
10000000
00000000
00000000
10300000
00000000
00000000
00000000
00000000
00000000
,
20000000
32000000
03020000
00000000
,
00032000
00003200
00000302
00000000
,
00001003
00000010
00000100
00000001
00000100
00000010
00001000
00010000
,
01000000
00100000
10000000
00100000
01000000
00010000
01000000
00100000
,
20000000
30020000
00032000
00000000
,
00003002
00002003
00023000
00000000
,
10030000
01000000
00010000
00001000
00000010
00000001
00001000
00000001
,
00001001
00000000
00000000
00001000
00000000
00000001
00000000
00000100
00000010
00000000
00001000
00000001
00001000
00000000
00000000
00000000
,
00000001
00000000
00000100
00000000
00001000
00000000
01000000
00000000
00100000
00000000
10000000
00000000
00010000
00000000
10000000
00010000
,
10000000
00000000
01000000
00000000
00010000
00000000
00000100
00000000
00000010
00000000
00000001
00000000
00001000
00000000
00000001
00001000
,
00000001
00000100
00001000
00010000
00001000
00000010
00000001
00001000
,
00000001
00000000
00000100
00000000
00001000
00000000
00010000
00000000
00100000
00000000
10000000
00010000
10000000
00000000
00010000
00000000
,
10000000
00000000
00100000
00000000
00010000
00000000
00000010
00000000
00000100
00000000
00000001
00000000
00001000
00000000
00000001
00001000
,
00000001
00000000
00000010
00000000
00001000
00000000
00100000
00000000
01000000
00000000
10000000
00000000
00010000
00000000
10000000
00010000
,
10000000
00100000
00010000
00001000
00010000
01000000
10000000
00010000
,
00110000
00001000
00011000
00000100
00001100
00000001
00000002
00000000
,
00001003
00000000
00000001
00000100
00000001
00000000
00000100
00000000
00001000
00010000
00001000
00000000
00010000
00000000
00100000
10000000
,
00100000
00000000
00010000
00000000
00001000
00010000
00001000
00000000
00010000
00000000
01000000
10000000
01000000
00000000
00010000
00000000
,
00001000
00010000
00001000
00000000
00000010
00000000
00000001
00000010
00000001
00000000
00001000
00000000
00000001
00000100
00001000
00000000
,
00021000
00000000
00000000
00000000
00000000
00000000
00000000
00000000
00000000
00000000
00000000
00000000
00000000
00000000
00000000
00030000
,
00010000
00100000
10000000
00010000
,
00100000
00001000
00010000
00000100
,
00001000
00000001
00000100
00001000
00000000
00010000
00001000
00000100
,
00000001
00000000
00001000
00000001
00000000
00000010
00000000
00000100
00000000
00000000
00000010
00000000
00000001
00000000
00000001
00000000
,
00001000
00000001
00000100
00001000
00010000
00001000
00000010
00000000
,
00001000
00010000
00100000
10000000
01000000
00010000
00001000
00000000
,
01000000
00000000
00010000
00000000
10000000
00000000
01000000
00000000
00010000
00001000
00010000
00000000
00001000
00000000
00000010
00000000
,
00000001
00001000
00000000
00000001
00000000
00000100
00000000
00002000
00000000
00000000
00010000
00000000
00013000
00001000
00000000
00000000
,
00011000
00000000
00000000
01010000
,
10000000
00100000
10000000
00010000
01000000
00010000
10000000
01000000
00100000
00010000
00100000
00000000
00001000
00010000
00001000
00000000
,
00011000
00000000
00000000
00001100
,
00001000
00000000
00000100
00000010
00000000
00000001
00000000
00000200
00000000
00000000
00001000
00000000
00001300
00000000
00010000
00000000
,
00001000
00010000
00001000
00000000
00010000
00001000
00010000
00000000
00001000
00010000
00001000
00000000
00010000
00001000
00010000
00000000
,
00001000
00010000
00000000
00010000
00001000
00000000
00001000
00000000
00010000
00000000
00001000
00010000
00000000
00010000
00001000
00000000
,
00012000
00000000
00000000
00003000
,
10010000
00011000
00001001
00000000
,
00000001
00000000
00000100
00000000
00001000
00000000
00010000
00001000
00010000
00000010
00001000
00000000
00000001
00000100
00000010
00000000
,
00001000
00000000
00000001
00000100
00000000
00001000
00000000
00010000
00000000
00100000
10000000
00000000
00010000
00000000
00100000
00000000
,
00001000
00000000
00010000
00100000
00000000
00100000
01000000
00000000
00001000
00000000
00010000
00100000
00000000
00100000
01000000
00000000
,
00001000
00010000
00001000
00010000
00000000
00100000
00000000
02000000
00000000
00000000
03010000
00000000
10000000
00000000
00010000
00000000
,
10000000
00000000
01000000
00000000
00010000
00000000
00001000
00010000
00001000
00100000
00010000
00000000
10000000
01000000
00100000
00000000
,
00010000
00000000
10000000
01000000
00000000
00010000
00000000
00001000
00000000
00000010
00000001
00000000
00001000
00000000
00000010
00000000
,
00010000
00000000
00001000
00000010
00000000
00000010
00000001
00000000
00001000
00000000
00000001
00000010
00000000
00000010
00001000
00000000
,
00010000
00001000
00010000
00001000
00000000
00000010
00000000
00000001
00000000
00000100
00001000
00000000
00010000
00000000
00010000
00000000
,
00001000
00000000
00010000
00100000
00000000
10000000
00010000
10000000
01000000
00100000
01000000
00000000
00010000
00000000
00001000
00000000
,
00010000
00000000
00001000
00000010
00000000
00000001
00001000
00000001
00000100
00000010
00000100
00000000
00001000
00000000
00010000
00000000
,
00100000
00020000
00000000
00031000
00000000
00000000
00010000
00000000
01000000
00020000
00000000
00031000
00000000
00000000
00010000
00000000
,
00001000
00020000
00000000
00130000
00000000
10000000
00000000
00010000
00000000
10000000
01000000
00010000
00001000
00000000
00000000
00000000
,
00010000
00001000
00010000
00000100
00001000
00000100
00000010
00000000
00000001
00000100
00000010
00001000
00000010
00010000
00001000
00000000
,
01000000
00010000
01000000
00100000
10000000
00010000
00100000
00000000
00001000
00010000
00000100
00001000
00000001
00000100
00001000
00000000
,
00010000
00000000
00000000
00001000
00000000
00000000
00010000
00000000
00000000
00001000
00000000
00000000
00010000
00000000
00000000
00001000
00000000
00000000
00010000
00000000
00000000
00001000
00000000
00000000
00010000
00000000
00001000
00000000
00010000
00000000
00001000
00000000
00010000
00000000
00001000
00000000
00010000
00000000
00001000
00000000
00010000
00000000
00001000
00000000
00010000
00000000
00001000
00000000
,
00010000
00000000
00000000
00100000
00000000
00000000
10000000
00000000
10010000
00000000
00000000
00000000
01100000
00000000
00000000
00000000
,
20000000
00000000
00000000
00000000
,
00000000
00000000
00000000
00000000
00000000
00000000
00000000
00000000
00000000
00000000
32000000
00000000
,
00000000
00000000
03020000
00000000
00000000
00000000
00000000
00000000
00000000
00000000
00000000
00000000
,
00000000
00000000
00000000
00000000
,
00000000
00000000
00030000
00000000
;
