#TITLE:Shake;
#SUBTITLE:;
#ARTIST:Frisky & Hujib;
#TITLETRANSLIT:;
#SUBTITLETRANSLIT:;
#ARTISTTRANSLIT:;
#GENRE:;
#CREDIT:;
#MUSIC:Shake.ogg;
#BANNER:;
#BACKGROUND:;
#CDTITLE:;
#SAMPLESTART:85.033;
#SAMPLELENGTH:15.000;
#SELECTABLE:YES;
#OFFSET:0.000;
#BPMS:0.000=175.000
,72.000=112.450
,90.000=175.000
;
#STOPS:90.000=1.029;
#BGCHANGES:;
#FGCHANGES:;

//--------------- dance-single - RaverAce ----------------
#NOTES:
     dance-single:
     RaverAce:
     Beginner:
     4:
     0,0,0,0,0:
0000
0000
0000
0000
,
0000
0000
0000
0000
,
0000
0000
0000
0000
,
0000
0000
0000
0000
,
0000
0000
0000
0000
,
1001
0000
0100
0000
,
0010
0000
0100
0000
,
0010
0000
0100
0000
,
0010
0000
0000
0000
,
1001
0000
1000
0000
,
0001
0000
1000
0000
,
0010
0000
0100
0000
,
0010
0000
0100
0000
,
0001
0000
1000
0000
,
0001
0000
1000
0000
,
0100
0000
0010
0000
,
1001
0000
0000
0000
,
0000
0000
0000
0000
,
1000
0000
0000
0000
,
0001
0000
0000
0000
,
0010
0000
0000
0000
,
0000
0000
0000
0000
,
0000
0000
0110
1001
,
0000
0001
0000
1000
,
0000
0100
0000
1000
,
0000
0010
0000
0100
,
0000
0001
0000
1001
,
0000
1000
0000
0100
,
0000
0010
0000
0001
,
0000
1000
0000
1001
,
0000
0000
0000
1001
,
0000
0010
0000
0100
,
0000
0010
0000
1001
,
0000
0100
0000
0010
,
0000
0100
0000
1001
,
0000
0010
0000
0100
,
0000
0010
0000
1001
,
0000
0100
0000
1001
,
0000
0000
0000
1001
,
0000
1001
0000
1001
,
0000
1001
0000
0110
,
0000
0110
0000
0110
,
0000
0110
0000
1001
,
0000
0000
0000
1001
,
0000
0000
0000
0110
,
0000
0110
0000
0110
,
0000
0000
0000
1001
,
0000
0000
0000
0000
,
0000
0000
0000
0000
,
0000
0000
0000
0000
,
0000
0000
0000
1001
,
0000
1001
0000
1001
,
0000
1001
0000
1001
,
0000
0100
0000
0010
,
0000
0100
0000
1001
,
0000
1001
0000
1001
,
0000
1001
0000
1001
,
0000
1001
0000
1001
,
0000
0000
0000
1001
,
0000
1000
0000
0100
,
0000
0001
0000
0100
,
0000
1000
0000
0010
,
0000
0100
0000
1001
,
0000
0001
0000
0100
,
0000
1000
0000
0100
,
0000
0001
0000
0010
,
0000
0001
0000
1001
,
0000
1000
0000
0010
,
0000
0001
0000
0010
,
0000
1000
0000
0100
,
0000
1000
0000
1001
,
0000
0001
0000
0010
,
0000
1000
0000
0010
,
0000
0001
0000
0100
,
0000
0010
0000
1001
;

//--------------- dance-single - RaverAce ----------------
#NOTES:
     dance-single:
     RaverAce:
     Easy:
     8:
     0,0,0,0,0:
0000
0000
0000
0000
,
0000
0000
0000
0000
,
0000
0000
0000
0000
,
0000
0000
0000
0000
,
0000
0000
0000
0000
,
1001
1000
1100
1000
,
1001
0001
0101
0001
,
1001
1001
1001
1001
,
2002
0000
0000
3003
,
1001
1000
0100
0010
,
0011
0001
0100
0010
,
1010
1000
0100
0010
,
0011
0001
0100
0010
,
0110
0110
0110
0110
,
1001
1001
1001
1001
,
0110
0110
1001
1001
,
1001
0000
0000
0000
,
0000
0000
0000
0000
,
0010
0010
0100
0001
,
0010
0010
0100
1000
,
0001
0000
0000
0000
,
0000
0000
0000
0000
,
0000
0000
0000
0000
0000
0000
0000
0000
0000
0000
0000
0000
0000
0000
0000
0000
0000
0000
0000
0000
0000
0000
0000
0000
0000
0000
0000
0000
0000
0000
0000
0000
0220
0330
0000
0000
0000
0000
0000
0000
0000
0000
0000
0000
0000
0000
0000
0000
1001
0000
0000
0000
0000
0000
0000
0000
0000
0000
0000
0000
0000
0000
0000
0000
,
1000
0100
0010
0001
,
0100
0010
1000
0001
,
0100
1000
0100
0001
,
0010
1000
0010
0011
,
0001
0100
0010
1000
,
0100
1000
0010
0001
,
0010
1000
0100
0220
,
0000
0000
0330
1001
,
0001
0100
0010
1000
,
0100
0010
0001
1001
,
1000
0010
0100
0001
,
0010
0100
1000
1001
,
0001
0100
0010
1000
,
0100
0010
0001
1001
,
1000
0010
0100
0220
,
0000
0330
0000
1001
,
0001
0101
0001
1001
,
0001
0101
0001
1001
,
1000
1100
1000
1001
,
1000
1100
1000
1001
,
0001
0100
0010
0110
,
0100
0001
1001
0110
,
0100
0110
0010
0220
,
0000
0000
0330
2002
,
0000
0000
0000
0000
,
0000
0000
0000
0000
,
0000
0000
0000
0000
,
0000
0000
3003
2002
,
3003
0220
0330
2002
,
3003
0110
0110
1001
,
1000
0000
0100
0000
0000
0010
0000
0000
,
0001
0000
1000
0000
0000
0001
1000
0000
,
0000
1000
0001
0000
0000
0001
1000
0000
,
0000
1000
0001
0000
0000
0001
1000
0000
,
0000
1000
0001
0000
0000
0001
2002
0000
,
0000
0000
3003
1001
,
1000
0100
0001
0100
,
1000
0010
0100
0001
,
0010
1000
0010
0100
,
1000
0001
1000
1001
,
0001
0100
1000
0100
,
0001
0010
0100
1000
,
0010
0001
0010
0100
,
0001
1000
0001
1001
,
1000
0000
0100
0000
1000
0010
0000
0010
,
0100
0000
0100
0001
0000
0001
1000
0000
,
0100
0000
0010
0000
0001
1000
0000
1000
,
0100
0000
0100
1000
0000
1000
1001
0000
,
0001
0000
0100
0000
0001
0010
0000
0010
,
0100
0000
0100
1000
0000
1000
0001
0000
,
0100
0000
0010
0000
1000
0001
0000
0001
,
0100
0000
0100
0001
0000
0001
1001
0000
;

//--------------- dance-single - RaverAce ----------------
#NOTES:
     dance-single:
     RaverAce:
     Medium:
     11:
     0,0,0,0,0:
0000
0000
0000
0000
,
0000
0000
0000
0000
,
0000
0000
0000
0000
,
0000
0000
0000
0000
,
0000
0000
0000
0000
,
1001
0000
1000
0100
1000
0000
0001
1000
,
0001
0000
0100
0001
0100
0000
0010
1000
,
0010
0000
1000
0001
1000
0000
0001
0020
,
0200
0000
0000
0330
,
1001
1000
0100
0010
,
0011
0001
0100
0010
,
1010
1000
0100
0010
,
0110
0000
0100
0000
1000
0000
0001
1000
,
0001
0100
0010
1000
,
0100
0010
0001
1000
,
0010
0100
0010
0100
0001
1000
0001
1000
,
0001
0000
0000
0000
,
0000
0000
0000
0000
,
0001
0100
0001
0000
0001
0100
1000
0000
,
1000
0010
1000
0000
1000
0010
0001
0000
,
1000
0000
0000
0000
,
0000
0000
0000
0000
,
0000
0000
0000
0000
0000
0000
0000
0000
0000
0000
0000
0000
0000
0000
0000
0000
0000
0000
0000
0000
0000
0000
0000
0000
0000
0000
0000
0000
0000
0000
0000
0000
0220
0330
0000
0000
0000
0000
0000
0000
0000
0000
0000
0000
0000
0000
0000
0000
1001
0000
0000
0000
0000
0000
0000
0000
0000
0000
0000
0000
0000
0000
0000
0000
,
1000
0000
0100
0000
0010
0001
1000
0000
,
0010
0000
0100
0000
0001
1000
0100
0000
,
0010
0000
0001
0000
1000
0010
0100
0000
,
0001
0000
1000
0100
0010
0001
1001
0000
,
0001
0000
0100
0000
0010
1000
0001
0000
,
0010
0000
0100
0000
1000
0001
0100
0000
,
0010
1000
0001
2002
,
0000
0000
0000
0000
0000
0000
0000
0000
3003
0000
0000
0000
1001
0000
0000
0001
,
0000
0000
1000
0000
0100
0000
0000
1000
0000
0000
0001
0000
0100
0000
0000
0001
,
0000
0000
0010
0000
0001
0000
0000
1000
0000
0000
0000
0000
1001
0000
0000
1000
,
0000
0000
0010
0000
0100
0000
0000
0001
0000
0000
0010
0000
0001
0000
0000
1000
,
0000
0000
0100
0000
1000
0000
0000
0000
0001
0000
0000
0000
1001
0000
0000
1000
,
0000
0000
0001
0000
0100
0000
0000
0001
0000
0000
1000
0000
0100
0000
0000
1000
,
0000
0000
0010
0000
1000
0000
0000
0001
0000
0000
0000
0000
1001
0000
0000
0001
,
0000
0000
0010
0000
0100
0000
0000
1000
0000
0000
0010
0000
0220
0000
0000
0000
,
0000
0330
0000
1001
,
0001
0000
1000
0000
1100
0000
0000
0000
1000
0000
0001
0000
0101
0000
0000
0100
,
0000
0010
1010
0000
1000
0001
1001
0000
,
1000
0000
0001
0000
0101
0000
0000
0000
0001
0000
1000
0000
1100
0000
0000
0100
,
0000
0010
0011
0000
0001
1000
1001
0000
,
0001
0000
0100
0010
0100
0000
1001
0000
,
1000
0000
0100
0010
0110
0000
1001
0000
,
0100
0110
0001
0220
,
0000
0000
0330
2002
,
0000
0000
0000
0000
,
0000
0000
0000
0000
,
0000
0000
0000
0000
,
0000
0000
3003
2002
,
3003
2200
3300
2002
,
3003
0000
0101
0000
1001
0000
1100
0100
,
1000
0000
0001
0000
0100
0000
0000
0001
0000
0000
1000
0000
0000
0000
0100
0000
,
1000
0000
0010
0000
0100
0000
0000
0001
0000
0000
1000
0000
0100
0000
0000
0100
,
0000
0000
0100
0000
1000
0000
0000
1000
0000
0000
1000
0000
0010
0000
0000
0010
,
0000
0000
0010
0000
0100
0000
0000
0100
0000
0000
0100
0000
0001
0000
0000
0001
,
0000
0000
0001
0000
1000
0000
0000
1000
0000
0000
1000
0000
2002
0000
0000
0000
,
0000
0000
0000
0000
3003
0000
1001
0001
,
0010
0001
1000
0000
0010
0000
0100
0001
,
1000
0000
0100
0000
0010
0000
0000
0001
0000
0000
1000
0000
0010
0000
0100
0000
,
0001
0000
1000
0000
0100
0000
0000
0010
0000
0000
0001
0000
1000
0000
0010
0000
,
0100
0000
0001
0000
1000
0000
0000
0001
0000
0000
0001
0000
1001
0000
1000
0000
,
0010
1000
0001
0000
0010
0000
0100
1000
,
0001
0000
0100
0000
0010
0000
0000
1000
0000
0000
0001
0000
0010
0000
0100
0000
,
1000
0000
0001
0000
0100
0000
0000
0010
0000
0000
1000
0000
0001
0000
0010
0000
,
0100
0000
1000
0000
0001
0000
0000
1000
0000
0000
1000
0000
1001
0000
0000
0000
,
0001
0100
1000
0000
0100
0001
0000
0001
,
0010
0000
0010
0100
0000
0100
1000
0000
,
0001
0010
1000
0000
0010
0001
0000
0001
,
0100
0000
0010
0100
0000
0001
1001
0000
,
1000
0100
0001
0000
0100
1000
0000
1000
,
0010
0000
0010
0100
0000
0100
0001
0000
,
1000
0010
0001
0000
0010
1000
0100
0010
,
0100
0010
0001
1000
0001
1000
1001
0000
;

//--------------- dance-single - RaverAce ----------------
#NOTES:
     dance-single:
     RaverAce:
     Hard:
     14:
     0,0,0,0,0:
0000
0000
0000
0000
,
0000
0000
0000
0000
,
0000
0000
0000
0000
,
0000
0000
0000
0000
,
0000
0000
0000
0000
,
1001
0000
0001
1000
1100
0000
1000
0001
,
0101
0000
0001
1000
1010
0000
1000
0001
,
0011
0010
0100
0100
1000
1000
0010
0020
,
0200
0000
0000
0330
,
1001
0000
1000
0100
0000
0100
1000
0000
,
1000
0010
0000
0010
0100
1000
0100
0001
,
1001
0000
0001
0100
0000
0100
0001
0000
,
0001
0010
0000
0010
0100
0000
1000
0001
,
1001
1000
0010
0100
0001
1000
0010
0100
,
0001
0010
0100
1000
0001
0010
0100
1000
,
0001
0100
1000
0100
0001
0010
1000
0010
,
0011
0000
0000
0000
,
0000
0000
0000
0000
,
1010
0000
0000
0000
0000
0000
0000
0000
1000
0000
0000
0000
0000
0000
0000
0000
1100
0000
0000
0000
0000
0000
0000
0000
0000
0000
0000
0000
0000
0000
0000
0000
1200
0300
0000
0000
0000
0000
0000
0000
0000
0000
0000
0000
0000
0000
0000
0000
0200
0300
0000
0000
0000
0000
0000
0000
0000
0000
0000
0000
0000
0000
0000
0000
,
0101
0000
0000
0000
0000
0000
0000
0000
0001
0000
0000
0000
0000
0000
0000
0000
0011
0000
0000
0000
0000
0000
0000
0000
0000
0000
0000
0000
0000
0000
0000
0000
0021
0030
0000
0000
0000
0000
0000
0000
0000
0000
0000
0000
0000
0000
0000
0000
0020
0030
0000
0000
0000
0000
0000
0000
1000
0000
0000
0000
0000
0000
0000
0000
,
0100
1000
0010
0100
0001
0010
0100
1000
0000
0000
0000
0000
,
0000
0000
0000
0000
,
0000
0000
0000
0000
0000
0000
0000
0000
0000
0000
0000
0000
0000
0000
0000
0000
0000
0000
0000
0000
0000
0000
0000
0000
0000
0000
0000
0000
0000
0000
0000
0000
0220
0330
0000
0000
0000
0000
0000
0000
0000
0000
0000
0000
0000
0000
0000
0000
1001
0000
0000
0000
0000
0000
0000
0000
0001
0000
0000
0000
0000
0000
0000
0000
,
0010
0000
0100
0000
1000
0000
0001
1000
0000
0001
1000
0000
0010
0000
0100
0000
,
0001
0000
1000
0000
0100
0000
0010
0100
0000
0010
0100
0000
0100
0000
1000
0000
,
0010
0000
0100
0000
0001
0000
1000
0001
0000
1000
0001
0000
0010
0000
0100
0000
,
1000
0000
0010
0000
1000
0000
1000
0000
0001
0000
0001
1000
0001
0000
1000
0000
,
0010
0000
0100
0000
0001
0000
1000
0001
0000
1000
0001
0000
0010
0000
0100
0000
,
1000
0000
0001
0000
0100
0000
0010
0100
0000
0010
0100
0000
0001
0000
1000
0000
,
0100
0000
0010
0000
0001
0000
1000
0001
0000
1000
0001
0000
0012
0000
0000
0000
,
0203
0000
0000
0000
0320
0000
0000
0000
1030
0000
0000
0000
2001
0000
0000
0100
,
0000
0000
3001
0000
2000
0000
0000
0100
0000
0000
3001
1000
0002
0000
0000
0100
,
0000
0000
1003
0000
0002
0000
0000
0100
0000
0000
1003
0000
2001
0000
0000
0010
,
0000
0000
3001
0000
2000
0000
0000
0010
0000
0000
3001
1000
0002
0000
0000
0010
,
0000
0000
1003
0000
0010
0000
0100
0001
0000
0010
0000
0000
1002
0000
0000
0100
,
0000
0000
1003
0000
0002
0000
0000
0100
0000
0000
1003
0001
2000
0000
0000
0100
,
0000
0000
3001
0000
2000
0000
0000
0100
0000
0000
3001
0000
1002
0000
0000
0010
,
0000
0000
1003
0000
0002
0000
0000
0010
0000
0000
1003
0001
2000
0000
0000
0000
,
3020
0000
0000
0000
0230
0000
0000
0000
0301
0000
0000
0000
1001
0000
1000
0001
,
0000
0010
0000
0000
1001
0000
1000
0001
0000
0010
0000
0000
2001
0000
0000
0100
,
0000
0000
3001
0000
1001
0000
1000
0001
0000
0010
0000
0000
1001
0000
0001
1000
,
0000
0010
0000
0000
1001
0000
0001
1000
0000
0010
0000
0000
1002
0000
0000
0100
,
0000
0000
1003
0000
1001
0000
0001
1000
0000
0010
0000
0000
2001
0000
0000
3200
,
0000
1300
0010
0100
0001
0000
1001
0001
,
0010
0100
1000
0010
0110
0000
1001
0000
,
0100
0010
0110
0000
0001
1000
2002
0000
,
0000
0000
3003
0220
,
0000
0000
0000
0000
,
0000
0000
0000
0000
,
0000
0000
0000
0000
,
0000
0000
0330
2002
,
3003
2200
3300
2002
,
3003
0000
0101
0000
1001
0000
0011
0001
,
1000
0000
0010
0000
1000
0100
0000
1000
0000
0000
0001
0100
0000
0001
1000
0000
,
0100
0000
1000
0000
0020
0000
0000
2030
0000
0000
3001
0000
1001
0000
0000
1000
,
0000
0000
0010
0000
0110
0000
0000
0100
0000
0000
0001
0000
0011
0000
0000
0010
,
0000
0000
0100
0000
1100
0000
0000
1000
0000
0000
0010
0000
1010
0000
1000
0200
,
0000
0000
0310
0000
0011
0000
0001
0200
0000
0000
0310
0000
2002
0000
0000
0000
,
0000
0000
0000
0000
0000
3003
1001
1000
,
0100
0000
0010
0000
0001
1000
0000
0010
0000
0000
1000
0001
0000
1000
0001
0000
,
0100
0000
0001
0000
0020
0000
0000
0230
0000
0000
1300
0000
0001
0000
0100
0000
,
1000
0000
0100
0000
0001
0000
0010
0100
0000
0010
0100
0000
1000
0000
0010
0000
,
0001
0000
0010
0000
2000
0000
0000
3200
0000
0000
1300
0000
1001
0000
0001
0000
,
0100
0000
0010
0000
1000
0001
0000
0010
0000
0000
0001
1000
0000
0001
1000
0000
,
0100
0000
1000
0000
0020
0000
0000
0230
0000
0000
0301
0000
1000
0000
0100
0000
,
0001
0000
0100
0000
1000
0000
0010
0100
0000
0010
0100
0000
0001
0000
0010
0000
,
1000
0000
0010
0000
0002
0000
0000
0203
0000
0000
0301
1000
0001
0000
0000
0000
,
1000
0100
1000
0001
0100
0100
0010
0100
,
0100
1000
0100
0100
0010
0010
1000
0000
,
0001
0100
0001
1000
0100
0100
0010
0100
,
0100
0000
0001
0000
0100
0000
0100
0000
0010
0000
0001
1000
0001
0000
0000
0000
,
1000
0010
1000
0001
0010
0010
0100
0010
,
0010
1000
0010
0010
0100
0100
1000
0000
,
0001
0000
1000
0000
0010
0000
0001
0000
0010
0000
0010
0000
1000
0001
1000
0001
,
1000
0001
1000
0001
1000
0001
1000
0001
1000
0001
1000
0001
0010
0000
0000
0000
;

//--------------- dance-single - RaverAce ----------------
#NOTES:
     dance-single:
     RaverAce:
     Challenge:
     16:
     0,0,0,0,0:
0000
0000
0000
0000
,
0000
0000
0000
0000
,
0000
0000
0000
0000
,
0000
0000
0000
0000
,
0000
0000
0000
0000
,
1001
0000
1100
1100
1001
0000
0101
0101
,
1001
0000
1010
1010
1001
0000
0011
0011
,
1001
1000
0010
0010
0100
0100
0001
0002
,
2000
0000
0000
3003
,
1001
0000
1000
0100
1000
0000
0001
1000
0001
0000
0100
0001
0100
0000
0001
1000
,
0001
0000
0010
0001
0010
0000
0001
1000
0001
0000
1000
0010
1000
0000
0010
0100
,
0010
0000
0100
0001
0100
0000
0001
1000
0001
0000
0010
0001
0010
0000
0100
0010
,
0100
0000
1000
0100
1000
0000
0010
1000
0010
0000
0100
0010
0100
0000
0001
1000
,
0001
0010
1000
0010
0001
0010
1000
0010
,
0001
0100
1000
0100
0001
0100
1000
0100
,
0001
0010
0001
0010
0100
1000
0100
1000
0010
0100
0001
1000
0100
0010
0001
1000
,
0010
0000
0000
0000
,
0000
0000
0000
0000
,
1100
0000
0110
0000
0110
0000
0010
0001
0000
0001
1000
0000
0010
0000
0000
0000
,
0101
0000
0110
0000
0110
0000
0010
1000
0000
1000
0001
0000
0010
0000
0001
0000
,
1000
0100
0010
0001
1000
0010
0100
0001
0000
0000
0000
0000
,
0000
0000
0000
0000
,
0000
0000
0000
0000
0000
0000
0000
0000
0000
0000
0000
0000
0000
0000
0000
0000
0000
0000
0000
0000
0000
0000
0000
0000
0000
0000
0000
0000
0000
0000
0000
0000
0220
0330
0000
0000
0000
0000
0000
0000
0000
0000
0000
0000
0000
0000
0000
0000
1001
0000
0000
0000
0000
0000
0000
0000
1000
0000
0000
0000
0100
0000
0000
0000
,
1000
0000
0001
0100
0001
0000
1000
0010
0000
0100
0001
0000
1000
0000
0100
1000
,
0100
0000
0010
0001
0010
0000
0001
0000
1000
0000
1000
0000
0010
0000
0100
0001
,
0100
0000
0001
0010
0001
0000
1000
0100
0000
1000
0010
0000
1000
0000
0001
0100
,
0001
0000
1000
0100
1000
0000
1000
0000
0001
0000
1000
0001
1000
0000
0001
0100
,
0001
0000
1000
0100
1000
0000
0001
0010
0000
0100
1000
0000
0001
0000
0100
0001
,
0100
0000
0010
1000
0010
0000
1000
0100
0000
1000
0001
0000
0010
0000
0100
1000
,
0100
0000
1000
0010
1000
0000
0001
0100
0000
0001
0010
0000
0210
0000
0000
0000
,
2300
0000
0000
0000
3020
0000
0000
0000
0130
0000
0000
0000
1002
0000
0000
0100
,
0000
0000
1003
0000
0002
0000
0000
0100
0000
0000
1003
0100
0020
0000
0000
0100
,
0000
0000
0031
0000
0020
0000
0000
0100
0000
0000
0031
0000
1002
0000
0000
0010
,
0000
0000
1003
0000
0002
0000
0000
0010
0000
0000
1003
0001
0200
0000
0000
0010
,
0000
0000
0301
0000
0010
0000
0100
1000
0000
0010
0000
0000
2001
0000
0000
0100
,
0000
0000
3001
0000
2000
0000
0000
0100
0000
0000
3001
1000
0020
0000
0000
0100
,
0000
0000
1030
0000
0020
0000
0000
0100
0000
0000
1030
0000
2001
0000
0000
0010
,
0000
0000
3001
0000
2000
0000
0000
0010
0000
0000
3001
1000
0100
0000
0010
0100
,
0010
0000
0100
1000
0100
0000
1000
0001
1000
0001
1000
0000
1001
0000
0001
0100
,
0000
0010
0000
0000
1001
0000
0001
0100
0000
0010
0000
0000
1002
0000
0000
0100
,
0000
0000
1003
0000
1001
0000
0001
0010
0000
0010
0001
0000
1001
0000
1000
0100
,
0000
0010
0000
0000
1001
0000
1000
0100
0000
0010
0000
0000
2001
0000
0000
0100
,
0000
0000
3001
0000
1001
0000
1000
0100
0000
0010
0000
0000
1002
0000
0000
0203
,
0000
1300
0001
0010
1000
0000
1100
0100
,
0001
1000
0010
0001
0101
0000
1010
1000
,
0100
0010
0011
0001
0100
0010
0220
0000
,
0000
0000
0330
2002
,
0000
0000
0000
0000
,
0000
0000
0000
0000
,
0000
0000
0000
0000
,
0000
0000
3003
2200
,
3300
0022
0033
0202
,
0303
0000
1010
0000
1001
0000
0101
0001
,
1000
0000
0100
0000
1000
0010
0000
1000
0000
0000
1000
0001
0000
0100
0001
0000
,
0010
0000
0001
0000
1001
0000
0000
1010
0000
0000
1001
0000
1100
0000
0000
0110
,
0000
0000
0011
0000
1001
0000
0000
0101
0000
0000
0110
0000
1010
0000
0000
1001
,
0000
0000
1100
0000
0110
0000
0000
0011
0000
0000
1001
0000
0101
0000
0100
0010
,
0000
0000
1001
0000
1100
0000
0100
0010
0000
0000
1001
0000
0220
0000
0000
0000
,
0000
0000
0000
0000
0330
0000
1001
1000
,
0100
0000
0001
0000
0100
0010
0000
0100
0000
1000
0010
1000
0000
0001
0100
0000
,
0001
0000
0010
0000
0002
0000
0000
0203
0000
0000
2300
0000
3001
0000
0010
0000
,
1000
0010
0100
0000
0001
0000
0010
0100
0000
1000
0001
0100
0010
1000
0010
0000
,
0100
0001
0100
0000
0101
0000
0000
0011
0000
0000
1100
0000
1001
0000
0001
0000
,
0100
0000
1000
0000
0100
0010
0000
0100
0000
0001
0010
0001
0000
1000
0100
0000
,
1000
0000
0010
0000
2000
0000
0000
3200
0000
0000
0302
0000
1003
0000
0010
0000
,
0001
0010
0100
0000
1000
0000
0010
0100
0000
0001
1000
0100
0010
0001
0010
0000
,
0100
1000
0100
0000
1100
0000
0000
1010
0000
0000
1000
0001
1000
0000
0100
0000
,
0001
0000
0100
0000
0010
0001
1000
0000
0010
0000
0100
0001
1000
0000
0100
0000
,
0010
0001
1000
0000
0010
0000
0100
0001
1000
0000
1000
0000
0001
0000
0100
0000
,
1000
0000
0100
0000
0010
1000
0001
0000
0010
0000
0100
1000
0001
0000
0100
0000
,
0010
1000
0001
0000
0010
0000
0010
0000
0100
0000
0010
0001
1000
0000
0010
0000
,
0001
0000
0010
0000
0100
0001
1000
0000
0100
0000
0010
0001
1000
0000
0010
0000
,
0100
0001
1000
0000
0100
0000
0010
0001
1000
0000
0001
0000
0010
0000
1000
0000
,
0010
0000
0100
0000
1000
0010
0100
0000
0001
0000
0010
0100
1000
0010
1000
0010
,
0100
0001
0100
0001
0010
0100
1000
0001
0100
0010
1000
0001
0010
0000
0000
0000
;
