#VERSION:0.83;
#TITLE:Shake & Shake;
#SUBTITLE:;
#ARTIST:sumika;
#TITLETRANSLIT:;
#SUBTITLETRANSLIT:;
#ARTISTTRANSLIT:;
#GENRE:;
#ORIGIN:;
#CREDIT:;
#BANNER:;
#BACKGROUND:;
#PREVIEWVID:;
#JACKET:;
#CDIMAGE:;
#DISCIMAGE:;
#LYRICSPATH:;
#CDTITLE:;
#MUSIC:Shake & Shake.ogg;
#OFFSET:0.506000;
#SAMPLESTART:53.600315;
#SAMPLELENGTH:12.000000;
#SELECTABLE:YES;
#BPMS:0.000=111.000;
#STOPS:;
#DELAYS:;
#WARPS:;
#TIMESIGNATURES:0.000=4=4;
#TICKCOUNTS:0.000=4;
#COMBOS:0.000=1;
#SPEEDS:0.000=1.000=0.000=0;
#SCROLLS:0.000=1.000;
#FAKES:;
#LABELS:0.000=Song Start;
#BGCHANGES:0.800=Shake & Shake.avi=1.000=1=0=0=StretchNoLoop==CrossFade==,
99999=-nosongbg-=1.000=0=0=0 // don't automatically add -songbackground-
;
#KEYSOUNDS:;
#ATTACKS:
;

//---------------dance-single - XO+ DS-----------------
#NOTEDATA:;
#CHARTNAME:;
#STEPSTYPE:dance-single;
#DESCRIPTION:XO+ DS-;
#CHARTSTYLE:;
#DIFFICULTY:Challenge;
#METER:14;
#RADARVALUES:0.614525,0.687767,0.233424,0.500195,0.716946,387.000000,366.000000,21.000000,45.000000,2.000000,0.000000,2.000000,0.000000,0.000000,0.614525,0.687767,0.233424,0.500195,0.716946,387.000000,366.000000,21.000000,45.000000,2.000000,0.000000,2.000000,0.000000,0.000000;
#CREDIT:Kingly;
#NOTES:
0000
0000
0000
0000
,
0000
0000
0000
0000
,
0000
0000
0000
0000
,
1020
0030
0201
0000
1300
0100
0010
1000
,
0002
0000
0000
0000
0000
1003
0200
0000
0000
0000
0000
0310
0002
0000
0000
0000
0000
0000
1003
0000
0100
0001
0000
0200
,
0000
0000
0000
0310
0000
0000
0001
0000
0010
1000
0000
0020
0000
0000
0000
0130
0000
0000
1000
0000
0100
0001
0000
0200
,
0000
0000
0000
0310
0000
0000
0001
0000
0000
1000
0000
0010
1000
0000
0000
0100
0000
0000
0220
0000
0330
0000
0000
0000
,
0021
0030
1200
0000
0301
0100
0010
0001
,
2000
0000
0000
0000
0000
3001
0200
0000
0000
0000
0000
0310
2000
0000
0000
0000
0000
0000
3001
0000
0100
1000
0000
0200
,
0000
0000
0000
0310
0000
0000
1000
0000
0010
0001
0000
0020
0000
0000
0000
0130
0000
0000
0001
0000
0100
1000
0000
0200
,
0000
0000
0000
0310
0000
0000
1000
0000
0000
0001
0000
0010
0000
0000
1100
0000
0000
0102
0000
0000
0000
1003
0000
0000
,
0100
0010
0100
1000
0001
0100
0010
1000
,
0100
0010
0100
0001
1000
0010
0002
0000
,
1003
0010
0100
0001
0010
0001
1000
0010
,
0100
0000
0000
0001
0000
0000
1000
0000
0000
0100
0000
0000
1000
0000
0000
0001
0100
0001
0100
0000
0000
0010
1000
0010
,
1000
0000
0000
0100
0000
0000
0010
0000
0001
0010
0000
0000
0100
0000
1000
0100
0000
0000
1000
0000
0010
1000
0000
0000
,
0001
0010
0100
0001
1000
0010
0001
1000
,
2001
0000
3100
0010
0011
1000
0010
0100
,
0101
0000
0000
1000
0100
1000
0100
0000
0000
0010
0001
0010
0001
0000
0000
1000
0010
1000
0010
0000
0000
0100
0001
0100
,
0001
0000
1000
0100
0000
1000
0000
0000
0001
0010
0000
0001
0000
0000
1000
0010
0000
1000
0000
0000
0001
0100
0000
0000
,
0010
0000
0100
0000
0000
0010
0100
0000
0000
0010
0000
0100
0000
0000
0000
0000
0000
0000
0440
0000
0330
0000
0000
2001
,
0000
0000
3100
0010
0000
0100
0001
0000
0000
0001
0000
0100
0010
0000
0100
2000
0000
0000
0000
0000
0010
0000
0000
3020
,
0000
0000
0000
0130
0000
0000
0001
0000
0000
1000
0000
0100
1000
0000
0000
0010
0000
0100
0000
0000
0001
0000
0000
1002
,
0000
0000
0103
0010
0000
0100
1000
0000
0000
1000
0000
0100
0010
0000
0100
0002
0000
0000
0000
0000
0010
0000
0000
0023
,
0000
0000
0000
0130
0000
0000
1000
0000
0000
0001
0000
0000
0100
0000
0000
0001
0000
0010
0100
0000
0000
1000
0001
1000
,
0001
0000
0100
1000
0000
0100
0001
0000
0000
1000
0000
0100
0001
0000
0100
1000
0000
0000
0100
0000
0000
0010
0000
0000
,
0001
0000
0010
1000
0000
0010
0001
0000
0000
1000
0000
0010
0001
0000
0010
1000
0000
0000
0020
0000
0100
0000
0000
0230
,
0000
0000
0000
0301
0000
0000
1000
0000
0000
0100
0000
0000
0010
0000
0000
0001
0000
1000
0000
0000
0100
0000
0000
0120
,
0000
0000
0000
0031
0000
0000
1000
0000
0000
0010
0000
0000
0100
0000
0000
0010
0000
1000
0000
0000
0001
0000
0000
1002
,
0000
0000
0103
0010
0000
0200
1000
0000
0000
M301
0000
0100
0010
0000
0200
1000
0000
0000
0000
0000
0010
0000
0000
0320
,
0000
0000
0000
1030
0000
0000
0100
0000
0000
0010
0000
0001
0010
0000
0000
0100
0000
1000
0000
0000
0001
0000
0000
2001
,
0000
0000
3100
0010
0000
0200
0001
0000
0000
130M
0000
0100
0010
0000
0200
0001
0000
0000
0000
0000
0010
0000
0000
0320
,
0000
0000
0000
0031
0000
0000
1000
0000
0000
0010
0000
0000
0100
0000
0000
0001
0000
0010
0200
0000
0000
1300
0001
1000
,
0001
0000
0100
1000
0000
0100
0010
0000
0000
1000
0000
0010
0001
0000
0010
0100
0000
0000
0001
0000
0000
1000
0000
0000
,
0001
0000
0010
1000
0000
0010
0100
0000
0000
1000
0000
0100
0001
0000
0100
0010
0000
0000
0001
0000
0100
0000
0000
0200
,
0000
0000
0000
0310
0000
0000
1000
0000
0000
0001
0000
0100
0001
0000
0000
1000
0000
0100
0000
0000
0010
0000
0000
0012
,
0000
0000
0000
0103
0000
0000
0001
0000
0000
1000
0000
0100
1000
0000
0000
0001
0000
0100
0000
0000
0010
0000
0000
2010
,
0000
0000
0000
0000
0000
0000
3001
0000
0000
0010
0000
0000
0100
0000
0000
1000
0000
0000
0010
0000
0100
0001
0000
0000
,
1000
0000
0000
0100
0000
0000
0010
0000
0000
0100
0000
0000
0002
0000
0000
0000
0000
0000
0103
0000
0010
0001
0000
0000
,
1000
0000
0000
0001
0100
0001
0100
0000
0000
0010
1000
0010
1000
0000
0000
0100
0000
0000
1000
0000
0000
0001
0000
0000
,
0100
0000
1000
0100
0000
0001
0100
0000
1000
0100
0000
0001
1000
0000
0000
1100
0000
0000
0000
0000
0011
0000
0000
0000
,
2002
3003
0000
0000
;

//---------------dance-single - ----------------
#NOTEDATA:;
#CHARTNAME:;
#STEPSTYPE:dance-single;
#DESCRIPTION:;
#CHARTSTYLE:;
#DIFFICULTY:Hard;
#METER:10;
#RADARVALUES:0.458909,0.504363,0.133385,0.400156,0.183405,289.000000,277.000000,12.000000,36.000000,0.000000,0.000000,2.000000,0.000000,0.000000,0.458909,0.504363,0.133385,0.400156,0.183405,289.000000,277.000000,12.000000,36.000000,0.000000,0.000000,2.000000,0.000000,0.000000;
#CREDIT:Kingly;
#NOTES:
// measure 0
0000
0000
0000
0000
,  // measure 1
0000
0000
0000
0000
,  // measure 2
0000
0000
0000
0000
,  // measure 3
2100
3000
0102
0000
0103
1000
0100
0010
,  // measure 4
2000
0000
3002
0000
0023
0000
0130
0001
,  // measure 5
0100
1000
0100
0001
0100
1000
0100
0001
,  // measure 6
0100
0010
0001
1000
0010
1000
1020
0030
,  // measure 7
0102
0003
2100
0000
3100
0001
0100
0010
,  // measure 8
0002
0000
2003
0000
3020
0000
0130
1000
,  // measure 9
0100
0001
0100
1000
0100
0001
0100
1000
,  // measure 10
0100
0000
0000
0010
0000
0000
1000
0000
0000
0001
0000
0010
0000
0000
0100
0000
0000
2000
0000
0000
0000
0000
0000
0000
,  // measure 11
3001
0001
0100
0010
1000
1000
0001
0010
,  // measure 12
0100
0100
1000
0100
0001
0100
2000
0000
,  // measure 13
3010
0010
0100
0001
1000
1000
0100
0010
,  // measure 14
0001
0001
0100
0100
0010
0010
0020
0000
,  // measure 15
1030
1000
0100
0010
0001
0001
1000
0010
,  // measure 16
0100
0100
0001
0100
1000
0100
0001
0001
,  // measure 17
2000
0000
3100
0001
1000
0010
0001
1000
,  // measure 18
0010
0010
0100
0100
0001
0010
0001
1000
,  // measure 19
0010
0000
0000
0100
0000
0001
0000
0000
0000
0100
0000
0001
0000
0000
0000
1000
0000
0100
0000
0000
0000
0010
0000
0000
,  // measure 20
0001
0000
1000
0000
0000
0001
1000
0000
0000
0001
0000
1000
0000
0000
0000
0000
0000
0000
0440
0000
0000
0330
0000
0000
,  // measure 21
0001
0000
0000
0100
0000
0000
1000
0000
0000
0001
0000
0000
0010
0000
0000
2000
0000
0000
0000
0000
0001
0000
0000
3002
,  // measure 22
0000
0013
0100
1000
0010
0100
0001
0001
,  // measure 23
1000
0000
0000
0100
0000
0000
0001
0000
0000
1000
0000
0000
0010
0000
0000
0002
0000
0000
0000
0000
1000
0000
0000
2003
,  // measure 24
0000
3010
0100
0001
0100
1000
0200
0000
,  // measure 25
0310
0001
0010
0100
1000
0100
0001
1000
,  // measure 26
0100
0000
0000
0001
0000
0000
0100
0000
0000
0010
0000
0000
1000
0000
0000
0010
0000
0000
0002
0000
0100
0000
0000
0203
,  // measure 27
0000
0000
0000
0310
0000
0000
1000
0000
0000
1000
0000
0000
0001
0000
0000
0100
0000
0010
0000
0000
1000
0000
0200
0000
,  // measure 28
0000
0000
0000
0310
0000
0000
0001
0000
0000
0001
0000
0000
1000
0000
0000
0100
0000
0010
0000
0000
0001
0000
0000
0000
,  // measure 29
1000
0000
0000
0100
0000
0000
0001
0000
0000
1000
0000
0000
0100
0000
0000
0002
0000
0000
0000
0000
1000
0000
0000
2003
,  // measure 30
0000
3010
0100
0001
0010
0100
1000
1000
,  // measure 31
0001
0000
0000
0100
0000
0000
1000
0000
0000
0001
0000
0000
0100
0000
0000
2000
0000
0000
0000
0000
0001
0000
0000
3002
,  // measure 32
0000
0013
0100
1000
0100
0001
0200
0000
,  // measure 33
1300
0010
0001
0100
1000
0020
0000
0000
,  // measure 34
1030
0000
0000
0100
0000
0000
0001
0000
0000
0010
0000
0000
1000
0000
0000
0200
0000
0000
0000
0000
0010
0000
0000
0320
,  // measure 35
0000
0000
0000
0031
0000
0000
1000
0000
0000
1000
0000
0000
0010
0000
0000
0100
0000
0001
0000
0000
1000
0000
0000
0020
,  // measure 36
0000
0000
0000
1030
0000
0000
0001
0000
0000
0001
0000
0000
0010
0000
0000
0100
0000
1000
0000
0000
0001
0000
0000
0200
,  // measure 37
0000
0000
0310
1000
0010
0001
1000
0100
,  // measure 38
0001
0010
1000
0001
0200
0000
0310
0001
,  // measure 39
0011
1000
1100
0001
0101
1000
0010
0100
,  // measure 40
0001
0000
0000
0001
0000
0000
0001
0000
0000
0001
0000
0000
0001
0000
0000
0101
0000
0000
0000
0000
1010
0000
0000
0000
,  // measure 41
2002
3003
0000
0000
;
