#TITLE:Shadow World;
#SUBTITLE:;
#ARTIST:BEMANI Sound Team "HuΣeR x 猫叉Master" feat.Emi Evans;
#TITLETRANSLIT:;
#SUBTITLETRANSLIT:;
#ARTISTTRANSLIT:;
#GENRE:;
#CREDIT:;
#MUSIC:Shadow World.ogg;
#BANNER:Shadow World.png;
#BACKGROUND:Shadow World-bg.png;
#CDTITLE:;
#SAMPLESTART:68.667;
#SAMPLELENGTH:15.000;
#SELECTABLE:YES;
#OFFSET:0.498;
#BPMS:0.000=180.000;
#STOPS:135.750=2.000;
#BGCHANGES:0.000=Shadow World.mp4=1.000=0=0=0=StretchNoLoop====,
99999.000=-nosongbg-=1.000=0=0=0=StretchNoLoop====
;
#FGCHANGES:;

//--------------- dance-single - Princess Pamela ----------------
#NOTES:
     dance-single:
     Princess Pamela:
     Beginner:
     3:
     0,0,0,0,0:
0000
0000
0000
0000
,
0000
0000
0000
0000
,
0000
0000
0000
0000
,
0000
0000
0000
0000
,
0000
0000
0000
0000
,
0000
0000
0000
0000
,
0000
0000
0000
0000
,
0000
0000
0000
0000
,
0000
0000
0000
0000
,
0000
0000
0000
0000
,
1000
0000
0000
0000
,
0001
0000
0000
0000
,
0100
0000
0000
0000
,
0000
0000
0000
0000
,
0001
0000
0000
0000
,
1000
0000
0000
0000
,
0100
0000
0000
0000
,
0000
0000
0000
0000
,
1000
0000
0000
0000
,
0001
0000
0000
0000
,
0010
0000
0000
0000
,
0000
0000
0000
0000
,
0100
0000
0000
0000
,
1000
0000
0000
0000
,
0010
0000
0000
0000
,
0000
0000
0000
0000
,
1001
0000
0000
0000
,
0000
0000
0000
0000
,
0001
0000
0000
0000
,
0001
0000
0000
0000
,
0100
0000
0000
0000
,
0000
0000
0000
0000
,
0010
0000
0000
0000
,
1000
0000
0000
0000
,
0000
0000
1001
0000
,
0000
0000
0000
0000
,
0000
0000
1000
0000
,
0000
0000
0100
0000
,
0000
0000
1001
0000
,
0000
0000
0000
0000
,
0000
0000
0001
0000
,
0000
0000
0100
0000
,
0000
0000
1001
0000
,
0000
0000
0000
0000
,
0000
0000
1000
0000
,
0000
0000
0010
0000
,
0000
0000
1001
0000
,
0000
0000
0000
0000
,
0000
0000
0001
0000
,
0000
0000
0010
0000
,
0000
0000
1001
0000
,
0000
0000
1000
0000
,
0000
0000
0100
0000
,
0000
0000
1000
0000
,
0000
0000
0010
0000
,
0000
0000
0100
0000
,
0000
0000
0001
0000
,
0000
0000
0010
0000
,
0000
0000
0001
0000
,
0000
0000
0100
0000
,
0000
0000
0001
0000
,
0000
0000
1000
0000
,
0000
0000
0100
0000
,
0000
0000
1000
0000
,
0000
0000
0010
0000
,
0000
0000
0100
0000
,
0000
0000
0001
0000
,
0000
0000
0000
0000
,
0000
0000
1000
0000
,
1000
0000
1000
0000
,
0001
0000
1000
0000
,
0000
0000
0000
0000
,
0000
0000
0001
0000
,
0001
0000
0001
0000
,
1000
0000
0001
0000
,
0000
0000
0000
0000
,
0000
0000
0100
0000
,
0100
0000
0100
0000
,
0010
0000
0100
0000
,
0000
0000
0001
0000
,
0000
0000
0010
0000
,
0000
0000
0001
0000
,
1000
0000
0001
0000
,
0000
0000
0010
0000
,
0000
0000
1001
0000
,
1000
0000
1000
0000
,
0100
0000
2000
0000
,
3000
0000
0002
0000
,
0003
0000
0200
0000
,
0300
0000
0020
0000
,
0000
0000
0030
0000
;

//--------------- dance-single - Princess Pamela ----------------
#NOTES:
     dance-single:
     Princess Pamela:
     Easy:
     7:
     0,0,0,0,0:
0000
0000
0000
0000
,
0000
0000
0000
0000
,
0000
0000
0000
0000
,
0000
0000
0000
0000
,
0000
0000
0000
0000
,
0000
0000
0000
0000
,
0000
0000
0000
0000
,
0000
0000
0000
0000
,
0000
0000
0000
0000
,
0000
0000
0000
0000
,
2000
0000
0001
0000
,
0002
0000
3003
0000
,
1000
0000
0100
0000
,
0010
0000
0001
0000
,
0002
0000
1000
0000
,
2000
0000
3003
0000
,
0001
0000
0100
0000
,
0020
0000
0030
0000
,
2000
0000
0001
0000
,
0002
0000
3003
0000
,
1000
0000
0010
0000
,
0100
0000
0001
0000
,
0020
0000
0130
0000
,
0020
0000
0031
0000
,
2002
0000
0000
0000
,
3003
0000
0000
0000
,
1000
0000
0010
0000
,
1000
0010
1000
0000
,
0001
0000
0100
0000
,
0001
0100
0001
0000
,
1000
0000
0100
0000
,
1000
0100
1000
0000
,
0001
0000
0010
0000
,
0001
0010
0001
1000
,
0000
0000
1001
0000
,
1000
0000
0001
0001
,
0000
0000
1001
0000
,
0001
0000
1000
0100
,
1000
0000
1001
0000
,
1000
0000
0001
0001
,
0000
0000
1001
0000
,
0001
0000
0100
0001
,
0100
0000
1001
0000
,
1000
1000
0010
0000
,
1000
0000
1001
0000
,
0001
0001
0010
0000
,
0001
0000
1001
0000
,
1000
1000
0100
0000
,
1000
0000
0001
0001
,
0100
0001
2000
0000
,
3020
0000
1030
0001
,
1000
0010
0000
0100
,
0001
0000
0010
0100
,
0010
0001
0000
1000
,
0100
0000
1000
0010
,
0100
0001
0000
0010
,
0001
0000
0100
0010
,
1000
0100
0000
1000
,
0001
0000
0100
0001
,
0100
0010
0000
1000
,
0001
0000
0010
0100
,
1000
0100
0000
0010
,
0001
0000
0100
0001
,
0100
0000
0010
1000
,
0010
0000
0100
0001
,
0010
0100
1000
0001
,
1000
0000
1001
0000
,
0001
0100
0002
0000
,
2003
0000
3001
0010
,
0100
1000
0100
0010
,
0001
0000
1001
0000
,
1000
0100
2000
0000
,
3002
0000
1003
0010
,
0100
0001
0100
0010
,
1000
0000
1001
0000
,
0001
0010
0002
0000
,
2003
0000
3100
1000
,
0010
0100
0001
0010
,
0100
0000
1001
0000
,
1000
0200
0000
1300
,
0020
0030
1001
0000
,
0001
0100
0001
0010
,
0100
0000
1001
0000
,
1000
0020
0000
1030
,
0200
0300
0110
0000
,
0010
0010
0001
0100
,
0010
1000
0200
0000
,
0000
0000
0320
0000
,
0000
0000
0032
0000
,
0000
0000
2003
0000
,
0000
0000
3000
0000
;

//--------------- dance-single - Princess Pamela ----------------
#NOTES:
     dance-single:
     Princess Pamela:
     Medium:
     11:
     0,0,0,0,0:
0000
0000
0000
0000
,
0000
0000
0000
0000
,
0000
0000
0000
0000
,
0000
0000
0000
0000
,
0000
0000
0000
0000
,
0000
0000
0000
0000
,
0000
0000
0000
0000
,
0000
0000
0000
0000
,
0000
0000
0000
0000
,
0000
0000
0000
0000
,
0002
0000
1003
0000
,
2002
0000
3003
0000
,
1000
0000
0100
1000
0000
1000
0000
0010
,
0000
0100
0000
0001
0000
0000
0000
0000
,
2000
0000
3001
0000
,
2002
0000
3003
0000
,
0001
0000
0100
0001
0000
0010
0000
0200
,
0000
0000
0300
0000
,
0002
0000
1003
0000
,
2002
0000
3003
0000
,
1000
0000
0010
0100
0000
0100
0000
0001
,
0000
0010
0000
0100
0000
0000
1000
0000
,
0002
0000
0103
0000
,
0020
0000
1030
0000
,
2002
0000
0000
0000
,
3003
1000
0100
0010
,
0001
1000
0001
0000
0100
0001
0100
0000
,
0001
1000
0001
0000
0100
0000
0000
0000
,
0010
1000
0010
0000
1000
0001
1000
0000
,
0010
1000
0010
0000
0100
0000
0000
0000
,
0001
0010
0001
0000
0010
0100
0010
0000
,
0001
0010
0001
0000
1000
0000
0000
0000
,
0100
1000
0100
0000
0010
0100
0010
0000
,
0100
1000
0100
1000
0001
0100
0010
1000
,
0000
0000
0000
0000
0001
0001
1000
0001
,
1000
0000
0010
1000
0001
0100
0020
0000
,
0030
0000
0000
0000
1000
1000
0001
1000
,
0001
0000
0010
0100
2000
0000
3001
0010
,
0000
0010
0000
0000
0001
0001
1000
0001
,
1000
0000
0010
0100
0001
1000
0010
0000
,
0000
0000
0000
0000
1000
1000
0001
1000
,
0001
0000
0010
0100
1000
0000
0001
0200
,
0000
0000
0300
0000
0010
0010
1000
0010
,
0100
0000
0001
1000
0010
1000
0001
0000
,
0100
0000
0100
0000
0001
0001
0010
0001
,
1000
0000
0100
1000
0002
0000
0103
0010
,
0000
0010
0000
0000
1000
1000
0001
0010
,
0001
0000
1000
0100
0010
0100
1000
0000
,
0001
0000
0001
0000
1001
0000
1000
0010
,
0200
0000
0301
0000
1000
0001
1000
0001
,
0010
0100
0000
0110
0000
0010
0001
1000
,
0000
0010
1000
0001
0000
0100
0010
1000
,
0100
1000
0001
0100
0000
0010
1000
0001
,
0000
0010
0001
1000
0000
0100
0010
0001
,
0100
0001
0010
0100
0000
0010
0001
1000
,
0000
0010
1000
0001
0000
0100
0010
1000
,
0100
0010
0001
0100
0000
0010
1000
0001
,
0100
0010
0100
0001
0000
0010
0001
0100
,
0010
1000
0100
1000
0000
0100
1000
0001
,
0000
0100
0001
1000
0000
0100
0010
0001
,
0010
0100
1000
0001
0000
0100
0001
1000
,
0000
0100
1000
0001
0000
0100
0010
1000
,
0010
0100
0001
0010
0000
0100
1000
0010
,
0000
0100
0001
1000
0000
0100
0010
0001
,
0100
0010
1000
0001
0000
0010
0100
1000
,
0000
0010
0100
0001
1000
0000
1001
0000
,
0001
0010
0200
0000
0310
0000
0010
0001
,
0010
0100
0010
0000
0012
0000
0103
0000
,
2010
0000
3100
0000
1001
0000
1000
0010
,
0100
0010
1000
0000
0100
0000
0010
0001
,
0000
0100
0000
0010
1000
0000
1000
0001
,
0100
0001
1000
0000
2100
0000
3010
0000
,
0102
0000
0013
0000
1001
0000
0001
0010
,
0100
0010
0001
0000
1000
0000
0010
0100
,
0001
1000
0010
0000
1001
0000
1000
0100
,
0010
0100
1000
0000
1002
0000
0013
0000
,
2001
0000
3010
0000
0110
0000
0100
0001
,
1000
0001
0100
0000
0010
0010
1000
0010
,
0100
0001
1000
0000
1001
0000
0001
0020
,
0000
0130
2000
0000
3001
0100
0010
1000
,
0100
0010
0001
0000
1001
0000
1000
0020
,
0000
0130
0002
0000
0013
0100
1000
0010
,
0100
0001
0010
0000
1001
0000
1000
0200
,
0000
0310
0002
0000
0103
0010
1000
0001
,
0010
0100
1000
0000
1001
0000
0001
1000
,
0001
1000
0010
0000
0100
0001
0010
0100
,
1000
0010
0100
0001
2000
0000
0000
0000
,
0000
0000
3200
0000
,
0000
0000
0320
0000
,
0000
0000
0032
0000
,
0000
0000
0003
0000
;

//--------------- dance-single - Princess Pamela ----------------
#NOTES:
     dance-single:
     Princess Pamela:
     Hard:
     15:
     0,0,0,0,0:
0000
0000
0000
0000
,
0000
0000
0000
0000
,
0000
0000
0000
0000
,
0000
0000
0000
0000
,
0000
0000
0000
0000
,
0000
0000
0000
0000
,
0000
0000
0000
0000
,
0000
0000
0000
0000
,
0000
0000
0000
0000
,
0000
0000
0000
0000
,
2020
0030
0200
3300
,
2002
0000
0000
3003
0000
0010
0001
0010
,
0001
0000
0100
0001
0000
0100
0000
0010
,
0000
1000
0000
0200
0000
0000
0300
0000
,
0022
0030
0200
0303
,
2002
0000
0000
3003
0000
0010
1000
0010
,
1000
0000
0100
1000
0000
0001
0000
0020
,
0000
0000
0030
0000
,
2200
0300
0020
3030
,
2002
0000
0000
3003
0000
0100
0001
0100
,
0001
0000
0010
0001
0000
0100
0000
0010
,
0000
1000
0000
0200
0000
0000
0310
0000
,
2002
3000
0103
0000
,
2020
0030
3100
0000
,
2002
0000
0000
0000
,
3003
0002
0023
0230
,
1300
0001
0100
0001
1000
0001
0100
0000
,
0010
1000
0100
0000
0010
0001
0100
0000
,
0001
1000
0100
1000
0001
1000
0100
0000
,
0010
0001
0100
0000
0010
1000
0100
0000
,
0010
0001
1000
0001
0010
0001
1000
0000
,
0010
0100
0001
0000
0010
0100
1000
0000
,
0010
1000
0001
1000
0010
1000
0001
0000
,
0010
0000
0100
0000
1000
0000
0100
0000
0010
0001
0010
0000
0001
1000
0001
1000
,
0000
0000
0000
0000
1001
0001
1000
0001
,
0200
0000
0301
1000
0010
0100
0002
0000
,
1003
1000
1000
0000
1001
1000
0001
1000
,
0200
0000
1300
0001
0020
0000
0130
2000
,
0000
3010
0000
0000
1001
1000
0001
1000
,
0020
0000
1030
0001
0100
0010
2000
0000
,
3001
0001
0001
0000
1001
0001
1000
0001
,
0020
0000
0031
1000
0200
0000
0310
0002
,
0000
0000
0000
0000
0003
0000
0000
0000
1000
0001
1000
0000
0001
0000
1000
0000
,
0010
1000
0010
0000
1000
0000
0001
0000
0100
0000
0010
0000
0100
0000
0000
0000
,
0001
0000
1000
0000
1001
0000
0000
0000
0001
1000
0001
0000
1000
0000
0001
0000
,
0010
0001
0010
0000
0001
0000
1000
0000
0200
0000
0000
0000
0310
0000
0002
0000
,
0000
0000
0103
0000
0000
0000
0000
0000
0001
1000
0001
0000
1000
0000
0001
0000
,
0100
0001
0100
0000
0001
0000
1000
0000
0010
0000
0100
0000
0010
0000
0000
0000
,
1000
0000
0001
0000
1001
0000
0000
0000
1000
0001
1000
0000
0001
0000
1000
0000
,
0100
1000
0100
0000
1000
0000
0001
0000
0200
0000
0000
0300
0001
1000
0001
1000
,
0001
0000
0010
0000
0100
0000
0110
0000
0000
0000
0010
0000
0001
0000
0100
0001
,
0100
0000
0010
0100
0010
0000
1000
0000
0000
0000
0010
0000
0100
0000
0001
0000
,
0010
0000
0100
0000
1000
0000
1001
0000
0000
0000
0001
0000
1000
0000
0010
1000
,
0010
0000
0100
0010
0100
0000
0001
0000
0000
0000
0010
0000
0100
0000
1000
0000
,
0010
0000
0100
0000
0001
0000
1001
0000
0000
0000
1000
0000
0100
0000
1000
0001
,
1000
0000
0001
0100
0001
0000
0100
0000
0000
0000
0010
0000
1000
0000
0100
0000
,
0010
0000
0001
0000
1000
0000
1001
0000
0000
0000
0001
0000
0100
0000
0001
1000
,
0100
0000
1000
0100
1000
0000
0001
0000
0000
0000
0010
0000
0001
0000
0100
0000
,
0010
0000
1000
0000
0001
0000
1001
0000
0000
0000
1000
0001
1000
0000
0001
1000
,
0100
1000
0001
0000
0010
0000
0100
0000
0000
0000
0010
0001
1000
0000
0010
1000
,
0010
0000
0100
0000
0001
0000
0010
0000
0000
0000
0001
1000
0001
0000
1000
0001
,
0100
0001
1000
0000
0010
0000
0100
0000
0000
0000
0010
1000
0001
0000
0010
0001
,
1000
0000
0001
0000
1000
0000
1010
0000
0000
0000
0010
1000
0010
0000
0100
0001
,
1000
0001
0100
0000
0010
0000
1000
0000
0000
0000
0001
0010
0001
0000
1000
0010
,
1000
0000
0001
0010
0100
0000
0020
0000
0000
0000
0031
1000
0100
0000
2000
0000
,
0000
0000
3001
0100
0001
0000
0100
0000
0010
0000
1000
0001
0010
0000
0001
1000
,
0100
1000
0001
0100
0002
0000
0000
0000
1003
0000
0010
0000
1000
0000
0010
0000
,
0100
0000
0001
0000
1000
0000
0010
0000
1000
0001
1000
0001
1000
0000
0100
0000
,
1000
0001
1000
0001
0010
0000
0001
0000
2000
0000
0000
0000
3001
0000
0000
0000
,
1000
0000
0001
0000
0100
0000
0001
0000
1000
0001
1000
0000
0001
0000
0010
0001
,
0010
0000
0100
1000
0100
0000
1000
0000
0001
0000
0000
0000
0001
0000
0100
0000
,
0010
0000
1000
0000
0001
0000
0100
0000
0001
1000
0001
1000
0001
0000
0010
0000
,
0001
1000
0001
1000
0100
0000
1000
0000
0002
0000
0000
0000
1003
0000
0000
0000
,
0001
0000
1000
0000
0010
0000
1000
0000
0001
1000
0001
0000
1000
0000
0100
1000
,
0100
0000
0010
0001
0010
0000
0100
1000
0001
0000
0000
0000
1000
0000
0010
0000
,
1000
0000
0001
0000
0010
0000
0001
0000
1000
0001
1000
0001
1000
0000
0010
0000
,
1000
0001
1000
0001
0100
0000
0010
0000
2000
0000
0000
0000
3001
0000
0000
0000
,
1000
0000
0001
0000
0100
0000
0010
0000
1000
0001
1000
0001
0100
0000
0010
1000
,
0001
0000
0010
0001
1000
0000
0001
0000
1001
0000
1000
0000
0001
0000
0010
0001
,
0010
0000
0100
0000
1000
0100
1000
0000
0001
0000
0010
0001
0010
0000
0100
0000
,
1000
0100
0010
0000
0001
0100
0010
0000
1000
0000
0001
0000
0010
0100
1000
0000
,
0100
0000
1000
0000
0010
1000
0010
0000
0100
0000
0001
0100
0001
0000
0010
0000
,
0001
1000
0001
0000
1000
0001
0100
0001
1000
0000
0001
0000
0100
0010
1000
0000
,
0001
0000
1000
0000
0100
1000
0100
0000
0010
0000
0001
0010
0001
0000
1000
0000
,
0010
0100
0001
0000
0010
0100
1000
0000
1002
0000
0000
0000
0013
0000
0010
0000
,
0010
0000
0100
0000
1000
0000
0001
0000
1000
0001
1000
0001
0100
0000
0001
1000
,
0010
1000
0001
0010
0001
1000
0100
0010
0002
0000
0000
0000
0000
0000
0000
0000
,
0000
0000
0203
0000
,
0000
0000
0320
0000
,
0000
0000
2030
0000
,
0000
0000
3000
0000
;
