#VERSION:0.83;
#TITLE:Shades of Day;
#SUBTITLE:;
#ARTIST:PON;
#TITLETRANSLIT:;
#SUBTITLETRANSLIT:;
#ARTISTTRANSLIT:;
#GENRE:Rock;
#ORIGIN:;
#CREDIT:;
#BANNER:Shades of Day.png;
#BACKGROUND:Shades of Day-bg.png;
#PREVIEWVID:;
#JACKET:Shades of Day-jacket.png;
#CDIMAGE:;
#DISCIMAGE:;
#LYRICSPATH:;
#CDTITLE:cdtitle.png;
#MUSIC:Shades of Day.ogg;
#OFFSET:-0.696730;
#SAMPLESTART:49.170414;
#SAMPLELENGTH:10.105263;
#SELECTABLE:YES;
#BPMS:0.000=190.000;
#STOPS:;
#DELAYS:;
#WARPS:;
#TIMESIGNATURES:0.000=4=4;
#TICKCOUNTS:0.000=4;
#COMBOS:0.000=1;
#SPEEDS:0.000=1.000=0.000=0;
#SCROLLS:0.000=1.000;
#FAKES:;
#LABELS:0.000=Song Start;
#BGCHANGES:;
#KEYSOUNDS:;
#ATTACKS:
;

//---------------dance-single - ----------------
#NOTEDATA:;
#CHARTNAME:;
#STEPSTYPE:dance-single;
#DESCRIPTION:;
#CHARTSTYLE:;
#DIFFICULTY:Hard;
#METER:11;
#RADARVALUES:0.518980,0.556154,0.416350,0.791882,0.008164,445.000000,394.000000,51.000000,97.000000,0.000000,0.000000,0.000000,0.000000,0.000000,0.518980,0.556154,0.416350,0.791882,0.008164,445.000000,394.000000,51.000000,97.000000,0.000000,0.000000,0.000000,0.000000,0.000000;
#CREDIT:;
#NOTES:
0000
0000
0000
0000
,
0000
0000
0000
0000
0000
0000
2000
0002
,
0000
0000
0000
0000
0000
3003
0000
0001
,
1000
0100
0000
0020
0030
0002
0003
1000
,
0000
1000
0010
0100
0000
0000
0000
0100
,
0000
0100
0010
1000
0000
1010
0000
0001
,
0000
0001
1000
0100
0000
0000
0000
0100
,
0000
0100
1000
0010
0000
1010
0000
0001
,
0000
0001
0010
0100
0000
0000
0000
0100
,
0000
0100
0010
0001
0000
0011
0000
1000
,
0000
1000
0001
0100
0000
0000
0000
0200
,
0000
0310
1000
0001
1000
0100
0000
0220
,
0000
0000
0330
0000
0001
0010
0100
0010
,
0001
0000
1000
0000
0001
0100
0000
0001
,
0100
0010
1000
0001
,
1000
0100
0010
0002
0000
1003
0000
2002
,
0000
0000
3003
0000
0001
0100
0010
0100
,
0001
0000
1000
0000
0001
0010
0000
0001
,
0010
0000
0100
0000
0100
0000
0100
2100
,
0000
3001
0000
1020
0000
0130
0000
0220
,
0000
0000
0330
0000
1000
0010
0001
0010
,
1000
0000
0001
0000
1000
0100
0000
0010
,
0100
0010
0001
1000
,
0001
0100
0010
2000
0000
3001
0000
2002
,
0000
0000
3003
0000
1000
0100
0001
0100
,
1000
0000
0001
0000
1000
0010
0000
0100
,
0010
0000
0100
0000
0100
0000
0100
0102
,
0000
1003
0000
0021
0000
0130
0000
2100
,
0000
3001
0000
1020
0000
0130
0000
1002
,
0000
0000
0010
0000
0013
0000
0100
2000
,
0000
0000
0100
0000
3001
0000
0000
2001
,
0000
0000
0010
0000
3010
0000
0100
0002
,
0000
0000
0100
0000
1003
0000
0000
2001
,
0000
0000
0100
0000
3100
0000
0010
0002
,
0000
0000
1003
0000
0001
0100
0010
2000
,
0000
3000
0010
1010
0000
0001
0000
0002
,
0000
0003
0010
0011
0000
1000
0000
2002
,
0000
3003
0001
1000
0001
1000
0001
1000
,
0000
0000
0000
0000
2000
3020
0030
0002
,
0000
0013
1000
0000
1000
0010
0100
0001
,
0000
0001
1000
0000
0002
0023
0030
2000
,
0000
3010
0001
0000
0001
0010
0100
1000
,
0000
1000
0001
0000
2000
3020
0030
0002
,
0000
0013
1000
0000
1000
0010
1000
0200
,
0300
0020
0030
2000
3000
0020
0030
0002
,
0000
1003
0000
0001
0100
0010
1000
2010
,
0000
3001
0000
0012
0000
1003
0000
2002
,
0000
3003
0000
0001
0100
1000
0100
0002
,
0000
0003
0000
0100
0010
2000
0000
0010
,
0000
3001
0000
1000
0100
0001
0100
2000
,
0000
0001
0000
3010
0000
0100
0001
1002
,
0000
1000
1000
1003
,
0001
0000
0010
0000
0100
1000
0000
2001
,
0000
0001
0001
3001
,
1000
0010
1000
0010
0100
0001
0000
2001
,
0000
0000
3001
0010
1000
0000
0010
0002
,
0000
0010
0000
1000
0000
0103
0000
0010
,
1000
0010
0001
0000
0001
0010
1000
0000
,
0001
1000
0010
1000
0100
0010
0000
0220
,
0000
0330
1001
0000
0001
0010
0100
1000
,
0001
1000
0010
0100
0001
1000
0000
0002
,
0010
0003
2000
0010
3000
0012
0003
2010
,
3000
0001
0010
2000
0000
3001
0100
2000
,
0000
3001
0012
1003
,
1002
0103
2010
3001
,
2001
3100
0012
0103
,
2010
0000
3100
0010
0100
0010
0001
0200
,
0000
0300
0000
0000
,
0000
0000
0000
0000
0000
0000
0000
1001
,
0000
0002
0000
0000
1000
0000
0013
0011
,
0000
2000
0000
0000
0001
0000
3010
1010
,
0000
2000
0000
0000
0001
0000
3100
1100
,
0000
0002
0000
0000
1000
0000
0103
0101
,
0000
2000
0000
0000
0001
0000
3100
0110
,
0000
0000
0001
0000
0000
0100
0000
0000
0010
0000
0000
1000
0000
0000
2002
0000
,
0000
0000
3003
0000
1000
0100
0001
0100
,
1000
0000
0001
0000
1000
0010
0000
0001
,
0010
1000
0001
0010
,
0001
0010
0100
2000
0000
3001
0000
2002
,
0000
0000
3003
0000
0001
0100
1000
0100
,
0001
0000
1000
0000
0001
0010
0000
1000
,
0010
0000
0001
0000
0001
0000
0001
0012
,
0000
1003
0000
0201
0000
0310
0000
2010
,
0000
3001
0000
1200
0000
0310
0000
0012
,
0000
0000
1003
0000
0001
0100
0010
0200
,
0300
2000
3000
0200
0300
0020
0030
2010
,
0000
0000
3001
0000
1000
0100
0010
0200
,
0300
0002
0003
0200
0300
0020
0030
0001
,
0001
0000
0000
0011
0000
0000
2020
0000
,
0000
0000
0030
0000
,
0000
0000
0000
0000
0000
0000
0000
0000
0000
0000
3000
0000
;

//---------------dance-single - ----------------
#NOTEDATA:;
#CHARTNAME:;
#STEPSTYPE:dance-single;
#DESCRIPTION:;
#CHARTSTYLE:;
#DIFFICULTY:Medium;
#METER:8;
#RADARVALUES:0.354539,0.407846,0.408187,0.604116,0.000000,304.000000,254.000000,50.000000,74.000000,0.000000,0.000000,0.000000,0.000000,0.000000,0.354539,0.407846,0.408187,0.604116,0.000000,304.000000,254.000000,50.000000,74.000000,0.000000,0.000000,0.000000,0.000000,0.000000;
#CREDIT:;
#NOTES:
0000
0000
0000
0000
,
0000
0000
0000
0000
0000
0000
0000
2002
,
0000
0000
0000
0000
0000
3003
0000
1000
,
0000
0100
0000
0020
0030
0002
0003
1000
,
0000
0010
0000
0100
0000
0000
0000
0100
,
0000
0010
0000
1000
0000
1010
0000
0001
,
0000
0010
0000
0100
0000
0000
0000
0100
,
0000
0010
0000
0001
0000
0011
0000
1000
,
0000
0001
0000
0100
0000
0000
0000
0100
,
0000
0010
0000
1000
0000
1001
0000
0001
,
0000
1000
0000
0100
0000
0000
0000
0020
,
0000
0032
0000
2003
0000
3010
0000
0220
,
0000
0330
1000
0010
,
0100
0010
1000
0000
,
0001
1000
0100
0000
,
0010
0000
0100
0000
0010
0000
0000
0220
,
0000
0330
0001
0010
,
0100
0010
0001
0000
,
1000
0000
0001
0000
0100
0000
0000
2010
,
0000
3000
0000
0012
0000
0003
0000
2002
,
0000
3003
0001
0100
,
1000
0100
0001
0000
,
1000
0001
0010
0000
,
0100
0000
0010
0000
0100
0000
0000
0220
,
0000
0330
1000
0100
,
0001
0100
1000
0000
,
0001
0000
1000
0000
0010
0000
0000
2010
,
0000
3000
0000
0102
0000
0003
0000
2100
,
0000
3000
0000
0012
0000
0003
0000
2001
,
0000
0000
3010
0100
,
0001
0000
1000
0000
1000
0000
0000
1002
,
0000
0000
0013
0100
,
1000
0000
0001
0000
0001
0000
0000
1002
,
0000
0000
0103
0010
,
1000
0000
0001
0000
0010
0000
0000
0021
,
0000
0030
0000
0001
0000
1000
0000
1020
,
0000
0030
0000
1000
0000
0001
0000
2002
,
0000
0000
0000
0000
0000
0000
0000
3003
,
0000
0000
0000
0000
1000
0001
0000
2002
,
0000
3003
1000
0100
,
1000
0000
0100
0000
0010
0001
0000
2002
,
0000
3003
0001
0100
,
0001
0000
0100
0000
0010
1000
0000
2002
,
0000
3003
1000
0100
,
0010
0001
0100
0010
,
2000
0000
0000
0000
3010
0000
0000
2001
,
0000
3000
0000
0100
0000
0010
0000
0022
,
0000
0033
1000
0001
,
0100
0000
0000
0000
0010
1000
0000
2020
,
0000
3030
0000
0000
0001
0000
1000
0000
,
0100
0000
0010
0000
0001
0000
0000
2002
,
0000
3000
1000
0000
,
1003
0000
0000
0000
0010
0000
0000
2002
,
0000
0003
0001
0000
,
3001
0000
1000
0000
0100
0000
0000
2002
,
0000
3003
1000
0000
0010
0000
0001
0000
,
1000
0100
0001
0000
,
0001
0010
1000
0001
,
0100
0000
1000
0000
0001
0000
0000
2002
,
0000
3003
0001
0100
,
0010
0000
1000
0000
0100
0000
0010
0002
,
0000
0003
2000
0000
3000
0001
0000
0102
,
0000
1003
0000
2010
0000
3001
0000
0021
,
0000
0130
1000
0001
,
0100
0010
1000
0001
,
0010
0100
1000
0001
,
0100
0000
0010
0000
1000
0000
0002
0020
,
0000
0033
0000
0000
,
0000
0000
0000
0000
0000
0000
0000
1001
,
0000
0002
0000
0000
0000
0003
0000
0101
,
0000
2000
0000
0000
0000
3000
0000
1100
,
0000
0002
0000
0000
0000
0003
0000
0011
,
0000
2000
0000
0000
0000
3000
0000
1010
,
0000
0002
0000
0000
0000
0003
0000
1001
,
0000
1100
0000
0000
0011
0000
0000
2002
,
0000
3003
1000
0010
,
0001
0010
1000
0000
,
0001
1000
0100
0000
,
0010
0000
0100
0000
0010
0000
0000
0220
,
0000
0330
0001
0010
,
1000
0010
0001
0000
,
1000
0000
0001
0000
0100
0000
0000
0102
,
0000
0003
0000
2010
0000
3000
0000
0012
,
0000
0003
0000
2100
0000
3000
0000
2002
,
0000
3000
0103
0100
,
0010
0000
1000
0000
0001
0000
0000
2002
,
0000
0003
3100
0100
,
0010
0001
1000
0010
,
0100
0000
0000
0100
0000
0000
2002
0000
,
0000
0000
3000
0000
,
0000
0000
0000
0000
0000
0000
0000
0000
0000
0000
0003
0000
;

//---------------dance-single - ----------------
#NOTEDATA:;
#CHARTNAME:;
#STEPSTYPE:dance-single;
#DESCRIPTION:;
#CHARTSTYLE:;
#DIFFICULTY:Easy;
#METER:6;
#RADARVALUES:0.260073,0.370770,0.236748,0.628607,0.000000,223.000000,194.000000,29.000000,77.000000,0.000000,0.000000,0.000000,0.000000,0.000000,0.260073,0.370770,0.236748,0.628607,0.000000,223.000000,194.000000,29.000000,77.000000,0.000000,0.000000,0.000000,0.000000,0.000000;
#CREDIT:;
#NOTES:
0000
0000
0000
0000
,
0000
0000
0000
0000
0000
0000
0000
2002
,
0000
0000
0000
0000
0000
3003
0000
0000
,
0000
0000
0000
0010
0000
0010
0000
1002
,
0000
0003
0000
0100
0000
0000
0000
0001
,
0000
0000
0000
0100
0000
0000
0000
0001
,
0000
0000
0000
0010
0000
0000
0000
0001
,
0000
0000
0000
0010
0000
0000
0000
2001
,
0000
3000
0000
0010
0000
0000
0000
1000
,
0000
0000
0000
0010
0000
0000
0000
1000
,
0000
0000
0000
0100
0000
0000
0000
0020
,
0000
0032
0000
2003
0000
3000
0000
2002
,
0000
3003
0001
0100
,
0010
0000
0010
0000
,
0100
0010
1000
0000
,
0001
0000
0000
0000
0001
0000
0000
2002
,
0000
3003
1000
0100
,
0010
0000
0010
0000
,
0100
0000
0010
0000
0001
0000
0000
2000
,
0000
3000
0000
0002
0000
0003
0000
2002
,
0000
3003
1000
0010
,
0100
0000
0100
0000
,
0010
0100
0001
0000
,
1000
0000
0000
0000
1000
0000
0000
2002
,
0000
3003
0001
0010
,
0100
0000
0100
0000
,
0010
0000
0100
0000
1000
0000
0000
0002
,
0000
0003
0000
0200
0000
0300
0000
0020
,
0000
0030
0000
2000
0000
3000
0000
0002
,
0000
0000
0013
0000
,
0200
0000
0000
0000
0300
0000
0000
2000
,
0000
0000
3010
0000
,
0200
0000
0000
0000
0300
0000
0000
0002
,
0000
0000
1003
0000
,
0100
0000
0000
0000
0010
0000
0000
0002
,
0000
0003
0000
0001
0000
0000
0000
2000
,
0000
3000
0000
1000
0000
0000
0000
2002
,
0000
0000
0000
0000
0000
0000
0000
3003
,
0000
0000
0000
0000
0010
0000
0000
2002
,
0000
3003
1000
0000
,
0100
0000
0000
0000
0010
0000
0000
2002
,
0000
3003
0001
0000
,
0100
0000
0000
0000
0010
0000
0000
2002
,
0000
3003
1000
0100
,
0010
0000
0001
0100
,
0020
0000
0000
0000
0130
0000
0000
0002
,
0000
0003
0000
2000
0000
3000
0000
2002
,
0000
3003
0001
0010
,
0001
0000
0000
0000
1000
0000
0000
2002
,
0000
3003
1000
0010
,
1000
0000
0000
0000
0001
0000
0000
2002
,
0000
3000
1000
0000
,
1003
0000
0000
0000
1000
0000
0000
2002
,
0000
0003
0001
0000
,
3001
0000
1000
0000
0001
0000
0000
0020
,
0000
0100
0130
0000
,
0010
0100
1000
0000
,
0010
0100
0001
0000
,
1000
0000
0001
0000
1000
0000
0000
0200
,
0000
0010
0310
0000
,
0100
0000
1000
0000
0001
0000
0000
0200
,
0000
0300
0020
0000
0030
0100
0000
2002
,
0000
3003
0000
0220
0000
0330
0000
2002
,
0000
3003
0011
0000
,
1100
0000
1010
0000
,
0101
0000
0011
0000
,
1100
0000
0000
0000
0001
0000
0000
2002
,
0000
3003
0000
0000
,
0000
0000
0000
0000
0000
0000
0000
1001
,
0000
2000
0000
0000
0000
3000
0000
1000
,
0000
0200
0000
0000
0000
0300
0000
0100
,
0000
0020
0000
0000
0000
0030
0000
0010
,
0000
0002
0000
0000
0000
0003
0000
0001
,
0000
2000
0000
0000
0000
3000
0000
0001
,
0000
0200
0000
0000
0000
0300
0000
2002
,
0000
3003
0001
0010
,
0100
0000
0100
0000
,
0010
0001
0100
0000
,
0010
0000
0000
0000
0010
0000
0000
2002
,
0000
3003
1000
0010
,
0100
0000
0100
0000
,
0010
0000
1000
0000
0100
0000
0000
0020
,
0000
0030
0000
0002
0000
0003
0000
2000
,
0000
3000
0000
0020
0000
0030
0000
0200
,
0000
0300
0010
0000
,
1000
0000
0001
0000
0010
0000
0000
0200
,
0000
0300
0010
0000
,
0001
1000
0010
0000
,
0100
0000
0000
0100
0000
0000
2002
0000
,
0000
0000
0003
0000
,
0000
0000
0000
0000
0000
0000
0000
0000
0000
0000
3000
0000
;

//---------------dance-single - ----------------
#NOTEDATA:;
#CHARTNAME:;
#STEPSTYPE:dance-single;
#DESCRIPTION:;
#CHARTSTYLE:;
#DIFFICULTY:Beginner;
#METER:3;
#RADARVALUES:0.107295,0.181133,0.089801,0.318386,0.000000,92.000000,81.000000,11.000000,39.000000,0.000000,0.000000,0.000000,0.000000,0.000000,0.107295,0.181133,0.089801,0.318386,0.000000,92.000000,81.000000,11.000000,39.000000,0.000000,0.000000,0.000000,0.000000,0.000000;
#CREDIT:;
#NOTES:
0000
0000
0000
0000
,
0000
0000
0000
0000
0000
0000
0000
2002
,
0000
0000
0000
0000
0000
3003
0000
0000
,
0000
0000
0000
0000
0000
0000
0000
0001
,
0000
0000
0000
0000
0000
0000
0000
0010
,
0000
0000
0000
0000
0000
0000
0000
0100
,
0000
0000
0000
0000
0000
0000
0000
1000
,
0000
0000
0000
0000
0000
0000
0000
0001
,
0000
0000
0000
0000
0000
0000
0000
0100
,
0000
0000
0000
0000
0000
0000
0000
0010
,
0000
0000
0000
0000
0000
0000
0000
1000
,
0000
0000
0000
0000
0000
0000
0000
2002
,
0000
3003
0000
0000
,
1000
0000
0000
0000
,
0100
0000
0000
0000
,
1000
0000
0000
0000
,
0001
0000
0000
0000
,
0100
0000
0000
0000
,
0001
0000
0000
0000
0000
0000
0000
0020
,
0000
0000
0000
0030
0000
0000
0000
2002
,
0000
3003
0000
0000
,
1000
0000
0000
0000
,
0010
0000
0000
0000
,
1000
0000
0000
0000
,
0001
0000
0000
0000
,
0010
0000
0000
0000
,
0001
0000
0000
0000
0000
0000
0000
0200
,
0000
0000
0000
0300
0000
0000
0000
0020
,
0000
0000
0000
0030
0000
0000
0000
2000
,
0000
0000
0000
0000
0000
0000
0000
3000
,
0000
0000
0000
0000
0000
0000
0000
0002
,
0000
0000
0000
0000
0000
0000
0000
0003
,
0000
0000
0000
0000
0000
0000
0000
0020
,
0000
0000
0000
0000
0000
0000
0000
0030
,
0000
0000
0000
0000
0000
0000
0000
0002
,
0000
0000
0000
0003
0000
0000
0000
2000
,
0000
0000
0000
3000
0000
0000
0000
0020
,
0000
0000
0000
0000
0000
0000
0000
0030
,
0000
0000
0000
0000
0000
0000
0000
1001
,
0000
0000
0000
0000
0000
0000
0000
0010
,
0000
0000
0000
0000
0000
0000
0000
1001
,
0000
0000
0000
0000
0000
0000
0000
0100
,
0000
0000
0000
0000
0000
0000
0000
1001
,
0000
0000
0000
0000
0000
0000
0000
0010
,
0000
0000
0000
0000
0000
0000
0000
0200
,
0000
0000
0000
0300
0000
0000
0000
0010
,
0000
0000
0000
0000
0000
0000
0000
2002
,
0000
0000
3003
0000
0000
0000
0000
1000
,
0000
0000
0000
0000
0000
0000
0000
2002
,
0000
0000
3003
0000
0000
0000
0000
0001
,
0000
0000
0000
0000
0000
0000
0000
0020
,
0000
0000
0000
0000
,
0030
0000
0000
0000
0000
0000
0000
0200
,
0000
0000
0300
0000
,
0100
0000
0000
0000
,
1000
0000
0000
0000
,
0010
0000
0000
0000
,
0100
0000
0000
0000
,
0001
0000
0000
0000
,
0010
0000
0000
0000
,
0100
0000
0000
0000
,
1000
0000
0000
0000
0000
0000
0000
0002
,
0000
0000
0000
0003
0000
0000
0000
2000
,
0000
0000
3000
0000
,
0020
0000
0030
0000
,
0200
0000
0300
0000
,
0002
0000
0000
0000
0003
0000
0000
1001
,
0000
0000
0000
0000
,
0000
0000
0000
0000
,
0000
0002
0000
0000
0000
0000
0000
0003
,
0000
0020
0000
0000
0000
0000
0000
0030
,
0000
0002
0000
0000
0000
0000
0000
0003
,
0000
2000
0000
0000
0000
0000
0000
3000
,
0000
0020
0000
0000
0000
0000
0000
0030
,
0000
2000
0000
0000
0000
3000
0000
2002
,
0000
3003
0000
0000
,
0001
0000
0000
0000
,
0010
0000
0000
0000
,
0100
0000
0000
0000
,
1000
0000
0000
0000
,
0010
0000
0000
0000
,
0100
0000
0000
0000
0000
0000
0000
0002
,
0000
0000
0000
0003
0000
0000
0000
2000
,
0000
0000
0000
3000
0000
0000
0000
0200
,
0000
0000
0300
0000
,
0010
0000
0000
0000
0000
0000
0000
0002
,
0000
0000
0003
0000
,
1000
0000
0000
0000
,
0010
0000
0000
1001
;

//---------------dance-single - ----------------
#NOTEDATA:;
#CHARTNAME:;
#STEPSTYPE:dance-single;
#DESCRIPTION:;
#CHARTSTYLE:;
#DIFFICULTY:Challenge;
#METER:14;
#RADARVALUES:0.651932,0.667385,0.334713,0.710245,0.155111,559.000000,518.000000,41.000000,87.000000,18.000000,0.000000,0.000000,0.000000,0.000000,0.651932,0.667385,0.334713,0.710245,0.155111,559.000000,518.000000,41.000000,87.000000,18.000000,0.000000,0.000000,0.000000,0.000000;
#CREDIT:;
#NOTES:
// measure 0
0000
0000
0000
0000
,  // measure 1
0000
0000
0000
0000
0000
0000
0100
2002
,  // measure 2
0000
0000
0000
0000
0000
0000
0000
0000
0000
0000
3003
0000
0000
0000
0001
1000
,  // measure 3
0001
0100
0010
1010
0000
0011
0000
0001
,  // measure 4
1000
0010
1000
0001
0000
1000
0000
0001
,  // measure 5
1000
0010
1000
1100
0000
0011
0000
1000
,  // measure 6
0001
0010
0001
1000
0000
0001
0000
1000
,  // measure 7
0001
0000
0010
0000
0001
0000
0101
0000
0000
0000
1000
0001
1000
0000
0001
0000
,  // measure 8
0010
0100
0010
0001
0000
1000
0000
0001
,  // measure 9
0100
0010
0100
0101
0000
1001
0000
1000
,  // measure 10
0100
0010
0100
1000
0001
0100
0010
2000
,  // measure 11
0000
0000
3010
1000
0010
1000
0010
0000
1000
0000
0001
0000
0000
0000
2001
0000
,  // measure 12
0000
0000
3100
0000
0010
0001
1000
0001
,  // measure 13
0100
0000
0010
2000
0001
0001
0000
3100
,  // measure 14
0010
0001
0010
0100
0000
1000
0010
0100
,  // measure 15
0010
0001
0010
2010
0000
3001
0000
2100
,  // measure 16
0000
0001
3010
0000
0010
1000
0001
1000
,  // measure 17
0100
0000
0010
0002
1000
1000
0000
0103
,  // measure 18
0010
1000
0001
0010
0100
1000
0001
0200
,  // measure 19
0300
0000
1M00
0001
1000
0000
0200
0000
0300
0000
0M01
0000
1000
0000
1002
0000
,  // measure 20
0000
0000
0103
0000
0010
0100
1000
0100
,  // measure 21
0001
0000
1000
0002
0010
0010
0000
1003
,  // measure 22
0010
0100
0001
1000
0000
0001
0010
0100
,  // measure 23
0010
1000
0010
0012
0000
1003
0000
0102
,  // measure 24
0000
1000
0013
0000
0010
0100
0001
0100
,  // measure 25
1000
0000
0001
2000
0010
0010
0000
3001
,  // measure 26
0010
0100
1000
0010
0100
0001
1000
0200
,  // measure 27
0300
0000
0M01
1000
0001
0000
0200
0000
0300
0000
1M00
0001
1000
0000
0020
0000
,  // measure 28
0030
0000
00M1
1000
0001
0000
0020
0000
0030
0000
10M0
0001
1000
0000
0200
0000
,  // measure 29
0000
0000
0001
0000
0010
0000
1300
0002
,  // measure 30
0000
0000
1000
0000
0103
0000
0010
0200
,  // measure 31
0000
0000
1000
0000
0010
0000
0301
2000
,  // measure 32
0000
0000
0001
0000
3100
0000
0010
0002
,  // measure 33
0000
0000
0010
0000
1003
0000
0001
2000
,  // measure 34
0000
0000
0010
0000
3001
1000
0001
0012
,  // measure 35
0000
0000
0103
0010
0100
0000
0002
0000
0000
0000
0103
0000
0000
0000
2010
0000
,  // measure 36
0000
0000
3100
0010
0100
0000
2000
0000
0000
0000
3100
0000
0000
0000
0012
0000
,  // measure 37
0000
1003
0001
1000
0001
1000
0001
1000
,  // measure 38
0000
0000
0000
0000
1000
0010
MM00
0021
,  // measure 39
0000
0130
0010
0100
0010
1000
0010
0002
,  // measure 40
0000
1003
0100
0010
0001
0010
0M0M
1020
,  // measure 41
0000
0130
0010
0100
0010
0001
0010
2000
,  // measure 42
0000
3001
0100
0010
1000
0010
MM00
0021
,  // measure 43
0000
0130
0010
0100
0001
0100
0010
2000
,  // measure 44
0000
3020
0000
0032
0000
0203
0000
2300
,  // measure 45
0000
3100
0010
1000
0001
0010
0100
2000
,  // measure 46
0000
0000
3001
1000
0001
0000
0100
0000
0000
0000
1010
0000
0000
0000
2001
0000
,  // measure 47
0000
3100
0010
1000
0010
0100
1000
0002
,  // measure 48
0000
0010
0000
1003
0001
1000
0000
1002
,  // measure 49
0000
0103
0010
0001
0010
0100
0001
2000
,  // measure 50
0000
0000
0010
0000
0000
0000
3001
0000
0000
0000
1000
0001
1000
0000
0200
0000
,  // measure 51
0000
0010
0010
0000
1000
0000
0010
0000
,  // measure 52
1300
0100
0010
0001
1000
0001
0000
0200
,  // measure 53
0000
0010
0010
0000
0001
0000
0010
0000
,  // measure 54
0301
1000
0001
0000
1000
0001
1000
0000
0001
0000
1000
0000
0000
0000
1002
0000
,  // measure 55
0000
1003
0100
0001
1000
0010
0001
2000
,  // measure 56
0000
0100
0000
0001
0000
3010
0100
0010
,  // measure 57
0001
0000
1000
0000
0100
0000
0001
0000
1000
0000
0010
0000
0100
0000
0001
1000
,  // measure 58
0001
0010
0100
1000
0001
0001
0000
1002
,  // measure 59
0000
0100
0103
0000
0010
0100
0001
1000
,  // measure 60
0200
0000
0000
0000
0320
0000
0000
0000
0031
0000
0100
0000
0010
0000
1000
0010
,  // measure 61
2000
0000
3000
0000
0001
0010
0002
0000
0003
0000
1000
0010
1000
0000
0200
0000
,  // measure 62
0300
0000
0M01
0010
0001
0000
0200
0000
0300
0000
1M00
0000
0001
0000
1002
0000
,  // measure 63
0000
0000
0013
0100
0002
0000
0103
0010
,  // measure 64
0002
0000
1003
0010
0200
0000
1300
0100
,  // measure 65
0020
0000
1030
0001
0020
0000
0130
1000
,  // measure 66
0002
0000
0000
0000
0103
0000
0010
0000
1000
0010
1000
0000
0001
0000
2002
0000
,  // measure 67
0000
3003
0000
0000
,  // measure 68
0000
0000
0000
0000
0000
0000
0000
1001
,  // measure 69
0000
0000
0001
0000
0000
0010
0000
0000
0100
0000
0000
0010
0000
0000
0011
0000
,  // measure 70
0000
0000
1000
0000
0000
0010
0000
0000
0100
0000
0000
0010
0000
0000
1010
0000
,  // measure 71
0000
0000
1000
0000
0000
0100
0000
0000
0010
0000
0000
0100
0000
0000
1100
0000
,  // measure 72
0000
0000
0001
0000
0000
0100
0000
0000
0010
0000
0000
0100
0000
0000
0101
0000
,  // measure 73
0000
0000
1000
0000
0000
0010
0000
0000
1000
0000
0000
0100
0000
0000
0011
0000
,  // measure 74
0000
0000
2010
0000
0000
3100
0000
0000
0012
0000
0000
0103
0000
0000
2001
0000
,  // measure 75
0000
0000
3010
0000
0100
0010
0001
0010
,  // measure 76
1000
0000
0001
2000
0100
0100
0000
3001
,  // measure 77
0100
1000
0100
0001
0000
1000
0100
0010
,  // measure 78
0001
0000
1000
0000
0001
1000
0010
0000
0000
0000
0010
1000
0001
0000
2001
0000
,  // measure 79
0000
0001
3100
0000
0100
0010
1000
0010
,  // measure 80
0001
0000
1000
0002
0100
0100
0000
1003
,  // measure 81
0100
0001
0100
0010
0001
1000
0001
0200
,  // measure 82
0300
0000
1M00
0001
1000
0000
0200
0000
0300
0000
0M01
1000
0001
0000
0020
0000
,  // measure 83
0030
0000
10M0
0001
1000
0000
0020
0000
0030
0000
00M1
0000
1000
0000
2001
0000
,  // measure 84
0000
0100
0100
0000
3001
0100
0010
0002
,  // measure 85
0003
0020
0030
0200
0300
2000
3000
0102
,  // measure 86
0000
0100
0100
0000
1003
0100
0010
2000
,  // measure 87
3000
0020
0030
0200
0300
0002
0003
0100
,  // measure 88
1000
0000
0000
1100
0000
0000
0202
0000
,  // measure 89
0000
0000
0300
0000
,  // measure 90
0000
0000
0000
0000
0000
0000
0000
0000
0000
0000
0003
0000
;
