#VERSION:0.83;
#TITLE:Serious?;
#SUBTITLE:;
#ARTIST:KSUKE;
#TITLETRANSLIT:;
#SUBTITLETRANSLIT:;
#ARTISTTRANSLIT:;
#GENRE:FESTIVAL TRAP;
#ORIGIN:;
#CREDIT:;
#BANNER:Serious.png;
#BACKGROUND:Serious-bg.png;
#PREVIEWVID:;
#JACKET:Serious-jacket.png;
#CDIMAGE:;
#DISCIMAGE:;
#LYRICSPATH:;
#CDTITLE:cdtitle.png;
#MUSIC:Serious.ogg;
#OFFSET:-0.585000;
#SAMPLESTART:34.185001;
#SAMPLELENGTH:15.000000;
#SELECTABLE:YES;
#BPMS:0.000=150.000;
#STOPS:209.750=0.800;
#DELAYS:;
#WARPS:;
#TIMESIGNATURES:0.000=4=4;
#TICKCOUNTS:0.000=4;
#COMBOS:0.000=1;
#SPEEDS:0.000=1.000=0.000=0;
#SCROLLS:0.000=1.000;
#FAKES:;
#LABELS:0.000=Song Start;
#BGCHANGES:-0.250=Serious.avi=1.000=0=0=0=StretchNoLoop==CrossFade_Fastest==,
99999=-nosongbg-=1.000=0=0=0 // don't automatically add -songbackground-
;
#KEYSOUNDS:;
#ATTACKS:
;

//---------------dance-single - Daff_4K----------------
#NOTEDATA:;
#CHARTNAME:Daff_4K;
#STEPSTYPE:dance-single;
#DESCRIPTION:Daff_4K;
#CHARTSTYLE:;
#DIFFICULTY:Beginner;
#METER:3;
#RADARVALUES:0.138877,0.203204,0.027004,0.000000,0.000000,108.000000,105.000000,3.000000,0.000000,0.000000,0.000000,0.000000,0.000000,0.000000,0.138877,0.203204,0.027004,0.000000,0.000000,108.000000,105.000000,3.000000,0.000000,0.000000,0.000000,0.000000,0.000000,0.000000;
#CREDIT:Daff_4K;
#NOTES:
0000
0000
0000
0000
,
0000
0000
0000
0000
,
0000
0000
0000
0000
,
0000
0000
0000
0000
,
0000
0000
0000
0000
,
0010
0000
0000
0000
,
0010
0000
0000
0000
,
0100
0000
0000
0000
,
0100
0000
0000
0000
,
1000
0000
0100
0000
,
1000
0000
0000
0000
,
0001
0000
0100
0000
,
0001
0000
0000
0000
,
0010
0000
0010
0000
,
0100
0000
0100
0000
,
0010
0010
0010
0010
,
0010
0000
0000
0000
,
0001
0000
0000
0000
,
0001
0000
0000
0000
,
1000
0000
0000
0000
,
1000
0000
0000
0000
,
1001
0000
0001
0000
,
0000
0000
0001
0000
,
1000
0000
1000
0000
,
0000
0000
1000
0000
,
0010
0000
0010
0000
,
0000
0000
0010
0000
,
0100
0000
0100
0000
,
0000
0000
0100
0000
,
0001
0000
0000
0001
,
0001
0000
1000
0000
,
1000
0000
0000
0100
,
0100
0000
0010
0000
,
0100
0000
0000
1000
,
1000
0000
0001
0000
,
0001
0000
0000
0100
,
0100
0000
0010
0000
,
1000
0000
0000
0000
,
0000
0000
0000
0000
,
0001
0000
0000
0000
,
0000
0000
0000
0000
,
1000
0000
1000
0000
,
0001
0000
0001
0000
,
0010
0000
0010
0000
,
0100
0000
0100
0000
,
1000
1000
1000
0000
,
0001
0001
0001
0000
,
0100
0000
0100
0000
,
0010
0010
0010
0000
,
1000
0000
0010
0000
,
1000
0000
0001
0001
,
0001
0000
0010
0000
,
0001
0001
0000
0000
,
0100
0000
0010
0000
,
1000
1000
1000
0000
,
0001
0000
1000
0000
,
0100
0100
0100
0000
,
1001
0000
0000
0000
,
0001
0000
0001
0000
,
1000
0000
0000
0000
,
0100
0000
0100
0000
,
0100
0000
0010
0000
,
0001
0000
0100
0000
,
0100
0000
0010
0000
,
1000
0000
1001
0000
;

//---------------dance-single - Daff_4K----------------
#NOTEDATA:;
#CHARTNAME:Daff_4K;
#STEPSTYPE:dance-single;
#DESCRIPTION:Daff_4K;
#CHARTSTYLE:;
#DIFFICULTY:Easy;
#METER:5;
#RADARVALUES:0.218603,0.308295,0.054008,0.135020,0.000000,170.000000,164.000000,6.000000,15.000000,0.000000,0.000000,0.000000,0.000000,0.000000,0.218603,0.308295,0.054008,0.135020,0.000000,170.000000,164.000000,6.000000,15.000000,0.000000,0.000000,0.000000,0.000000,0.000000;
#CREDIT:Daff_4K;
#NOTES:
0000
0000
0000
0000
,
0000
0000
0000
0000
,
0000
0000
0000
0000
,
0000
0000
0000
0000
,
0000
0000
0000
0000
,
2000
0000
0000
3000
,
0020
0000
0000
0030
,
0200
0000
0000
0300
,
0002
0000
0000
0003
,
1000
0000
0100
0000
,
1000
0000
0001
1000
,
0001
0000
0100
0000
,
0001
0000
1000
0001
,
1000
0100
1000
0000
,
0001
0100
0001
0000
,
0010
0010
0100
0100
,
1000
0001
1000
1001
,
0000
0010
0000
0010
,
0000
0100
0000
0100
,
0000
0010
0000
0010
,
0000
0100
0000
0100
,
1002
0000
0013
0000
,
0000
0100
1000
0000
,
2001
0000
3010
0000
,
0000
0100
0001
0000
,
2001
0000
3100
1000
,
0010
0000
0010
0100
,
1002
0000
0103
0001
,
0010
0000
0010
0100
,
1000
0000
1000
0010
,
0001
0000
0010
1000
,
0001
0000
0001
0010
,
1000
0000
0010
0001
,
0100
0000
0100
0010
,
1000
0000
0001
1000
,
0100
0000
0100
0010
,
0001
0000
1000
0001
,
0200
0000
0000
0300
,
0020
0000
0000
0030
,
2000
0000
0000
3000
,
0002
0000
0000
0003
,
1000
0000
0100
0000
,
0001
0000
0010
0000
,
0001
0000
0100
0000
,
1000
0000
0010
0000
,
1000
0100
1000
0000
,
0001
0100
0001
0000
,
0010
0010
0100
0100
,
1000
0001
1000
1001
,
0001
0100
0001
0100
,
0010
1000
0010
1000
,
0100
0010
0100
0010
,
0001
1000
1000
0100
,
1000
0100
0010
0001
,
0010
0001
0100
0010
,
0100
0010
1000
0001
,
1000
0000
0200
0000
,
0310
0000
0001
0001
,
1000
0010
0200
0000
,
0310
0000
1000
1000
,
0001
0010
0001
0100
,
0010
0100
0001
0100
,
0010
0010
1000
0100
,
0010
0100
1000
0100
,
0010
0001
0200
0000
,
0000
0000
0000
0000
,
0000
0000
0000
0000
,
0000
0000
0000
0000
,
0000
0000
0300
0000
;

//---------------dance-single - Daff_4K----------------
#NOTEDATA:;
#CHARTNAME:Daff_4K;
#STEPSTYPE:dance-single;
#DESCRIPTION:Daff_4K;
#CHARTSTYLE:;
#DIFFICULTY:Medium;
#METER:10;
#RADARVALUES:0.428205,0.554931,0.414060,0.207030,0.018003,333.000000,287.000000,46.000000,23.000000,0.000000,0.000000,0.000000,0.000000,0.000000,0.428205,0.554931,0.414060,0.207030,0.018003,333.000000,287.000000,46.000000,23.000000,0.000000,0.000000,0.000000,0.000000,0.000000;
#CREDIT:Daff_4K;
#NOTES:
0000
0000
0000
0000
,
0000
0000
0000
0000
,
0000
0000
0000
0000
,
0000
0000
0000
0000
,
0000
0000
0000
0000
,
2010
0000
0001
0000
,
0100
0000
0001
3000
,
0012
0000
1000
0000
,
0100
0000
1003
0001
,
0200
0010
0001
0310
,
2000
0010
0001
3100
,
0200
0010
1000
0310
,
0002
0010
1000
0103
,
0001
0000
0000
0010
0000
0000
0100
0000
1000
0000
0000
0010
0000
0000
0100
0000
,
0001
0000
0000
0010
0000
0000
0001
0000
1000
0000
0000
0010
0000
0000
1000
0000
,
0100
0010
0001
1000
0001
0100
0010
1000
,
0002
1000
1003
1001
,
2000
0010
0000
0010
,
3002
0010
0000
0010
,
2003
0100
0000
0100
,
3002
0100
0000
0103
,
2001
0000
3100
0000
0010
0000
0100
1000
,
0100
0010
0001
1000
,
1002
0000
0103
0000
0010
0000
0100
0001
,
0100
0000
0010
0000
1000
0000
0001
1000
,
0002
0000
0013
0000
0100
0010
0001
0010
,
0001
0000
1000
0001
0100
0000
0010
0000
,
2001
0000
3010
0000
0100
0010
1000
0010
,
1000
0000
0001
1000
0100
0010
0100
0000
,
1001
0000
0001
0100
0001
0100
0010
1000
,
0001
0000
0010
0100
0010
0100
1000
0000
,
1001
0000
1000
0100
1000
0100
0010
0001
,
1000
0000
0010
0100
0010
0100
0001
0000
,
1001
0000
1000
0100
0010
0100
0010
0001
,
0100
0000
0010
1000
0010
1000
0001
0000
,
1001
0000
0001
0100
0010
0100
0010
1000
,
0100
0000
0010
0001
0010
0001
1000
0000
,
1002
0010
0010
0010
,
2003
0010
0010
0010
,
3002
0100
0100
0100
,
2003
0100
0100
3100
,
1001
0001
0101
0100
,
0110
0010
1010
1000
,
1001
1000
1100
0100
,
0110
0010
0011
0001
,
1000
0010
1000
0000
0001
0010
0001
0000
,
1000
0100
1000
0000
0001
0100
0001
0000
,
0010
0100
0010
0100
1000
0001
1000
0001
,
0200
0010
0310
1001
,
0101
0101
1100
1100
,
0101
0101
0001
1000
,
1010
1010
0011
0011
,
1010
1010
1100
1100
,
0101
0101
1100
1100
,
1000
0001
0011
0011
,
1010
1010
0011
0011
,
0001
1000
0020
0100
,
0001
0000
0130
0010
0100
0000
0001
0000
,
1001
0011
0020
0100
,
1000
0000
0130
0010
0100
0000
1000
0000
,
0010
0100
0010
0100
0001
0010
0001
0000
,
0100
0010
1000
0000
0001
0100
0001
0000
,
0010
0100
0010
0100
1000
0010
1000
0000
,
0100
0010
0001
0000
1000
0100
1000
0000
,
0010
0100
0001
0000
0020
0000
0000
0000
,
0000
0000
0000
0000
,
0000
0000
0000
0000
,
0000
0000
0000
0000
,
0000
0000
0030
0000
;

//---------------dance-single - Daff_4K?----------------
#NOTEDATA:;
#CHARTNAME:Daff_4K?;
#STEPSTYPE:dance-single;
#DESCRIPTION:Daff_4K?;
#CHARTSTYLE:;
#DIFFICULTY:Hard;
#METER:12;
#RADARVALUES:0.558081,0.770737,0.270039,0.288042,0.175525,434.000000,404.000000,30.000000,32.000000,0.000000,0.000000,0.000000,0.000000,0.000000,0.558081,0.770737,0.270039,0.288042,0.175525,434.000000,404.000000,30.000000,32.000000,0.000000,0.000000,0.000000,0.000000,0.000000;
#CREDIT:Daff_4K?;
#NOTES:
0000
0000
0000
0000
,
0000
0000
0000
0000
,
0000
0000
0000
0000
,
0000
0000
0000
0000
,
0000
0000
0000
0000
,
2001
0000
3200
0001
,
0320
0000
0032
0103
,
1002
0000
0203
1000
,
0320
0000
2030
3001
,
1100
0000
0110
0000
0011
0000
0001
0100
,
0010
0000
0000
0000
1010
0000
0000
0000
1100
0000
0000
0100
0010
0000
0001
0000
,
0101
0000
0110
0000
1010
0000
1000
0100
,
0010
0000
0000
0000
0011
0000
0000
0000
0101
0000
0000
0100
0010
0000
1000
0000
,
0100
0000
0000
0010
0100
0000
0010
0000
0001
0000
0000
0100
0001
0000
0100
0000
,
0010
0000
0000
1000
0010
0000
1000
0000
0100
0000
0000
0010
0100
0000
0010
0000
,
0001
0100
1000
0100
0001
0010
1000
0010
,
0001
0000
0000
0001
1000
0000
0000
1000
0010
0000
0100
0000
0001
0000
0000
0000
,
0102
1000
0000
1000
,
0023
0100
0000
0130
,
2100
0001
0000
0001
,
3020
0100
0000
0130
,
1002
0000
0013
0010
0001
1000
0001
0100
,
0010
0000
1000
0100
0001
0100
0010
0001
,
2001
0000
3010
0010
1000
0001
1000
0100
,
0010
0000
0001
0100
1000
0100
0010
0010
,
2010
0000
3001
1000
0100
0100
0001
0100
,
0010
0000
0001
1000
0010
0010
0100
0001
,
0012
0000
1003
0001
0100
0100
1000
0100
,
0010
0000
0000
0000
1000
0000
0001
0000
0010
0000
0100
0010
0100
0000
1000
0000
,
1002
0000
0103
0100
0010
0010
1000
0100
,
0001
0000
0000
0000
0100
0000
0010
0000
0100
0010
0100
0000
1000
0000
0001
0000
,
2000
0000
3100
0100
0010
0010
0001
0100
,
1000
0000
0000
0000
0100
0000
0010
0000
0100
0010
0100
0000
0001
0000
1000
0000
,
1200
0000
0301
0100
1000
1000
0010
0010
,
0200
0000
0000
0000
0301
0000
1000
0000
0100
0010
0100
0000
0010
0000
0001
0000
,
0200
0000
1300
0100
0001
0001
0010
0010
,
0100
1000
0010
0100
0001
0010
0100
1000
,
0002
0010
1000
0010
,
0203
0010
0001
0310
,
2001
0010
0001
0010
,
3200
0010
1000
0310
,
1001
0000
0000
0001
0100
0000
0010
0000
1000
0000
0000
1000
0010
0000
0100
0000
,
0001
0000
0000
0001
1000
0000
0100
0000
0010
0000
0000
0010
0001
0000
1000
0000
,
1001
0000
0000
1000
0100
0000
0010
0000
0001
0000
0000
0001
0010
0000
0100
0000
,
1000
0000
0000
1000
0001
0000
0100
0000
0010
0000
0000
0010
1000
0000
0001
0000
,
1000
0100
0010
0100
1000
0100
0010
0001
,
0100
0010
0100
0001
0100
0010
1000
0001
,
0010
0100
0010
0100
0010
0100
0010
0100
1000
0001
1000
0001
1000
0001
1000
0001
,
0100
0000
0000
0100
0010
0000
0000
0010
1000
0000
0100
0000
0020
0000
0000
0000
,
0031
0000
0100
0000
0010
0000
0100
0000
0001
0000
0100
0010
0100
0000
0001
0000
,
1000
0100
0001
0100
0010
0010
0001
1000
,
0001
0000
0100
0000
0010
0000
0100
0000
0001
0000
0100
0010
0100
0000
0001
0000
,
1000
0100
0010
0001
1000
0100
0010
0100
,
1000
0000
0100
0010
0100
0000
1000
0000
0001
0000
0100
0000
1000
0000
0100
0000
,
0010
0010
1000
0001
1000
0100
0010
0100
,
1000
0000
0100
0010
0100
0000
1000
0000
0001
0000
0100
0000
0010
0000
1000
0000
,
0100
0000
0100
0000
0010
0100
0010
0000
0012
0000
0000
0000
1003
0000
0000
0000
,
0101
0000
0010
1000
1002
0000
0013
0000
,
0100
0000
1000
0001
1000
0000
0010
0000
2010
0000
0000
0000
3001
0000
0000
0000
,
1100
0000
0010
0001
2001
0000
3010
0000
,
0100
0000
0001
1000
0001
0000
1000
0000
0100
0000
0001
0000
0100
0000
1000
0000
,
0010
0001
0010
1000
0100
0010
0100
1000
,
0010
0010
0100
0001
0100
1000
0100
0001
,
0010
1000
0010
0001
0100
0010
0100
0001
,
0010
0100
0010
0100
0010
0000
0000
0000
2002
0000
0000
0000
0000
0000
0000
0000
,
0000
0000
0000
0000
,
0000
0000
0000
0000
,
0000
0000
0000
0000
,
0000
0000
3003
0000
;

//---------------dance-single - マジDAFF? 4000%----------------
#NOTEDATA:;
#CHARTNAME:マジDAFF? 4000%;
#STEPSTYPE:dance-single;
#DESCRIPTION:マジDAFF? 4000%;
#CHARTSTYLE:;
#DIFFICULTY:Challenge;
#METER:15;
#RADARVALUES:0.749680,1.017372,0.477069,0.414060,0.481570,583.000000,530.000000,53.000000,46.000000,0.000000,0.000000,0.000000,0.000000,0.000000,0.749680,1.017372,0.477069,0.414060,0.481570,583.000000,530.000000,53.000000,46.000000,0.000000,0.000000,0.000000,0.000000,0.000000;
#CREDIT:マジDAFF? 4000%;
#NOTES:
// measure 0
0000
0000
0000
0000
,  // measure 1
0000
0000
0000
0000
,  // measure 2
0000
0000
0000
0000
,  // measure 3
0000
0000
0000
0000
,  // measure 4
0000
0000
0000
0000
,  // measure 5
2010
0000
3001
0000
1200
0000
0310
0001
,  // measure 6
0200
0000
0000
0000
1300
0000
0000
0000
0120
0000
0000
1030
0001
0000
0010
0000
,  // measure 7
0012
0000
1003
0000
0201
0000
0310
1000
,  // measure 8
0200
0000
0000
0000
0301
0000
0000
0000
0120
0000
0000
0031
1000
0000
0010
0000
,  // measure 9
1000
0000
0100
0000
0010
0000
0100
0000
1000
0000
0001
1000
0000
0001
0100
0000
,  // measure 10
0010
0000
1000
0000
0010
0000
0100
0000
0010
0000
1000
0100
0000
0100
0010
0000
,  // measure 11
0001
0000
0100
0000
0010
0000
0100
0000
0001
0000
1000
0001
0000
1000
0100
0000
,  // measure 12
0010
0000
0001
0000
0010
0000
0100
0000
0010
0000
0001
0100
0000
0100
0010
0000
,  // measure 13
1000
0000
0100
0010
0000
0100
1000
0000
0001
0000
0100
0010
0000
0100
0001
0000
,  // measure 14
1000
0000
0001
0010
0000
0010
0100
0000
1000
0000
0010
0100
0000
0100
0001
0000
,  // measure 15
0010
0100
0010
0100
0010
0100
0010
0100
1000
0001
1000
0001
1000
0001
1000
0001
,  // measure 16
2000
0000
0010
0000
3002
0000
0010
0000
0103
0010
0100
0000
0020
0000
0000
0000
,  // measure 17
2030
0000
3100
0100
0001
0100
1000
0100
,  // measure 18
0020
0000
0031
0100
0010
1000
0010
0100
,  // measure 19
0002
0000
0103
0100
1000
0100
0001
0100
,  // measure 20
0020
0000
1030
0100
0010
0001
0010
0100
,  // measure 21
2001
0000
3010
0100
1010
1000
0001
0010
,  // measure 22
0100
0120
0000
0031
1001
1000
0010
0100
,  // measure 23
1002
0000
0013
0100
0011
0001
1000
0010
,  // measure 24
0100
0000
0120
0000
0000
0000
1030
0000
1001
0000
0001
0000
0010
0100
0010
0000
,  // measure 25
1002
0000
0000
0000
0103
0000
0010
0000
0101
0000
0001
1000
0001
0000
1000
0000
,  // measure 26
1200
0000
0310
0001
0101
0010
1000
0001
,  // measure 27
2001
0000
0000
0000
3100
0000
0010
0000
1100
0000
1000
0001
1000
0000
0001
0000
,  // measure 28
0201
0000
0000
0000
0310
0000
1000
0000
1100
0000
0010
0000
0001
1000
0001
1000
,  // measure 29
0020
0000
0031
0010
1000
0001
0011
0110
,  // measure 30
2100
0000
0000
0000
3010
0000
0001
0000
0010
0100
0010
0000
1000
0000
0001
0000
,  // measure 31
0020
0000
1030
0010
0001
1000
1010
0110
,  // measure 32
0102
0000
0000
0000
0013
0000
1000
0000
0010
0100
0010
0000
0001
0000
1000
0000
,  // measure 33
1002
0000
0103
0010
1000
1100
1000
1001
,  // measure 34
0102
0000
0000
0000
0013
0000
0100
0000
1000
0100
1000
0000
0010
0000
0100
0000
,  // measure 35
2001
0000
3100
0010
0001
0100
0110
1001
,  // measure 36
1000
0000
0100
1000
0100
0000
0010
0000
0001
0010
0001
0000
0100
0010
0100
0010
,  // measure 37
2000
0000
3100
0001
0100
1000
0100
0010
,  // measure 38
0002
0000
0103
1000
0100
0001
0100
0010
,  // measure 39
2000
0000
3100
0001
1000
0010
0100
1000
,  // measure 40
0002
0000
0103
1000
0001
0010
0100
0001
,  // measure 41
2001
0000
0000
3100
0010
0000
0100
0000
2000
0000
0000
3100
0010
0000
0001
0000
,  // measure 42
2000
0000
0000
3010
0100
0000
0010
0000
1000
0100
0000
0010
0001
0000
1000
0000
,  // measure 43
1002
0000
0000
0103
0010
0000
0100
0000
0002
0000
0000
0103
0010
0000
1000
0000
,  // measure 44
0002
0000
0000
0013
0100
0000
0010
0000
0001
0100
0000
0010
1000
0000
0001
0000
,  // measure 45
1000
0100
1000
0100
1000
0100
1000
0100
0010
0001
0010
0001
0010
0001
0010
0001
,  // measure 46
0100
0010
0100
0010
0100
0010
0100
0010
1000
0001
1000
0001
1000
0001
1000
0001
,  // measure 47
0010
0100
0010
0100
1000
0010
1000
0010
0100
0001
0100
0001
1000
0100
0010
0001
,  // measure 48
2000
0000
3010
1000
0002
0000
0013
0001
0200
0000
0310
1000
0002
0000
0000
0000
,  // measure 49
1003
0000
0010
0100
0010
0000
1000
0000
0001
0000
1000
0100
1000
0000
0001
0000
,  // measure 50
0100
0000
0010
1000
0010
0000
0100
0000
0001
0000
0011
0000
0100
0000
1100
0000
,  // measure 51
1000
0000
0010
0100
0001
0000
1000
0000
0100
0000
0010
0001
0010
0000
0100
0000
,  // measure 52
1000
0000
0010
0100
0001
0000
1000
0000
0001
0000
0010
0100
0010
0000
0001
0000
,  // measure 53
1000
0000
0001
0100
0001
0000
1000
0000
0100
0000
0010
0001
0010
0000
0100
0000
,  // measure 54
1000
0000
1010
0000
0100
0000
0101
0000
0001
0000
0010
0100
1000
0000
0001
0000
,  // measure 55
0100
0000
0010
1000
0010
0000
0100
0000
0001
0000
0010
0100
1000
0000
0001
0000
,  // measure 56
0100
0000
0110
0000
0010
1000
0001
1000
0001
0000
0010
0100
0010
0000
0001
0000
,  // measure 57
1001
0000
1000
0010
0100
0000
0110
0000
0101
0000
0001
1000
0001
0000
0010
0000
,  // measure 58
0110
0000
1000
0001
0100
0000
0010
0000
1000
0000
0010
0100
0010
0000
1000
0000
,  // measure 59
1001
0000
0001
0010
0100
0000
0110
0000
1100
0000
1000
0001
1000
0000
0010
0000
,  // measure 60
0110
0000
0001
1000
0001
0010
0100
0000
1000
0000
0010
0100
1000
0000
0100
0000
,  // measure 61
0010
0000
1000
0001
0010
0000
0100
0000
1000
0000
0001
1000
0010
0000
0100
0000
,  // measure 62
0001
0000
1001
0000
1000
0000
1001
0000
0001
0000
0010
0100
0001
0000
0100
0000
,  // measure 63
0010
0000
0001
1000
0010
0000
0100
0000
0001
0000
1000
0001
0010
0000
0100
0000
,  // measure 64
1000
0001
1000
0010
0001
0000
0000
0000
0220
0000
0000
0000
0000
0000
0000
0000
,  // measure 65
0000
0000
0000
0000
,  // measure 66
0000
0000
0000
0000
,  // measure 67
0000
0000
0000
0000
,  // measure 68
0000
0000
0330
0000
;
