#TITLE:Sense;
#SUBTITLE:;
#ARTIST:good-cool;
#TITLETRANSLIT:;
#SUBTITLETRANSLIT:;
#ARTISTTRANSLIT:;
#GENRE:RAVE;
#CREDIT:;
#BANNER:Sense.png;
#BACKGROUND:Sense-bg.png;
#LYRICSPATH:;
#CDTITLE:cdtitle.png;
#MUSIC:Sense.ogg;
#OFFSET:-0.010000;
#SAMPLESTART:22.164000;
#SAMPLELENGTH:15.000000;
#SELECTABLE:YES;
#BPMS:0.000000=130.000000
;
#STOPS:
;
#BGCHANGES:0.000=Sense.avi=1.000=0=0=0=StretchNoLoop==CrossFade_Fastest==,
99999=-nosongbg-=1.000=0=0=0 // don't automatically add -songbackground-
;
#KEYSOUNDS:;
#ATTACKS:;

//---------------dance-single - Daff_4K----------------
#NOTES:
     dance-single:
     Daff_4K:
     Beginner:
     3:
     0.129589,0.179634,0.057292,0.000000,0.000000,95.000000,89.000000,6.000000,0.000000,0.000000,0.000000,0.129589,0.179634,0.057292,0.000000,0.000000,95.000000,89.000000,6.000000,0.000000,0.000000,0.000000:
0000
0000
0000
0000
,
0000
0000
0000
0000
,
0000
0000
0000
0000
,
0000
0000
0000
0000
,
1000
0000
0010
0000
,
1000
0000
1000
0000
,
0001
0000
0010
0000
,
0001
0000
0001
0000
,
1000
0000
0000
0010
,
0000
1000
0000
0000
,
0001
0000
0000
0010
,
0010
0000
0000
0000
,
0001
0000
0000
0100
,
0000
0010
0000
0000
,
1000
0000
0000
0100
,
0000
0010
0000
0000
,
0001
0001
0000
0000
,
1000
1000
0000
0000
,
0010
0010
0000
0000
,
0100
0100
0000
0000
,
0001
0000
1000
0000
,
0000
0000
1001
0000
,
1000
0000
0001
0000
,
0000
0000
0000
0000
,
1001
0000
0000
0000
,
0110
0000
0000
0000
,
0100
0000
0100
0000
,
0010
0000
0010
0000
,
0110
0000
0000
0000
,
1001
0000
0000
0000
,
0001
0000
0001
0000
,
1000
0000
1000
0000
,
0001
0000
0000
0010
,
0010
0000
0000
0100
,
0100
0000
0000
1000
,
1000
0000
0000
0001
,
0001
0000
0100
0000
,
0001
0000
1000
0000
,
0100
0000
1000
0000
,
0001
0000
0000
0000
,
0001
0000
0000
1000
,
1000
0000
0010
0000
,
1000
0000
0000
0001
,
0001
0000
0010
0000
,
0100
0000
0100
0000
,
1000
0000
0001
0000
,
0100
0000
0100
0000
,
0001
0000
1000
0000
,
1001
0000
0000
0000
,
0000
0000
0000
0000
,
0001
0001
0000
1000
,
1000
1000
0000
0001
,
0001
0001
0000
0100
,
0100
0100
0000
0010
;

//---------------dance-single - Daff_4K----------------
#NOTES:
     dance-single:
     Daff_4K:
     Easy:
     5:
     0.225075,0.256620,0.085938,0.000000,0.000000,165.000000,156.000000,9.000000,0.000000,0.000000,0.000000,0.225075,0.256620,0.085938,0.000000,0.000000,165.000000,156.000000,9.000000,0.000000,0.000000,0.000000:
0000
0000
0000
0000
,
0000
0000
0000
0000
,
0000
0000
0000
0000
,
0000
0000
0000
0000
,
1000
0000
0001
0100
,
1000
0000
1000
0010
,
0001
0000
1000
0100
,
0001
0000
0001
0010
,
1000
0100
0000
0001
,
0100
1000
0000
1000
,
0001
0100
0000
1000
,
0100
0000
0000
0000
,
0001
0010
0000
0010
,
1000
0100
0000
0001
,
1000
0010
0000
0010
,
0001
0100
0000
1000
,
0001
0100
1000
0100
,
0001
0010
0100
0100
,
1000
0100
0001
0100
,
1000
0010
0100
0100
,
0001
0000
1000
0100
,
1000
0000
0001
1001
,
1000
0000
0001
0100
,
0001
0000
0000
0000
,
1000
0100
0001
0000
,
0001
0010
1000
0000
,
0100
0010
0110
0000
,
0001
1000
1001
0000
,
0001
0100
1000
0000
,
1000
0010
0001
0000
,
0100
0010
0110
0000
,
1000
0001
1001
0000
,
1000
0100
0010
0100
,
1000
0001
0100
0100
,
0001
0100
0010
0100
,
0001
1000
0100
0100
,
1000
0001
0100
1000
,
0001
1000
0100
0001
,
0010
1000
0010
0001
,
1001
0000
0000
0000
,
1000
0010
0000
0010
,
1000
0100
0100
0010
,
0001
0010
0000
0010
,
0001
0100
0100
0010
,
1000
0000
0100
0000
,
0001
0100
1000
1001
,
0001
0000
0100
0000
,
1000
0100
0001
1001
,
0110
0000
0000
0000
,
0000
0000
0000
0000
,
1000
1000
0010
0100
,
0001
0001
0010
0100
,
1000
1000
0001
0100
,
0001
0001
1000
0100
;

//---------------dance-single - Daff_4K----------------
#NOTES:
     dance-single:
     Daff_4K:
     Medium:
     8:
     0.319197,0.333993,0.190973,0.000000,0.186198,234.000000,214.000000,20.000000,0.000000,0.000000,0.000000,0.319197,0.333993,0.190973,0.000000,0.186198,234.000000,214.000000,20.000000,0.000000,0.000000,0.000000:
0000
0000
0000
0000
,
0000
0000
0000
0000
,
0000
0000
0000
0000
,
0000
0000
0000
0000
,
1000
0000
0000
0100
0000
0000
1000
0000
0000
0000
0001
0000
0000
0000
1000
0000
,
0010
0000
0000
0100
0000
0000
0010
0000
0000
0000
0010
0000
1000
0000
0000
0000
,
0001
0000
0000
0100
0000
0000
0001
0000
0000
0000
1000
0000
0000
0000
0001
0000
,
0010
0000
0000
0100
0000
0000
0010
0000
0000
0000
0010
0000
0001
0000
0000
0000
,
1000
0000
0000
0000
0100
0000
0000
0000
0000
0000
0001
0000
0000
0100
0000
0000
,
1000
0000
0000
0000
0010
0000
0000
0000
0000
0000
0010
0000
0000
0100
0000
0000
,
0001
0000
0000
0000
0100
0000
0000
0000
0000
0000
1000
0000
0000
0100
0000
0000
,
0010
0010
0100
0100
,
0001
0000
0000
0000
0010
0000
0000
0000
0100
0000
1000
0000
0000
0001
0000
0000
,
1000
0000
0000
0000
0001
0000
0000
0000
0100
0000
0010
0000
0000
0010
0000
0000
,
1000
0000
0000
0000
0010
0000
0000
0000
0100
0000
0001
0000
0000
1000
0000
0000
,
0001
0000
0000
0000
1000
0000
0000
0000
0100
0000
0010
0000
0000
0010
0000
0000
,
0001
0000
0000
0100
0000
0000
1000
0000
0000
0000
0100
0000
0000
0000
0001
0000
,
0010
0000
0000
0100
0000
0000
1000
0000
0000
0000
0010
0000
0100
0000
0010
0000
,
1000
0000
0000
0100
0000
0000
0001
0000
0000
0000
0100
0000
0000
0000
1000
0000
,
0010
0000
0000
0100
0000
0000
0001
0000
0000
0000
0010
0000
0100
0000
0010
0000
,
0001
0000
1000
0010
1000
0000
0001
0000
,
0010
0000
0110
1001
,
1000
0000
0001
0010
0001
0000
1000
0000
,
0010
0000
0000
0000
,
1010
0101
1001
0000
,
1100
0011
1001
0000
,
1000
0000
0000
0010
0000
0000
1000
0000
0000
0010
0000
0000
0000
0000
0000
0000
,
0100
0000
0000
0001
0000
0000
0100
0000
0000
0001
0000
0000
0000
0000
0000
0000
,
0011
1100
1001
0000
,
0101
1010
1001
0000
,
0001
0000
0000
0010
0000
0000
0001
0000
0000
0010
0000
0000
0000
0000
0000
0000
,
0100
0000
0000
1000
0000
0000
0100
0000
0000
1000
0000
0000
0000
0000
0000
0000
,
1000
0000
0010
0000
0100
0000
0010
1000
,
0010
0000
1000
0000
0100
0000
0100
1000
,
0001
0000
0010
0000
0100
0000
0010
0001
,
0010
0000
0001
0000
0100
0000
0100
0001
,
1000
0001
0100
0101
,
1000
0100
1100
0001
,
0011
1000
1010
0001
,
1001
0000
0000
0000
,
1000
0000
0000
0010
0000
0000
0100
0000
0000
0000
0010
0000
1000
0000
0000
0000
,
0001
0000
0000
1000
0000
0000
0100
0000
0000
0000
0010
0000
0001
0000
1000
0000
,
0001
0000
0000
0010
0000
0000
0100
0000
0000
0000
0010
0000
0001
0000
0000
0000
,
1000
0000
0000
0001
0000
0000
0100
0000
0000
0000
0010
0000
1000
0000
0001
0000
,
1000
0100
0001
0100
,
1000
0000
0000
1000
0000
0000
0100
0000
0000
0100
0000
0000
0010
0000
0000
0000
,
0001
0100
1000
0100
,
0001
0000
0000
0001
0000
0000
0100
0000
0000
0100
0000
0000
0010
0000
0000
0000
,
1001
0000
0000
0000
,
0000
0000
0000
0000
,
1000
0000
0000
0100
0000
0000
1000
0000
0000
0000
0100
0000
0000
0010
0000
0000
,
0001
0000
0000
0100
0000
0000
0001
0000
0000
0000
0100
0000
0000
0010
0000
0000
,
1000
0000
0000
0001
0000
0000
1000
0000
0000
0000
0001
0000
0000
0010
0000
0000
,
0100
0000
0000
0010
0000
0000
0100
0000
0000
0000
1000
0000
0000
0001
0000
0000
;

//---------------dance-single - Daff_4K----------------
#NOTES:
     dance-single:
     Daff_4K:
     Hard:
     11:
     0.428325,0.463527,0.219619,0.000000,0.286459,314.000000,291.000000,23.000000,0.000000,0.000000,0.000000,0.428325,0.463527,0.219619,0.000000,0.286459,314.000000,291.000000,23.000000,0.000000,0.000000,0.000000:
0000
0000
0000
0000
,
0000
0000
0000
0000
,
0000
0000
0000
0000
,
0110
1001
0110
1001
,
1000
0000
0000
0100
0000
0000
0001
0000
0000
0000
0010
0000
0001
0000
0100
0000
,
1000
0000
0000
0010
0000
0000
0100
0000
0000
0010
1000
0000
0100
0000
0010
0000
,
0001
0000
0000
0100
0000
0000
1000
0000
0000
0000
0010
0000
1000
0000
0100
0000
,
0001
0000
0000
0010
0000
0000
0100
0000
0000
0010
0001
0000
1000
0000
0001
0000
,
0101
0000
0000
0000
1010
0000
0000
0000
1000
0000
0001
0000
0000
0010
0000
0000
,
0100
0000
0000
0000
1001
0000
0000
0000
1000
0000
0001
0000
0000
1000
0000
0000
,
1100
0000
0000
0000
0011
0000
0000
0000
0001
0000
1000
0000
0000
0010
0000
0000
,
0110
0110
1001
1001
,
0001
0000
0100
0000
0010
0000
0000
0000
0010
0000
1000
0000
0000
0001
0000
0000
,
1000
0000
0100
0000
0001
0000
0000
0000
0100
0000
0010
0000
0000
0001
0000
0000
,
1000
0000
0100
0000
0010
0000
0000
0000
0010
0000
0001
0000
0000
1000
0000
0000
,
0001
0000
0100
0000
1000
0000
0000
0000
0100
0000
0010
0000
0000
1000
0000
0000
,
0001
0000
0000
1000
0000
0000
0100
1000
0000
0000
0001
0000
0100
0000
1000
0000
,
0100
0000
0000
0001
0000
0000
1000
0100
0000
0000
0100
0000
0010
0000
0001
0000
,
1000
0000
0000
0001
0000
0000
0100
0001
0000
0000
1000
0000
0100
0000
0001
0000
,
0100
0000
0000
1000
0000
0000
0001
0100
0000
0000
0100
0000
0010
0000
1000
0000
,
0001
0000
1000
0100
0001
0000
0110
0000
,
1001
0000
0000
0000
0000
0000
0000
0000
0001
1000
0000
0000
1000
0001
0000
0000
,
1000
0000
0001
0100
1000
0000
0110
0000
,
1001
0000
0000
0000
,
1000
0100
0001
0100
1000
0000
1001
0000
,
1000
0100
0001
0100
1000
0000
1001
0000
,
0001
0000
0000
0100
0000
0000
1000
0000
0000
0010
0000
0000
0000
0000
0000
0000
,
1000
0000
0000
0100
0000
0000
0001
0000
0000
0010
0000
0000
0000
0000
0000
0000
,
0001
0100
1000
0100
0001
0000
1001
0000
,
0001
0100
1000
0100
0001
0000
1001
0000
,
1000
0000
0000
0100
0000
0000
0001
0000
0000
0010
0000
0000
0000
0000
0000
0000
,
0001
0000
0000
0100
0000
0000
1000
0000
0000
0010
0000
0000
0000
0000
0000
0000
,
1000
0000
0000
0100
0000
0000
0010
0000
0000
0001
0000
0000
1000
0000
0001
0000
,
1000
0000
0000
0010
0000
0000
0100
0000
0000
0010
0000
1000
0010
0000
0100
0000
,
0001
0000
0000
0100
0000
0000
0010
0000
0000
1000
0000
0000
0001
0000
1000
0000
,
0001
0000
0000
0010
0000
0000
0100
0000
0000
0010
0000
0001
0010
0000
0100
0000
,
1000
0000
0001
0100
1000
0000
0001
0000
,
1000
0100
0001
0000
1000
0000
0001
0010
,
0100
0000
1000
0010
0100
0000
0001
0000
,
1001
0000
0000
0000
,
1000
0000
0100
1000
0000
0100
0010
0000
0000
0000
0010
0000
0001
0000
0100
0000
,
0010
0000
1000
0001
0000
1000
0001
0000
0010
0000
0100
0000
1000
0000
0000
0000
,
0001
0000
0100
0001
0000
0100
0010
0000
0000
0000
0010
0000
1000
0000
0100
0000
,
0010
0000
0001
1000
0000
0001
1000
0000
0010
0000
0100
0000
0001
0000
1000
0000
,
0001
0000
1000
0010
0100
0000
0010
1000
,
0100
0000
0000
0001
0000
0000
1000
0000
0000
0010
0000
0001
1000
0000
0001
0000
,
1000
0000
0001
0010
0100
0000
0010
0001
,
0100
0000
0000
1000
0000
0000
0001
0000
0000
0010
0000
1000
0001
0000
1000
0000
,
1001
0000
0000
0000
,
0000
0000
0000
0000
,
0001
0000
0100
0000
1000
0000
0100
0000
0001
0000
0100
0000
0000
0010
0000
0000
,
1000
0000
0100
0000
0001
0000
0100
0000
1000
0000
0010
0000
0000
0100
0000
0000
,
0010
0000
1000
0000
0100
0000
1000
0000
0010
0000
0100
0000
0000
0001
0000
0000
,
0010
0000
0001
0000
0100
0000
0001
0000
0010
0000
0100
0000
1000
0001
1000
0001
;

//---------------dance-single - Daff_4K 2000----------------
#NOTES:
     dance-single:
     Daff_4K 2000:
     Challenge:
     13:
     0.563370,0.566532,0.267362,0.000000,0.587241,413.000000,385.000000,28.000000,0.000000,0.000000,0.000000,0.563370,0.566532,0.267362,0.000000,0.587241,413.000000,385.000000,28.000000,0.000000,0.000000,0.000000:
// measure 0
0000
0000
0000
0000
,  // measure 1
0000
0000
0000
0000
,  // measure 2
0000
0000
0000
0000
,  // measure 3
0110
1001
0110
1001
,  // measure 4
0001
0000
1000
0100
0000
0100
0010
0000
0000
0000
0001
0000
0100
0000
1000
0000
,  // measure 5
0100
0000
0001
1000
0000
0001
1000
0000
0100
0010
0100
0000
0010
0000
0001
0000
,  // measure 6
1000
0000
0001
0100
0000
0100
0010
0000
0000
0000
1000
0000
0100
0000
0001
0000
,  // measure 7
0100
0000
1000
0001
0000
1000
0001
0000
0100
0001
0100
0000
0010
0000
1000
0000
,  // measure 8
1100
0000
0000
0000
0011
0000
0000
0000
0001
0000
0100
0000
0000
0110
0000
0000
,  // measure 9
1001
0000
0000
0000
1100
0000
0000
0000
0010
0000
0001
0000
1000
0001
0000
0000
,  // measure 10
0101
0000
0000
0000
1010
0000
0000
0000
1000
0000
0001
0000
0000
1001
0000
0000
,  // measure 11
1000
0000
1000
0000
0001
0000
0001
0010
0100
0000
1000
0000
0001
1000
0001
0000
,  // measure 12
1000
0100
0000
0100
1000
0000
1000
0001
0000
0000
1000
0000
0010
0000
0100
0000
,  // measure 13
0001
1000
0000
1000
0100
0000
0100
0010
0000
0000
0010
0000
0001
0000
1000
0000
,  // measure 14
0001
0100
0000
0100
0001
0000
0001
1000
0000
0000
0001
0000
0010
0000
0100
0000
,  // measure 15
1000
0001
0000
0001
0100
0000
0100
0010
0000
0000
0010
0000
1000
0000
0001
0000
,  // measure 16
0011
0000
0000
1100
0000
0000
1000
0001
0000
0000
1000
0000
0010
0000
0100
0000
,  // measure 17
0001
0000
0000
1001
0000
0000
1000
0001
0000
0001
0000
0100
0000
0100
0010
0000
,  // measure 18
1010
0000
0000
0101
0000
0000
0001
1000
0000
0000
0001
0000
0010
0000
0100
0000
,  // measure 19
1000
0000
0000
1001
0000
0000
0001
1000
0000
1000
0000
0100
0000
0100
0010
0000
,  // measure 20
0001
0100
1000
0100
0001
0000
0110
0000
,  // measure 21
1001
0000
0000
0000
0011
0000
0000
0100
1000
0000
0000
1000
0001
0000
0000
0000
,  // measure 22
1000
0100
0001
0100
1000
0000
0110
0000
,  // measure 23
1001
0000
0000
0000
0000
0000
0000
0000
0000
0000
0000
0000
0001
1000
0001
1000
,  // measure 24
0001
0100
0100
1000
0001
0000
0110
0000
,  // measure 25
0001
0100
0100
1000
0001
0000
0110
0000
,  // measure 26
0001
0100
0000
0001
0100
0000
0010
0100
0000
0010
0100
0000
0000
0000
0000
0000
,  // measure 27
0010
1000
0000
0010
1000
0000
0001
1000
0000
0001
1000
0000
0000
0000
0000
0000
,  // measure 28
1000
0100
0100
0001
1000
0000
0110
0000
,  // measure 29
1000
0100
0100
0001
1000
0000
0110
0000
,  // measure 30
1000
0100
0000
1000
0100
0000
0010
0100
0000
0010
0100
0000
0000
0000
0000
0000
,  // measure 31
0010
0001
0000
0010
0001
0000
1000
0001
0000
1000
0001
0000
0000
0000
0000
0000
,  // measure 32
0001
0000
0010
0100
0000
0000
0010
0000
0000
0001
0000
1000
0001
0000
0100
0000
,  // measure 33
0010
0000
1000
0001
0000
0000
1000
0000
0000
0100
0000
0100
0010
0000
0001
0000
,  // measure 34
1000
0000
0010
0100
0000
0000
0010
0000
0000
1000
0000
0001
1000
0000
0100
0000
,  // measure 35
0010
0000
0001
0000
0100
0000
0010
0000
1000
0001
1000
0001
0010
0000
0100
0000
,  // measure 36
1000
0000
0000
0001
0100
0000
1000
0000
0100
0000
0000
0000
0001
0000
0000
1000
,  // measure 37
0100
0000
0001
0000
0100
0000
0000
0000
1000
0000
0000
1000
0010
0000
0100
0000
,  // measure 38
0001
0000
0000
0001
0010
0000
0100
0000
1000
0000
0000
0000
0001
0000
0000
0000
,  // measure 39
0100
0000
0010
0100
0010
0000
0000
0000
1000
0001
0000
1000
0001
0000
1000
0000
,  // measure 40
0001
0000
0010
0100
0000
0001
0000
0100
1000
0000
0001
0000
1000
0000
0010
0000
,  // measure 41
0100
0000
0001
1000
0000
0001
0000
0010
0000
0000
0100
0000
0010
0000
0001
0000
,  // measure 42
1000
0000
0010
0100
0000
1000
0000
0100
0001
0000
1000
0000
0001
0000
0010
0000
,  // measure 43
0100
0000
1000
0001
0000
1000
0000
0010
0000
0000
0100
0000
0001
1000
0001
0000
,  // measure 44
1000
0000
0100
0010
0000
0010
0001
0000
1000
0000
0010
0100
0000
0100
0001
0000
,  // measure 45
1000
0000
0000
0100
0000
0000
0001
0000
0000
0010
0000
0000
1000
0001
1000
0000
,  // measure 46
0001
0000
0100
0010
0000
0010
1000
0000
0001
0000
0010
0100
0000
0100
1000
0000
,  // measure 47
0001
0000
0000
0100
0000
0000
1000
0000
0000
0010
0000
0000
0001
0000
1000
0000
,  // measure 48
1001
0000
0000
0000
,  // measure 49
0000
0000
0000
0000
,  // measure 50
0001
0100
0000
0100
0010
0000
0010
1000
0000
1000
0001
0000
0010
0000
0100
0000
,  // measure 51
1000
0010
0000
1000
0010
0000
0100
0001
0000
0100
0001
0000
0010
0000
0100
0000
,  // measure 52
1000
0010
0000
0010
0100
0000
0100
0001
0000
0001
1000
0000
0100
0000
0010
0000
,  // measure 53
0001
0100
0000
0001
0100
0000
0010
1000
0000
0010
1000
0000
0100
0010
0100
0010
;
