#VERSION:0.83;
#TITLE:千年ノ理;
#SUBTITLE:;
#ARTIST:猫叉Master;
#TITLETRANSLIT:;
#SUBTITLETRANSLIT:;
#ARTISTTRANSLIT:;
#GENRE:;
#CREDIT:;
#MUSIC:Sennen no kotowari.ogg;
#BANNER:Sennen no kotowari.png;
#BACKGROUND:Sennen no kotowari-bg.png;
#CDTITLE:;
#SAMPLESTART:78.039;
#SAMPLELENGTH:15.000;
#SELECTABLE:YES;
#OFFSET:0.000;
#BPMS:0.000=153.000;
#STOPS:;
#JACKET:;
#DISCIMAGE:;
#CDIMAGE:;
#BGCHANGES:;
#FGCHANGES:;

//--------------- dance-single - DS XO ----------------
#NOTEDATA:;
#STEPSTYPE:dance-single;
#DESCRIPTION:DS XO;
#DIFFICULTY:Hard;
#METER:12;
#RADARVALUES:0,0,0,0,0;
#CHARTNAME:;
#CHARTSTYLE:;
#CREDIT:Talkion;
#METERF:12;
#NOTES:
0000
0000
0000
0000
,
0000
0000
0000
0000
,
0000
0000
0000
0000
,
0000
0000
0000
0000
,
0000
0000
0000
0000
,
0000
0000
0000
0000
0000
0000
1000
0100
,
0020
0000
0000
0031
1000
0100
1000
0010
,
0100
0001
0100
0010
1000
0000
0001
0010
,
0100
0000
1000
0001
0100
0010
0100
0001
,
2000
0100
3001
1001
,
1000
0010
0100
0000
0001
1000
0100
0000
,
1000
0010
0100
0010
1000
0001
0100
0001
,
0010
0100
1000
0000
0100
0010
0001
0000
,
1000
0010
0100
0001
0010
0001
1000
0010
,
1000
0100
0020
0000
0031
1000
0020
0000
,
1030
0100
0010
0100
1000
0001
0010
0001
,
0100
0010
2000
0000
3010
0100
0002
0000
,
1003
0100
0010
0100
1000
0010
0200
0000
,
1300
0000
0100
0000
0001
0010
0200
0001
,
0000
0310
0001
0000
1000
0010
0200
1000
,
0000
0310
1000
0000
0001
0010
0200
1000
,
0000
0310
0001
0100
0010
1000
0200
0000
,
0301
0000
0100
0010
0001
0200
0010
0000
,
2300
0000
3100
0010
1000
0100
0020
1000
,
0000
0130
1000
0001
0100
0010
2000
0000
,
3100
0010
1000
0001
0100
0010
0001
0000
,
1000
0010
1000
0010
0100
0001
1000
0100
,
1000
0010
0100
0001
2000
0100
3002
0003
,
1000
0100
1000
0100
0010
0001
1000
0010
,
1000
0100
0010
0001
0100
0010
0001
0000
,
0010
0100
0010
0100
0001
1000
0100
1000
,
0010
0100
0001
1000
0100
1000
0001
0000
,
0010
0100
0010
0100
1000
0001
0100
0001
,
0010
0100
1000
0010
0100
0010
0001
0000
,
0210
0000
0000
0301
1000
0000
0100
0010
,
0002
0000
0010
0000
1003
0010
0100
0001
,
0020
0000
0000
0031
1000
0000
0010
0100
,
0002
0000
0100
0000
1003
0000
0100
0010
,
2000
0000
3000
0010
0100
0000
1000
0000
,
0001
0100
0010
0000
1000
0000
0002
0000
,
0010
0000
2003
0000
3010
0100
1000
0100
,
0020
0100
1030
0100
,
0210
0000
1300
0001
0100
0010
0100
0001
,
2000
0000
0010
0000
3001
0010
0100
1000
,
0020
0000
1030
0001
0100
0001
0010
0100
,
2000
0000
0100
0000
3001
0000
0100
0010
,
0002
0000
0013
0100
0001
1000
0010
1000
,
0001
0010
0100
0010
0001
0000
1000
0010
,
0100
0000
0001
1000
0100
0010
0100
1000
,
0002
0000
0100
0000
1003
0000
0100
0010
,
0011
0000
2100
0000
3001
0100
0010
0100
,
0002
0000
0013
0100
0200
0000
1300
0001
,
0101
0000
1020
0000
0031
0010
0100
0010
,
2000
0000
3001
0010
0020
0100
0031
0000
,
1001
0000
1020
0000
0130
0001
0010
0001
,
0200
0000
0310
1000
2000
0000
3001
0000
,
1000
0100
0010
1000
0010
0100
1000
0010
,
0110
0000
1001
0000
2000
0100
3001
0000
,
1010
0000
0102
0000
1003
0100
0010
0100
,
2000
0000
3010
0100
0200
0000
0301
1000
,
1100
0000
0021
0000
1030
0010
0100
0010
,
0002
0000
1003
0010
0020
0100
1030
0000
,
1001
0000
0021
0000
0130
1000
0010
1000
,
0200
0000
0310
0001
0002
0000
1003
0000
,
0001
0100
0001
0100
0010
1000
0100
0000
,
1000
0001
0100
0010
0100
0001
1000
0001
,
0010
0100
0010
0001
1000
0010
0100
0010
,
1000
0001
1000
0100
0010
0100
1000
0000
,
0001
1000
0010
0100
1000
0100
0010
1000
,
0100
0010
0100
1000
0001
0100
0010
0100
,
0001
0010
0100
0001
0100
0010
0001
0000
,
1002
0000
0000
0100
0000
0000
2003
0000
0000
0010
0000
0000
3002
0000
0000
0010
,
0000
0000
2003
0000
0000
3100
0000
0000
0210
0000
0000
1300
0000
0000
0120
0000
,
0000
0031
0000
0000
0102
0000
0000
0013
0000
0000
2010
0000
0000
3100
0000
0000
,
0201
0000
0000
0001
0000
0000
0010
0000
0000
2300
0000
0000
3001
0000
0010
0000
,
2000
0000
0000
0000
,
0000
0000
0000
0000
,
0000
0000
0000
0000
,
0000
0000
0000
0000
,
3000
0000
0000
0000
;

//--------------- dance-single - DS- XO- ----------------
#NOTEDATA:;
#STEPSTYPE:dance-single;
#DESCRIPTION:DS- XO-;
#DIFFICULTY:Challenge;
#METER:14;
#RADARVALUES:0,0,0,0,0;
#CHARTNAME:;
#CHARTSTYLE:;
#CREDIT:Talkion;
#METERF:14;
#NOTES:
0000
0000
0000
0000
,
0000
0000
0000
0000
,
0000
0000
0000
0000
,
0000
0000
0000
0000
,
0000
0000
0000
0000
,
0000
0000
0000
0000
0000
0000
1000
0100
,
0020
0000
0000
0000
0031
0000
1000
0010
1000
0000
0100
0000
0010
0000
0100
0000
,
1000
0000
0001
0010
0001
0000
0100
0000
0010
0000
0000
0000
1000
0000
0001
0000
,
0010
0000
0001
0100
0010
1000
0100
1000
,
0001
0100
0001
0010
0110
0000
1001
0000
,
0001
0000
0100
0010
0000
0000
1000
0000
0002
0000
0010
0000
2003
0000
0100
0000
,
3001
0000
0100
0010
0000
0000
1000
0000
0002
0000
0010
0000
2003
0000
0001
0000
,
3100
0000
0010
0100
0000
0000
1000
0000
0002
0000
0100
0000
2003
0000
0010
0000
,
3001
1000
0100
1000
0010
0100
0002
0010
,
1003
0000
0001
1000
0001
0000
0100
0000
0010
0100
0001
0000
1000
0000
0000
0000
,
0100
0000
0010
0001
0010
0000
0100
0000
2000
0000
0010
0000
3002
0000
1000
0000
,
0103
0000
0001
1000
0001
0000
0010
0000
0100
0010
0001
0000
1000
0000
0000
0000
,
0100
0000
1000
0010
0100
0000
0001
0000
1000
0100
0010
0000
0021
0000
0000
0000
,
1030
0000
0000
0010
0100
0000
1000
0000
0001
0000
0100
0000
0001
0000
0010
0000
,
1000
0000
0000
0010
0100
0000
1000
0000
0001
0000
0100
0010
1000
0010
0100
0000
,
1000
0000
0000
0100
0010
0000
1000
0000
0001
0000
0010
0000
0001
0000
0100
0000
,
1000
0000
0000
0100
0010
0000
1000
0001
0010
0001
1000
0000
0200
0000
0000
0000
,
0301
0000
0000
0100
0010
0000
0001
0000
1000
0010
1000
0000
0200
0000
0000
0000
,
0301
0000
0000
0100
0010
0000
0001
0000
2000
0000
0010
0000
3001
0100
0010
0000
,
0001
0000
0000
0010
0100
0000
0001
0000
1000
0100
1000
0000
0020
0000
0000
0000
,
0031
0000
1000
0000
0100
0000
0001
0000
0010
0100
0010
0000
0002
0000
0100
0000
,
1003
0000
0001
0010
0001
0000
1000
0010
1000
0000
0001
0010
0200
0000
0010
0000
,
1300
0000
0001
0010
0200
0000
0010
0000
1300
0000
0100
1000
0020
0000
0030
0000
,
1000
0000
0001
0100
0001
0000
1000
0100
1000
0000
0001
0100
0020
0000
0100
0000
,
1030
0000
0001
0100
0020
0000
0100
0000
2030
0000
0010
0000
3001
0000
0000
0000
,
1001
0000
1000
0100
1000
0000
0001
0100
0001
0000
1000
0100
0020
0000
0100
0000
,
0031
0000
1000
0100
0020
0000
0100
0000
0032
0000
0010
0000
1003
0000
0000
0000
,
0001
0000
1000
0010
1000
0000
0001
0010
0001
0000
1000
0010
0200
0000
0010
0000
,
0301
0100
0001
0000
0010
0100
1000
0000
0010
0100
0001
0000
1001
0000
0000
0000
,
2100
0000
0000
0000
0000
0000
3001
0000
0100
0000
0010
1000
0010
0000
0100
0000
,
0002
0000
1000
0000
0013
0100
0010
0001
,
0200
0000
0000
0000
0000
0000
0310
0000
1000
0000
0100
0010
0100
0000
1000
0000
,
0002
0000
0100
0000
1003
0000
0100
0010
,
2000
0000
0000
0000
3000
0000
0010
0100
0010
0000
0001
0000
0100
0000
0010
0000
,
1000
0000
0100
0010
0100
0000
1000
0000
0001
0000
0000
0000
0100
0000
0010
0000
,
1000
0000
0100
0010
0001
0100
1000
0100
,
0002
0000
0000
0000
0100
0000
0000
0000
1003
0000
0001
0010
0100
0000
0000
0000
,
2100
0000
0000
0000
3001
0000
1000
0000
0010
0000
0100
0001
0100
0000
0010
0000
,
2000
0000
0001
0000
3100
0010
0100
1000
,
0020
0000
0000
0000
0130
0000
0001
0000
0010
0000
0100
1000
0100
0000
0010
0000
,
0002
0000
0010
0000
1003
0010
0100
0020
,
0001
0000
0000
0000
0130
0000
0001
1000
0001
0000
0010
0000
0100
0000
0010
0000
,
0001
0000
1000
0100
1000
0000
0010
0000
0100
0000
0000
0000
0001
0000
1000
0000
,
0100
0000
1000
0010
0100
0001
0010
0001
,
1000
0000
0010
0000
2000
0000
0100
0000
3001
0000
0000
0000
1000
0010
0100
0001
,
1000
0000
0000
1000
0100
0000
0000
0100
0010
0000
0001
1000
0002
0000
0100
0000
,
1003
0000
0000
0100
0010
0000
0001
0000
0002
0000
0000
0000
1003
0000
0100
1000
,
0001
0000
0000
0001
0100
0000
0000
0100
1000
0000
0100
0010
0200
0000
0010
0000
,
0301
0000
1000
0000
0100
0000
1000
0001
1000
0000
0010
0100
0001
0000
0000
0000
,
1000
0000
0000
1000
0100
0000
0000
0100
0001
0000
0100
0010
0200
0000
0010
0000
,
1300
0000
0000
0001
0100
0000
0010
0000
0020
0000
0000
0000
1030
0000
0000
0000
,
0001
0000
0010
0100
0010
0000
1000
0000
0010
0000
0100
0000
1000
0001
1000
0000
,
0010
0000
0100
0000
0001
0000
1000
0100
1000
0000
0001
0100
0010
0000
0000
0000
,
1001
0000
0000
0001
0010
0000
0000
0010
0100
0000
1000
0001
2000
0000
0010
0000
,
3001
0000
0000
0010
0100
0000
1000
0000
2000
0000
0000
0000
3001
0000
0010
0001
,
1000
0000
0000
1000
0010
0000
0000
0010
0001
0000
0010
0100
0020
0000
0100
0000
,
1030
0000
0001
0000
0010
0000
0001
1000
0001
0000
0100
0010
1000
0000
0000
0000
,
0001
0000
0000
0001
0010
0000
0000
0010
1000
0000
0010
0100
0020
0000
0100
0000
,
0031
0000
0000
1000
0010
0000
0100
0000
0200
0000
0000
0000
0301
0000
0000
0000
,
1000
0000
1100
0000
0001
0000
0101
0000
2000
0000
0100
0000
3001
0100
0010
0000
,
1000
0000
0001
0010
0200
0000
0010
0000
1300
0001
1000
0000
0010
0000
1000
0010
,
0200
0000
0010
0000
0301
1000
0001
0000
0010
0000
0001
0010
0200
0000
0010
0000
,
1300
0001
1000
0000
0010
0000
1000
0010
0200
0000
0010
0000
0301
0000
0000
0000
,
1000
0000
0100
0010
0002
0000
1000
0000
0103
0010
0100
0000
0001
0000
0100
0010
,
2000
0000
0001
0000
3100
0010
0100
0000
1000
0000
0100
0010
0002
0000
1000
0000
,
0103
0010
0100
0000
0001
0000
0100
0010
2000
0000
0001
0000
3100
0000
0000
0000
,
1002
0000
0000
0013
0100
0000
0001
0000
0100
0010
0000
0000
0001
0000
0000
0100
,
0010
0000
0001
0000
0010
0100
0000
0000
0102
0000
0000
0013
0000
0000
2010
0000
,
0000
3100
0000
0000
0101
0000
0001
0010
0100
0000
1100
0000
1000
0010
0100
0001
,
0010
0000
0000
0021
0000
0000
0100
0000
0000
2030
0000
0000
3001
0000
0100
0000
,
2000
0000
0000
0000
,
0000
0000
0000
0000
,
0000
0000
0000
0000
,
0000
0000
0000
0000
,
3000
0000
0000
0000
;
