#TITLE:Seize the Day;
#SUBTITLE:;
#ARTIST:Ruby Tuesday;
#TITLETRANSLIT:;
#SUBTITLETRANSLIT:;
#ARTISTTRANSLIT:;
#GENRE:EZ2Disco;
#CREDIT:;
#MUSIC:Seize the Day.ogg;
#BANNER:Seize the Day.png;
#BACKGROUND:;
#CDTITLE:cdtitle.png;
#SAMPLESTART:38.593;
#SAMPLELENGTH:13.999;
#SELECTABLE:YES;
#OFFSET:0.000;
#BPMS:0.000=120.100;
#STOPS:;
#BGCHANGES:-0.500=Seize the Day.avi=1.000=1=0=0=StretchNoLoop==CrossFade==;
#FGCHANGES:;

//--------------- dance-single - KAYSTAR ----------------
#NOTES:
     dance-single:
     KAYSTAR:
     Beginner:
     1:
     0,0,0,0,0:
0000
0000
0000
0000
,
0000
0000
0000
0000
,
0000
0000
0000
0000
,
0000
0000
0000
0000
,
0000
0000
1000
0000
,
0000
0000
1000
0000
,
0000
0000
0001
0000
,
0000
0000
0001
0000
,
0000
0000
0010
0000
,
0000
0000
0000
0000
,
0000
0000
0100
0000
,
0000
0000
1000
0000
,
0000
0000
0001
0000
,
0000
0000
0000
0000
,
0000
0000
0100
0000
,
0000
0000
0001
0000
,
0000
0000
1000
0000
,
0000
0000
0000
0000
,
0000
0000
0000
0000
,
0000
0000
0100
0000
,
0000
0000
0100
0000
,
0000
0000
0010
0000
,
0000
0000
0010
0000
,
0000
0000
0001
0000
,
0000
0000
0001
0000
,
0000
0000
1000
0000
,
0000
0000
1000
0000
,
0000
0000
0010
0000
,
0000
0000
0000
0000
,
0000
0000
0100
0000
,
0000
0000
0001
0000
,
0000
0000
1000
0000
,
0000
0000
0000
0000
,
0000
0000
0100
0000
,
0000
0000
1000
0000
,
0000
0000
0001
0000
,
0000
0000
0000
0000
,
0000
0000
0100
0000
,
0000
0000
0000
0000
,
0000
0000
0010
0000
,
0000
0000
0010
0000
,
0000
0000
1000
0000
,
0000
0000
1000
0000
,
0000
0000
0001
0000
,
0000
0000
0001
0000
,
0000
0000
0010
0000
,
0000
0000
0010
0000
,
0000
0000
1001
0000
;

//--------------- dance-single - KAYSTAR ----------------
#NOTES:
     dance-single:
     KAYSTAR:
     Easy:
     4:
     0,0,0,0,0:
0000
0000
0000
0000
,
0000
0000
0000
0000
,
0000
0000
0000
0000
,
0000
0000
0000
0000
,
0000
0000
1000
0000
,
1000
0000
0010
0000
,
0100
0000
0001
0000
,
0001
0000
1000
0000
,
0100
0000
0010
0000
,
0000
0000
0000
0000
,
0000
0000
0001
0000
,
0000
0000
0100
0000
,
0000
0000
0010
0000
,
0000
0000
1000
0000
,
1000
0000
0100
0000
,
0000
0000
0010
0000
,
0000
0000
0001
0000
,
0000
0000
1000
0000
,
0000
0000
0000
0000
,
0000
0000
0001
0000
,
1000
0000
0010
0000
,
0100
0100
0100
0000
,
0001
0000
1000
0000
,
0100
0100
0100
0000
,
0010
0000
0001
0000
,
1000
1000
1000
0000
,
0010
0000
0100
0000
,
0001
0001
0001
0000
,
0000
0000
0000
0000
,
0000
0000
1000
0000
,
0001
0000
0100
0000
,
0010
0010
0010
0000
,
1000
0000
0001
0000
,
0010
0010
0010
0000
,
0100
0000
1000
0000
,
0001
0001
0001
0000
,
0100
0000
0010
0000
,
0000
0000
1001
0000
,
0000
0000
0000
0000
,
0000
0000
1000
0000
,
0100
0000
0010
0010
,
0010
0000
0100
0000
,
1000
0000
0001
0001
,
0001
0000
1000
0000
,
0010
0000
0100
0100
,
0100
0000
0001
0000
,
0010
0000
0100
0000
,
1000
0000
1001
0000
;

//--------------- dance-single - KAYSTAR ----------------
#NOTES:
     dance-single:
     KAYSTAR:
     Medium:
     8:
     0,0,0,0,0:
0000
0000
0000
0000
,
0000
0000
0000
0000
,
0000
0000
0000
0000
,
0000
0000
0000
0000
,
0000
0000
0000
0000
1000
0000
0100
0010
,
0001
0000
1000
0000
0010
0100
0001
0000
,
0010
0000
0011
0000
0001
0000
1000
0010
,
0100
0000
0001
0000
1000
0100
0010
0000
,
0100
0010
0001
0000
0000
1000
1000
0000
,
0000
0001
0001
0000
0100
0010
0100
0001
,
1000
0100
0010
0001
1000
0000
0010
0000
,
0100
0001
0010
1000
,
0001
0100
1000
0001
,
0100
0000
0010
0000
1000
0100
1000
0000
,
0010
1000
0010
0100
0001
0000
0010
0000
,
0100
1000
0010
0001
,
1000
0100
0001
1000
,
0100
0000
0010
0000
0001
0100
0001
0010
,
0100
0000
1000
0000
0010
0100
0010
1000
,
0001
0010
0100
1000
0010
0000
0010
0000
,
0100
0000
0100
0000
0001
1000
0100
0000
,
0001
0110
1000
1000
,
0001
0000
0001
0000
1000
0010
0100
0000
,
0001
0010
0100
0000
0010
0000
0010
0000
,
0100
0000
0100
0000
1000
0001
0100
0000
,
1000
0110
0001
0001
,
1000
0000
1000
0000
0001
0010
0100
0000
,
1000
0010
1000
0100
0010
0000
1000
0000
,
0001
0000
0100
0000
1000
0000
0010
0100
,
0010
1000
0100
0010
0001
0000
0100
0000
,
1000
0000
0110
0000
0001
0010
0100
0000
,
1000
0010
0100
0000
0001
0000
1000
0000
,
0100
0000
0010
0000
1000
0001
0100
0000
,
0010
0010
0010
0000
0001
1000
0010
0000
,
0001
0000
0110
0000
1000
0100
0010
0000
,
0001
0100
0010
0000
0000
1010
1010
0000
,
0101
0101
0000
0000
0000
0000
0000
0000
,
0000
0110
0100
1000
,
0001
0000
0010
0000
1000
0000
0001
0010
,
0100
1000
0100
0010
0001
0000
0100
0010
,
1000
0000
0001
0000
0010
0100
1000
0000
,
0010
0000
1010
0000
1000
0000
0001
0010
,
0100
0000
1000
0000
0001
0100
0010
0100
,
0001
1000
0100
0010
0001
0000
0000
0000
,
0100
0000
0010
0000
,
1000
0000
0001
0010
,
0100
0000
0001
0000
0000
0101
0101
0000
,
0110
0000
0000
1100
0000
0000
1001
0000
0000
0000
0000
0000
0000
0000
0000
0000
;

//--------------- dance-single - KAYSTAR ----------------
#NOTES:
     dance-single:
     KAYSTAR:
     Hard:
     12:
     0,0,0,0,0:
0000
0000
0000
0000
,
0000
0000
0000
0000
,
0000
0000
0000
0000
,
0000
0000
0000
0000
,
0000
0000
0000
0000
1001
0000
0001
1000
,
0100
0100
0001
0010
0100
1000
0010
0010
,
0001
0100
0010
0000
1000
0100
0010
0001
,
0100
0100
1000
0001
0010
0010
1000
0001
,
0100
0001
0100
0000
0010
0000
1000
0100
0000
0000
0010
0000
0011
0000
0000
0000
,
0000
1000
1010
0000
0010
0100
0001
1000
,
0100
1000
0100
0000
0010
0000
0001
0000
0100
0000
0000
0000
0010
0000
1000
0000
,
0010
1000
0100
0010
0000
0001
0100
0010
,
0100
1000
0100
0010
1000
0000
0001
0100
,
0010
1000
0100
0010
0000
0110
0110
0000
,
0001
0100
0001
0000
1000
0000
0010
1000
0010
0000
0000
0000
0100
0000
0001
0000
,
0100
0001
0010
0100
0000
1000
0010
0100
,
0010
0001
0010
0100
0001
0000
1000
0100
,
0010
0001
0100
0010
0000
1000
0001
0010
,
0100
0010
0100
0000
1000
0000
0001
0000
0000
0000
1000
0000
0001
0010
0001
0000
,
1000
0100
1000
0000
0010
0000
0100
0000
0001
0000
1000
0000
0100
0000
0001
0000
,
0100
1000
0010
0100
0001
0010
1000
0010
,
0000
0100
1000
0000
1100
0000
0000
0000
1000
0000
0001
0000
0100
0000
1000
0000
,
0100
0001
0010
0100
1000
0010
0001
0010
,
0000
0100
0001
0100
0001
0100
0000
0000
0001
0000
1000
0000
0100
0000
0010
0000
,
1000
0001
0100
1000
0001
0100
0010
0001
,
0000
1000
0100
0000
0110
0000
0000
0000
1000
0000
0001
0000
0100
0000
0010
0000
,
0001
1000
0100
0001
1000
0100
0010
0001
,
0000
0100
0010
0000
1000
0000
0100
0000
0001
0000
0101
0000
0000
0000
0110
0000
,
0000
0000
1100
0000
0000
0000
1000
0000
0001
0000
0000
0100
0010
0000
1000
0000
,
0100
0010
0100
0000
0010
0000
0001
0000
1001
0000
0000
0000
0001
0000
0100
0000
,
1000
0000
1000
0000
0010
0000
0100
0000
0000
0000
0001
0000
1000
0000
0100
0010
,
0000
0100
0010
0000
0011
0000
0000
0000
0010
0000
0001
0000
1000
0000
0010
0000
,
0001
0000
0001
0000
0100
0000
0010
0000
0000
0000
1000
0000
0001
0000
0010
0100
,
0000
0010
0100
0000
1000
0000
0010
1000
0010
1000
0000
0001
0100
0001
0100
0000
,
0001
0000
0010
0000
0100
0000
0001
0000
0000
0000
1000
0000
0010
0000
0100
0010
,
0000
0100
0010
0000
0001
0000
1000
0000
0010
0000
0110
0000
0110
0000
0000
0000
,
1001
1001
0000
0000
0000
0000
0000
0000
,
0000
0000
0001
0000
0100
1000
0000
1100
,
0000
0000
0110
0000
0000
0000
0101
0000
0001
0000
0000
0100
0010
0000
1000
0000
,
0100
0010
0100
0000
0010
0000
0001
0000
1001
0000
0000
0000
1000
0000
0001
0000
,
0010
0010
1000
0100
0001
0001
0010
1000
,
1000
0100
0110
0000
0001
0010
0100
1000
,
0010
0000
0010
0000
0001
0000
1000
0000
0100
0000
0100
0000
0001
0000
1000
0010
,
1000
0010
0100
0000
0001
0010
0100
0000
1000
0000
0000
0000
0001
0000
1000
0000
,
0010
0010
0001
0100
1000
1000
0010
0001
,
0001
0100
0010
0000
1000
0001
0010
0100
,
1000
0010
0010
0001
0100
1000
1100
0000
,
0100
0000
0001
0010
0000
0010
1000
0000
0000
0000
0000
0000
0000
0000
0000
0000
;

//--------------- dance-double - KAYSTAR ----------------
#NOTES:
     dance-double:
     KAYSTAR:
     Easy:
     4:
     0,0,0,0,0:
00000000
00000000
00000000
00000000
,
00000000
00000000
00000000
00000000
,
00000000
00000000
00000000
00000000
,
00000000
00000000
00000000
00000000
,
00000000
00000000
00001000
00000000
,
00010000
00000000
00000010
00000000
,
00000000
00000000
00010000
00000000
,
00001000
00000000
00100000
00000000
,
00000000
00000000
00011000
00000000
,
00000000
00000000
00000000
00000000
,
00000000
00000000
00010000
00000000
,
00000000
00000000
01000000
00000000
,
00000000
00000000
10000000
00000000
,
00000000
00000000
00100000
00000000
,
00010000
00000000
00001000
00000000
,
00000000
00000000
00000100
00000000
,
00000000
00000000
00000001
00000000
,
00000000
00000000
00000010
00000000
,
00001000
00000000
00010000
00000000
,
00000000
00000000
00001000
00000000
,
01000000
00000000
00010000
00000000
,
00100000
00100000
00100000
00000000
,
00001000
00000000
00010000
00000000
,
00000010
00000010
00000010
00000000
,
00010000
00000000
00001000
00000000
,
01000000
01000000
01000000
00000000
,
00001000
00000000
00010000
00000000
,
00000100
00000100
00000100
00000000
,
00000000
00000000
00000000
00000000
,
00000000
00000000
00001000
00000000
,
00000001
00000000
00000100
00000000
,
00001000
00001000
00001000
00000000
,
00010000
00000000
00100000
00000000
,
10000000
00000000
00010000
00000000
,
10000000
00000000
01000000
00000000
,
00010000
00010000
00010000
00000000
,
00001000
00001000
00001000
00000000
,
00000000
00000000
00011000
00000000
,
00000000
00000000
00000000
00000000
,
00000000
00000000
00001000
00000000
,
00010000
00000000
00000010
00000010
,
00000010
00000000
00000100
00000000
,
00000001
00000000
00000010
00000010
,
00000010
00000000
00001000
00000000
,
00010000
00000000
01000000
01000000
,
01000000
00000000
10000000
00000000
,
00100000
00000000
01000000
01000000
,
01000000
00000000
10010000
00000000
;

//--------------- dance-double - KAYSTAR ----------------
#NOTES:
     dance-double:
     KAYSTAR:
     Medium:
     8:
     0,0,0,0,0:
00000000
00000000
00000000
00000000
,
00000000
00000000
00000000
00000000
,
00000000
00000000
00000000
00000000
,
00000000
00000000
00000000
00000000
,
00000000
00000000
00000000
00000000
10000000
00000000
00100000
10000000
,
00100000
00000000
01000000
00000000
00010000
00000000
00100000
00001000
,
00100000
00000000
00001000
00000000
00010000
00000000
00000010
00010000
,
00000010
00000000
00001000
00000000
00000100
00000000
00000010
00000001
,
00000010
00000000
00000001
00000000
00000000
00001000
00001000
00000000
,
00000000
00000010
00000010
00000000
00000100
00000000
00001000
00000000
,
00010000
00011000
00001000
00100000
,
00010000
01000000
10000000
01000000
,
00010000
00100000
00001000
00010000
,
01000000
10000000
00100000
00010000
,
00001000
00010000
00001000
00001000
00010000
00000000
00000010
00000000
,
00001000
00000100
00000001
00000100
,
00001000
00000010
00010000
00001000
,
00000100
00000001
00000010
00001000
,
00010000
00001000
00010000
00001000
00000000
00010000
00001000
00001000
,
00010000
00001000
00010000
00000000
00001000
00000000
00100000
00010000
,
00100000
00000000
01000000
00000000
10000000
00000000
00100000
10000000
,
00100000
00000000
01100000
00000000
01000000
00000000
00010000
10000000
,
00010000
00000000
00100000
00000000
01000000
00000000
00010000
00001000
,
00010000
00010000
00001000
00000000
00010000
00000000
00000010
00001000
,
00000010
00000000
00000100
00000000
00000001
00000000
00000010
00000001
,
00000010
00000000
00000110
00000000
00000100
00000000
00001000
00000001
,
00001000
00000000
00000010
00000000
00000100
00000000
00001000
00010000
,
00001000
00001000
00010000
00000000
00000000
01000000
00000000
00100000
,
00000000
00010000
00000000
00000000
10000000
00000000
00100000
01000000
,
00010000
00100000
00010000
00100000
00001000
00000000
00010000
00001000
,
00010000
00000000
00000100
00000000
00000010
00000000
00000001
00001000
,
00000010
00000000
00000110
00000000
00000100
00000000
00000001
00001000
,
00000100
00000000
00000010
00000000
00001000
00000000
00010000
00010000
,
00001000
00001000
00010000
00000000
00001000
00010000
00001000
00000000
,
01000000
00000000
00100000
00000000
10000000
00000000
00010000
10000000
,
01000000
00000000
01100000
00000000
00000000
00001000
00001000
00000000
,
00010000
00010000
00000000
00000000
00000000
00000000
00000000
00000000
,
00011000
00000000
00001000
00000000
00000000
00000100
00000000
00000010
,
00000000
00001000
00000000
00000000
00000001
00000000
00000010
00000100
,
00001000
00000010
00001000
00000010
00010000
00000000
00001000
01000000
,
00010000
00000000
10000000
00000000
01000000
00000000
00100000
00001000
,
00010000
00000000
00011000
00000000
00001000
00000000
00010000
00000100
,
00001000
00000000
00000001
00000000
00000100
00000000
00001000
00010000
,
00001000
00010000
00001000
00000000
00011000
00000000
00000000
00000000
,
00010000
00000000
00001000
00000000
,
01000000
00000000
00010000
10000000
,
01000000
00000000
00100000
00000000
00000000
00001000
00001000
00000000
,
00010000
00000000
00000000
00001000
00000000
00000000
00011000
00000000
00000000
00000000
00000000
00000000
00000000
00000000
00000000
00000000
;

//--------------- dance-double - KAYSTAR ----------------
#NOTES:
     dance-double:
     KAYSTAR:
     Hard:
     12:
     0,0,0,0,0:
00000000
00000000
00000000
00000000
,
00000000
00000000
00000000
00000000
,
00000000
00000000
00000000
00000000
,
00000000
00000000
00000000
00000000
,
00000000
00000000
00000000
00000000
10000000
00010000
01000000
01000000
,
10000000
00100000
01000000
00010000
00100000
00100000
10000000
01000000
,
00100000
00001000
00010000
00000000
00000100
00000010
00000001
00000100
,
00000100
00001000
00000001
00000010
00000010
00001000
00000001
00000100
,
00001000
00010000
00001000
00000000
00010000
00000000
00001000
00000000
00011000
00000000
00000000
00000000
00010000
00000000
00000000
00000000
,
01000000
10000000
00100000
00010000
,
00001000
00010000
00001000
00000000
00011000
00000000
00000000
00000000
00010000
00000000
00000010
00000000
00001000
00000000
00000000
00000000
,
00000100
00010000
00001000
00000000
00000010
00000100
00001000
00000001
,
00000100
00001000
00010000
00000000
00001000
01000000
00010000
00000000
,
00100000
00001000
00010000
00000000
01000000
00100000
00010000
10000000
,
00100000
01000000
00100000
00000000
01000000
00000000
00000000
00000000
00010000
00000000
00100000
00000000
01000000
00000000
00000000
00000000
,
10000000
00100000
01000000
00000000
00010000
00100000
01000000
00010000
,
00001000
00000010
00000100
00000000
00001000
00000010
00000100
00000000
,
00000001
00000010
00000100
00000000
00000010
00000001
00001000
00000010
,
00000100
00000010
00000100
00000000
00001000
00000000
00000000
00000000
00010000
00000000
00001000
00000000
00010000
00001000
00010000
00000000
,
00001000
00010000
00001000
00000000
00011000
00000000
00000000
00000000
00010000
00000000
00100000
00000000
01000000
00000000
00010000
00000000
,
10000000
01000000
00100000
00010000
01000000
00100000
10000000
01000000
,
00000000
00010000
00001000
00000000
00011000
00000000
00000000
00000000
00010000
00000000
00100000
00000000
00010000
00000000
00001000
00000000
,
00100000
00010000
00001000
00000100
00001000
00000010
00000100
00001000
,
00000000
00010000
00001000
00010000
00001000
00010000
00000000
00000000
00001000
00000000
00000010
00000000
00000100
00000000
00001000
00000000
,
00000001
00000100
00000010
00001000
00000100
00000010
00000001
00000100
,
00000000
00001000
00010000
00000000
00011000
00000000
00000000
00000000
00001000
00000000
00000010
00000000
00001000
00000000
00010000
00000000
,
00000010
00001000
00010000
01000000
00010000
00100000
01000000
00010000
,
00000000
00001000
00010000
00000000
00011000
00000000
00000000
00000000
00001000
00000000
00000000
00000000
00000100
00000000
00000000
00000000
,
00000001
00000000
00000000
00000000
00000010
00000000
00000000
00000000
00001000
00000000
00000000
00010000
00001000
00000000
00100000
00000000
,
00001000
00010000
00001000
00000000
00010000
00000000
00000100
00000000
00001000
00000000
00000000
00000000
00000001
00000000
00000100
00000000
,
00001000
00000000
00001000
00000000
00000010
00000000
00000100
00000000
00000000
00000000
00000001
00000000
00001000
00000000
00000100
00010000
,
00000000
00000100
00010000
00000000
00001000
00000000
00100000
00000000
00010000
00000000
00000000
00000000
10000000
00000000
00100000
00000000
,
00010000
00000000
00010000
00000000
01000000
00000000
00100000
00000000
00000000
00000000
10000000
00000000
00010000
00000000
00100000
00001000
,
00000000
00100000
00001000
00000000
00010000
00000000
00001000
00010000
00001000
00010000
00000000
00001000
00010000
00001000
00010000
00000000
,
00000100
00000000
00000010
00000000
00000001
00000000
00001000
00000000
00000000
00000000
00000010
00000000
00000100
00000000
00001000
00010000
,
00000000
00001000
00010000
00000000
00011000
00000000
00000000
00000000
00000000
00000000
00010000
00000000
01000000
00000000
00000000
00000000
,
10000000
00100000
00010000
00000000
00000000
00000000
00000000
00000000
,
00000000
00011000
00010000
00100000
,
10000000
00000000
00000000
00000000
01000000
00000000
00000000
00000000
00010000
00000000
00000000
00001000
00010000
00000000
00000100
00000000
,
00010000
00001000
00010000
00000000
00001000
00000000
00100000
00000000
00010000
00000000
00000000
00000000
10000000
00000000
00100000
00000000
,
00010000
00010000
01000000
00100000
10000000
01000000
00010000
00010000
,
00100000
00001000
00000010
00000100
00001000
00000000
00000010
00010000
,
00001000
01000000
00010000
00100000
00010000
00010000
00000100
00001000
,
00000010
00001000
00001000
00010000
00011000
00000000
00000001
00000010
,
00001000
00001000
00000100
00000010
00000001
00000100
00001000
00001000
,
00000010
00000000
00010000
00000000
00011000
00000000
00001000
01000000
,
00010000
10000000
01000000
00010000
00000000
01010000
01010000
00000000
,
01000000
00000000
10000000
00100000
00000000
00100000
00010000
00000000
00000000
00000000
00000000
00000000
00000000
00000000
00000000
00000000
;
