#VERSION:0.83;
#TITLE:晴天Bon Voyage;
#SUBTITLE:;
#ARTIST:TOMOSUKE × seiya-murai feat. ALT;
#TITLETRANSLIT:Seiten Bon Voyage;
#SUBTITLETRANSLIT:;
#ARTISTTRANSLIT:;
#GENRE:;
#CREDIT:djfipu x ZSL;
#MUSIC:Seiten Bon Voyage.ogg;
#BANNER:Seiten Bon Voyage.png;
#BACKGROUND:Seiten Bon Voyage-bg.png;
#CDTITLE:cdtitle.png;
#SAMPLESTART:11.741;
#SAMPLELENGTH:15.654;
#SELECTABLE:YES;
#OFFSET:-1.305;
#BPMS:0.000=229.977;
#STOPS:;
#SPEEDS:0.000=1.000=0.000=0;
#SCROLLS:0.000=1.000;
#TICKCOUNTS:0.000=1;
#TIMESIGNATURES:0.000=5=8;
#LABELS:0.000=Song Start;
#COMBOS:0.000=1;
#ORIGIN:;
#PREVIEWVID:;
#JACKET:Seiten Bon Voyage-jacket.png;
#CDIMAGE:;
#DISCIMAGE:;
#BGCHANGES:;
#FGCHANGES:;

//--------------- dance-single - Team TF2 Campers ----------------
#NOTEDATA:;
#STEPSTYPE:dance-single;
#DESCRIPTION:Team TF2 Campers;
#DIFFICULTY:Beginner;
#METER:3;
#RADARVALUES:0.1353,0.319757,0.125088,0.035739,0,106,92,14,4,0,0,0,0,0,0.1353,0.319757,0.125088,0.035739,0,106,92,14,4,0,0,0,0,0;
#CHARTNAME:;
#CHARTSTYLE:;
#CREDIT:djfipu;
#NOTES:
0000
0000
0000
0000
,
0000
0000
0000
0000
,
0000
0000
0000
0000
,
0000
0000
0000
0000
,
0000
0000
0000
0000
,
1001
0000
0000
0000
,
0000
1001
0000
0000
,
0000
0000
0110
0000
,
0000
0000
0000
0110
,
0000
0000
0000
0000
,
1001
0000
0000
0000
,
0000
1000
0000
0000
,
0000
0000
0100
0000
,
0000
0000
0000
1000
,
0000
0000
0000
0000
,
0010
0000
0000
0000
,
0000
0100
0000
0000
,
0000
0000
0010
0000
,
0000
0000
0000
1000
,
0000
0000
0000
0000
,
0001
0000
0000
0000
,
0000
0010
0000
0000
,
0000
0000
0100
0000
,
0000
0000
0000
0010
,
0000
0000
0000
0000
,
0001
0000
0000
0000
,
0000
1000
0000
0000
,
0000
0000
0010
0000
,
0000
0000
0000
0100
,
0000
0000
0000
0000
,
0001
0000
0000
0000
,
0000
1000
0000
0000
,
0000
0000
0100
0000
,
0000
0000
0000
0010
,
0000
0000
0000
0000
,
0110
0000
0000
0000
,
0000
0000
0000
0000
,
0000
0000
1001
0000
,
0000
0000
0000
0000
,
0000
0000
0000
0000
,
1000
0000
0000
0000
,
0000
0000
0000
0000
,
0000
0000
0001
0000
,
0000
0000
0000
0000
,
0100
0000
0000
0000
,
0000
0000
0010
0000
,
0000
0110
0000
0000
,
0000
0000
1001
0000
,
0000
0000
0000
0000
,
0000
0000
1000
0000
,
0000
0000
0000
0000
,
0000
0000
0001
0000
,
0000
0000
0000
0000
,
0000
0000
0010
0000
,
0000
0000
0000
0000
,
0000
0000
1001
0000
,
0000
0000
0000
0000
,
0000
0000
0001
0000
,
0000
0000
0000
0000
,
0000
0000
0100
0000
,
0000
0000
0000
0000
,
0000
0000
0010
0000
,
0000
0000
0000
0000
,
0000
0000
0110
0000
,
0000
0000
0000
0000
,
0000
0000
1001
0000
,
0000
0000
0000
0000
,
0000
0000
0000
0000
,
0000
0000
1000
0000
,
0000
0001
0000
0100
,
0000
0000
0001
0000
,
1000
0000
0000
0100
,
0000
0010
0000
0000
,
0001
0000
1001
0000
,
0000
1000
0000
0001
,
0000
0000
0100
0000
,
0010
0000
0000
0100
,
0000
0001
0000
0000
,
1000
0000
0200
0300
,
0020
0000
0000
0000
,
0000
0000
0000
0030
,
0000
0000
0000
0000
,
0000
0000
0000
0000
,
0000
0000
0002
0003
,
2000
0000
0000
0000
,
0000
0000
0000
0000
,
3000
0000
0000
0000
,
0000
0001
0000
0100
,
0000
0010
1000
0000
,
0001
0000
1000
0100
,
0000
0010
0000
0100
,
1000
0000
0001
0000
,
0100
0010
0000
0100
,
0000
0001
1000
0000
,
0001
0000
0010
0100
,
0000
0010
0000
0001
,
1000
0000
0100
0000
,
1000
0010
0000
0100
,
0000
0010
1001
0000
,
0000
0000
0000
1000
,
0000
0000
0000
0000
,
0001
0000
0000
0000
,
0000
1000
0000
0000
;

//--------------- dance-single - Team TF2 Campers ----------------
#NOTEDATA:;
#STEPSTYPE:dance-single;
#DESCRIPTION:Team TF2 Campers;
#DIFFICULTY:Easy;
#METER:7;
#RADARVALUES:0.325485,0.461263,0.151893,0.142958,0.008935,255,238,17,16,0,0,0,0,0,0.325485,0.461263,0.151893,0.142958,0.008935,255,238,17,16,0,0,0,0,0;
#CHARTNAME:;
#CHARTSTYLE:;
#CREDIT:djfipu;
#NOTES:
0000
0000
0000
0000
,
0000
0000
0000
0000
,
0000
0000
0000
0000
,
0000
0000
0000
0000
,
0000
0000
0000
0000
,
0001
0000
0000
0001
0000
0000
0000
0000
,
0000
0000
1000
0000
0000
1000
0000
0000
,
0000
0000
0000
0000
0100
0000
0000
0100
,
0000
0000
0000
0010
,
0000
0010
0000
0000
0000
0000
0000
0000
,
0110
0000
0000
0001
,
0010
0100
0000
0000
,
1000
0010
0100
0000
,
0000
0001
1000
0100
,
0000
0010
0000
0001
,
1000
0000
0000
0001
,
0100
0001
0000
0000
,
1000
0010
1000
0000
,
0000
0001
0010
0001
,
0000
1000
0000
0001
,
1001
0000
0000
1000
0000
0000
0010
0000
,
0000
0000
0100
0000
0000
0001
0000
0000
,
1000
0000
0000
0000
0100
0000
0000
0010
,
0000
0001
0000
1000
,
0000
0001
0000
0000
0100
0000
0000
0000
,
1001
0000
0000
1000
0000
0000
0100
0000
,
0100
0000
0010
0000
0000
0010
0000
0000
,
0001
0000
0001
0000
0100
0000
0000
0100
,
0000
0010
0010
1000
,
0000
0001
0000
0100
,
0001
0000
0000
1000
0000
0000
0100
0000
,
1000
0000
0010
0000
0000
0100
0000
0000
,
0001
0000
0010
0000
0100
0000
0000
0100
,
0000
1000
0001
0100
,
0000
0100
0000
0000
0001
0000
1000
0000
,
1001
0000
0000
0011
0000
0000
1100
0000
,
0000
1000
0000
0001
0000
0000
0000
0000
,
0000
0000
0000
0000
1001
0000
0000
0101
,
0000
0000
1010
0000
0000
0010
0000
0100
,
0000
0000
0000
0000
,
0110
0000
0000
0010
0000
0000
2000
0000
,
3002
0000
0023
0000
0000
0000
0000
0230
,
0000
0000
0300
0000
1001
0000
0000
1001
,
0000
0110
0000
0000
,
0001
0000
0000
0010
0000
0000
0100
0000
,
0000
1000
0000
0000
0001
0000
0000
0100
,
0000
0220
0000
0000
,
0000
0330
0010
0000
,
1000
0000
0001
0000
,
0010
0000
0001
0000
,
0100
0000
0010
0000
,
1000
0000
0001
0000
,
1000
0000
0100
0000
,
0010
0000
0000
0000
0000
0000
0001
0000
0000
0000
0000
0001
,
0000
1000
0000
2002
,
0000
3003
0001
0000
,
0100
0000
0010
0000
,
0100
0000
0001
0000
,
1000
0000
0100
0000
,
1000
0000
0010
0000
,
0100
0000
0010
0000
,
1000
0000
0000
0000
0000
0000
0100
0000
0000
0000
0000
0100
,
0000
0010
0000
0220
,
0000
0000
0330
0000
0010
0000
0000
0001
,
0000
1000
0000
0000
,
0000
0000
0010
0000
,
0100
0000
0000
0001
0000
0000
2002
0000
,
0000
0000
0000
0000
,
3003
0000
0000
0000
1000
0000
0000
1000
,
0000
0010
0100
0001
,
0000
0001
0000
0000
0010
0000
0100
0000
,
1000
0000
0000
1000
0000
0000
0001
0000
,
0100
0000
0010
0000
0000
0010
0000
0000
,
0100
0000
0100
0000
0010
0000
0000
1000
,
0000
0001
0010
0100
,
0000
0010
0000
0000
0001
0000
1000
0000
,
0100
0000
0000
0100
0000
0000
1000
0000
,
0001
0000
0100
0000
0000
0010
0000
0000
,
0100
0000
0010
0000
2000
0000
3000
0001
,
0200
0000
0000
0000
,
0000
0000
0000
0300
,
0001
0000
0000
0001
0000
0000
1000
0000
,
0100
0000
0010
0000
0000
0010
0000
0000
,
0100
0000
0100
0000
2000
0000
0000
3001
,
0020
0000
0000
0000
,
0000
0000
0000
0030
,
0100
0000
0000
0100
0000
0000
1000
0000
,
0010
0000
0100
0000
0000
0100
0000
0000
,
0001
0000
0001
0000
1000
0000
0000
1000
,
0000
0010
0100
0010
,
0000
0010
0000
0000
1000
0000
0001
0000
,
1000
0000
0000
1000
0000
0000
0100
0000
,
0010
0000
0001
0000
0000
0001
0000
0000
,
0010
0000
0100
0000
0010
0000
0000
0010
,
0000
0100
1000
0001
,
0000
0001
0000
0000
1000
0000
0010
0000
,
0100
0000
0000
0100
0000
0000
0010
0000
,
1000
0000
0001
0000
0000
0001
0000
0000
,
1000
0100
0010
0000
,
0000
0001
1000
0001
,
0000
0000
0100
0010
,
0100
0000
0000
0001
,
1000
0001
0000
0000
,
0010
0100
0000
0000
;

//--------------- dance-single - Team TF2 Campers ----------------
#NOTEDATA:;
#STEPSTYPE:dance-single;
#DESCRIPTION:Team TF2 Campers;
#DIFFICULTY:Medium;
#METER:11;
#RADARVALUES:0.495247,0.507389,0.107218,0.169763,0.049142,388,376,12,19,0,0,0,0,0,0.495247,0.507389,0.107218,0.169763,0.049142,388,376,12,19,0,0,0,0,0;
#CHARTNAME:;
#CHARTSTYLE:;
#CREDIT:ZSL;
#NOTES:
0000
0000
0000
0000
,
0000
0000
0000
0000
,
0000
0000
0000
0000
,
0000
0000
0000
0000
,
0000
0000
0000
0000
,
0001
0000
0000
0001
0000
0000
0100
0000
,
0010
0000
1000
0000
0000
1000
0000
0000
,
0100
0000
0010
0000
0001
0000
0000
0001
,
0000
0010
0100
1000
,
0000
1000
0000
0000
0001
0000
0100
0000
,
0010
0000
0000
0100
0000
0001
0100
0000
,
0010
0000
1000
0000
0000
0001
0000
0010
,
0001
0000
0100
0000
0010
0000
0000
1000
,
0000
0010
0100
0000
0001
0000
0100
0000
,
0001
0001
1000
0100
,
0010
0100
0000
1000
0000
0100
0010
0000
,
0001
0000
1000
0000
0010
0100
0000
0001
,
0100
0000
0010
0000
1000
0000
0000
0001
,
0000
0010
0100
0000
1000
0000
0001
0000
,
1000
1000
0001
0100
,
0010
0000
1000
0000
0001
0010
0000
0001
,
1000
0000
0000
0100
0010
0000
0001
1000
,
0000
0001
0010
0000
0000
0001
0100
0000
,
0010
1000
0000
0010
0100
0000
0000
0001
,
1000
0000
0100
0010
0000
0001
1000
0000
,
0010
0000
0100
0010
0000
1000
0010
0000
,
0100
0000
0001
0000
0000
1000
0000
0100
,
0010
0000
0001
0000
1000
0000
0001
1000
,
0000
0001
0100
0000
0010
0000
1000
0000
,
0100
0100
0010
0001
,
1000
0000
0001
0100
0000
0010
1000
0000
,
0100
0000
0010
0000
0100
1000
0000
0001
,
0100
0000
0010
0000
1000
0000
0100
0010
,
0000
0001
1000
0000
0100
0000
1000
0000
,
0010
0010
0100
0001
,
0100
0000
0000
0101
0000
0000
0100
0000
,
0000
0010
0000
0010
1000
0000
0001
0000
,
0010
0000
0100
0000
1000
0000
0000
0001
,
0000
0000
0011
0000
0000
0100
0000
0100
,
1000
0001
0100
0010
,
1000
0000
0000
0100
0000
1000
0010
0000
,
0100
0000
0001
0000
0000
0010
0000
0010
,
0000
0000
0100
0000
1000
0000
0000
1001
,
0000
0000
0001
0000
0001
0100
0000
0100
,
0010
0000
0000
1000
0000
0000
0101
0000
,
0000
1000
0000
0000
0010
0000
0000
0100
,
0000
2002
0000
0000
,
0000
0000
0000
3003
0000
0000
0001
0000
0000
1000
0000
0010
,
1000
0010
0000
0200
,
0000
0000
0000
0301
0000
0000
1000
0000
0000
0100
0000
1000
,
0100
0010
0000
0002
,
0000
0000
0000
1003
0000
0010
1000
0000
0000
0010
0000
0100
,
0010
1000
0000
0002
,
0000
0000
0000
1003
0000
0000
0100
0000
0000
0010
0000
0001
,
0010
0100
0000
2000
,
0000
0000
0000
3001
0000
0000
0100
0000
0000
0010
0000
1000
,
0001
1000
0000
0200
,
0000
0000
0000
1300
0000
0001
1000
0000
0000
0000
0000
0010
,
0000
0100
0000
0002
,
0000
0000
0000
0103
0000
0010
0100
0000
0000
0010
0000
1000
,
0001
0010
0000
0100
,
0000
0000
0000
0010
0000
0000
0012
0000
0000
0000
0000
0103
,
0000
0110
0000
1002
,
0000
0000
0000
0000
2003
0000
0000
3020
,
0000
0130
0000
0010
,
1000
0001
0000
1000
0200
0000
0000
0000
,
0320
0000
0000
0032
0000
0003
2002
0000
,
0000
0000
0000
0000
,
3003
0000
0000
0000
1000
0000
0010
0100
,
0000
0010
0100
0000
0001
0000
0010
0000
,
0100
1000
0000
0100
1000
0000
0001
0000
,
0100
0000
0010
1000
0000
0010
1000
0000
,
0001
0010
0100
0100
,
1000
0000
0001
0000
1000
0000
0010
0100
,
0000
0001
0100
0000
0001
0000
1000
0000
,
0000
0100
0000
0010
0001
0000
1000
0000
,
0010
0000
0100
0001
0000
1000
0100
0000
,
0010
0000
0100
0000
1000
0010
0100
0000
,
0010
0000
1000
0000
0002
0000
0000
1003
,
0010
1000
1000
0001
,
0000
0010
0000
0000
0100
0000
0100
0000
,
1000
0000
0000
0001
0000
0000
0100
0000
,
0100
0000
0010
0000
0000
1000
0000
0000
,
0001
0000
0001
0000
1002
0000
0000
1003
,
0100
0010
0001
1001
,
0000
1000
0000
0010
1000
0000
0010
0000
,
0110
0000
0000
0100
0000
0000
0010
0000
,
1000
0001
0010
0010
,
0001
0000
0100
0000
0010
0000
1000
0100
,
0000
1000
0010
0000
0100
0000
0001
0000
,
0000
1000
0000
0100
0010
0000
0100
0000
,
1000
0001
0000
0010
0000
0100
0010
0000
,
0001
0000
0100
0000
0010
1000
0001
0000
,
0010
0000
0100
0000
1000
0000
0010
1000
,
0000
0100
1000
0000
0001
0000
0010
0000
,
0000
0100
0000
1000
0001
0000
0100
0000
,
0010
0100
0000
0001
0000
1000
0001
0000
,
0100
0000
0010
0000
0100
0001
0010
0000
,
0100
0000
1000
0000
0001
0000
0000
0001
,
0000
0010
0100
1000
,
0000
1000
0000
0000
0010
0000
0100
0000
,
0001
0000
0000
0001
0000
0000
0100
0000
,
0010
0000
1000
0000
0000
1000
0000
0000
,
0001
0010
0000
0000
;

//--------------- dance-single - Team TF2 Campers ----------------
#NOTEDATA:;
#STEPSTYPE:dance-single;
#DESCRIPTION:Team TF2 Campers;
#DIFFICULTY:Hard;
#METER:13;
#RADARVALUES:0.598637,0.691894,0.294851,0.34846,0.129556,469,436,33,39,19,0,0,0,0,0.598637,0.691894,0.294851,0.34846,0.129556,469,436,33,39,19,0,0,0,0;
#CHARTNAME:FS XO;
#CHARTSTYLE:;
#CREDIT:djfipu x ZSL;
#NOTES:
0000
0000
0000
0000
,
0000
0000
0000
0000
,
0000
0000
0000
0000
,
0000
0000
0000
0000
,
0000
0000
0000
0000
,
1001
0000
0000
1001
0000
0000
0001
0000
,
0100
0000
0101
0000
0000
0101
0000
0000
,
1000
0000
0100
0000
1100
0000
0000
1100
,
0000
0100
0010
0110
,
0000
0110
0000
0000
0001
0000
1000
0000
,
0020
0000
0000
0130
0000
0001
0010
0000
,
0100
0000
1000
0000
0001
0100
00M0
0100
,
1000
0000
0010
0000
0200
0000
0000
0310
,
0000
1000
0100
0000
0010
0000
0100
0000
,
0001
0100
0010
0000
0001
0000
1001
0000
,
1000
0100
0000
0010
0000
0001
0100
0000
,
0010
0000
1000
0000
0001
0010
0M00
0010
,
0100
0000
0001
0000
2000
0000
0000
3100
,
0000
1000
0010
0000
0100
0000
0010
0000
,
0001
0010
0100
0000
0001
0000
1000
0000
,
0100
1000
0001
0000
0100
0010
0000
1000
,
0010
0000
1000
0100
0010
0000
0001
0100
,
0000
0001
1000
0000
0100
0010
0001
0000
,
0100
0001
0000
0010
0100
0000
1000
0001
,
0100
0000
0010
1000
0000
0001
0010
0000
,
0100
0000
0010
0100
M000
0100
0001
0000
,
1000
0000
1010
0000
0000
0010
0000
0100
,
0001
0000
1000
0000
0100
1000
0001
0100
,
00M0
0100
1000
0000
0010
0000
0100
0000
,
1000
0100
0010
0000
1000
0000
0001
0000
,
0100
0001
1000
0100
00M0
0100
0001
0000
,
0010
0000
0100
0000
1000
0010
0M00
0010
,
0100
0000
1000
0000
0010
0000
1000
0100
,
00M0
0100
0010
0000
1000
0000
0100
0000
,
0001
0100
0010
0000
0001
0000
1000
0000
,
0010
0000
1000
1000
0000
0001
0001
0000
,
0000
0010
0100
1000
0010
0100
0010
0100
,
0001
1000
0001
1000
0100
0000
0010
0010
,
0000
0100
0100
0000
0000
1100
0000
1000
,
1000
0010
0100
0010
0000
1000
0100
0000
,
0110
0000
0000
0010
0000
0001
0100
0000
,
0010
1000
0002
0000
0000
0103
0000
0210
,
0000
0000
0310
0000
1000
0000
0000
1001
,
0000
0000
0001
0010
0100
1000
0000
1000
,
0100
0010
0000
0100
1000
0000
0010
0100
,
0000
1000
0100
0000
0001
1000
0001
0100
,
0000
0220
0000
0000
,
0000
0000
0000
0330
0000
0000
1001
0000
0000
0001
0000
0100
,
0000
0000
0000
00M0
0000
0000
0000
0000
0100
0000
0000
0000
1000
0000
0000
0000
0000
0000
0000
0000
0000
0000
0000
0000
0010
0000
0000
0000
0000
0000
0000
0000
0000
0000
0000
0000
0002
0000
0000
0000
0000
0000
0000
0000
0000
0000
0000
0000
,
0000
0000
0000
0013
0000
0100
0001
0000
1000
0000
0000
0100
,
0000
0000
0010
1000
0000
0000
0010
0000
0000
0200
0000
0000
,
0000
0000
0000
0310
0000
0001
0100
0000
0010
0000
0000
0100
,
0000
0000
1000
0000
0000
0100
0000
0000
0000
0001
0000
0000
,
1000
0000
0000
0100
0000
0000
1100
0000
0000
0000
0000
0101
,
0000
1000
0000
0100
,
0010
0000
0100
1000
0000
1000
0001
0000
0000
0001
0000
0010
,
0000
0000
0000
0M00
0000
0000
0000
0000
0010
0000
0000
0000
1000
0000
0000
0000
0000
0000
0000
0000
0000
0000
0000
0000
0001
0000
0000
0000
0000
0000
0000
0000
0000
0000
0000
0000
2000
0000
0000
0000
0000
0000
0000
0000
0000
0000
0000
0000
,
0000
0000
0000
3100
0000
0010
1000
0000
0010
0000
0000
0100
,
0000
0000
1000
0001
0000
0000
0100
0000
0000
0020
0000
0000
,
0000
0000
0000
1030
0000
0001
0010
0M00
0010
1000
0000
0001
,
0100
00M0
0100
1000
0000
0000
0010
0000
0000
2002
0000
0000
,
0000
0000
0000
3003
0000
0000
0110
0000
0000
0000
0000
0101
,
0000
1100
0000
2002
,
0000
0000
3003
0000
1100
0000
0000
0110
,
0000
0000
0011
0000
0000
0000
0001
0100
,
0010
1000
0000
0000
1010
0000
0000
0000
,
0011
0000
0000
0101
0000
0000
2200
0000
,
0000
0000
0000
0000
,
3300
0000
0000
0000
0001
0000
1000
0010
,
0M00
0010
0001
0000
0100
0000
0001
0000
,
1000
0100
00M0
0100
0001
0000
0010
0000
,
0100
1000
0001
0100
0000
0010
0100
0000
,
1001
0000
0000
0000
1000
0100
0020
0000
,
0032
0000
2003
0000
3001
0100
0001
0100
,
00M0
0100
0010
0000
0001
0000
2000
0000
,
0000
3020
0000
0130
0010
0000
1000
0000
,
0100
00M0
0100
0001
0000
1000
0010
0000
,
0100
0000
0000
0000
0010
0100
0002
0000
,
2003
0000
3200
0000
0320
0000
0000
0130
,
2000
0001
0001
0010
,
0000
0010
0000
0000
0100
0000
3100
0000
,
0000
1000
0001
0000
0010
0100
0000
1000
,
0100
0000
1000
0010
0100
0000
0001
0010
,
0000
0001
0100
0000
0020
0000
0000
0130
,
0002
1000
1000
0010
,
0000
0010
0000
0000
0100
0000
0103
0000
,
0000
0001
1000
0000
0010
0100
0000
0001
,
0100
0000
0010
0000
1000
0100
0010
0000
,
0001
0000
0100
0000
0001
0000
1000
0010
,
0M00
0010
0100
0000
0010
0000
0001
0000
,
0100
0010
000M
0010
0001
0000
1000
0000
,
0001
0100
0010
1000
0000
0001
0010
0000
,
0110
0000
0000
0000
0100
1000
0200
0000
,
2300
0000
3002
0000
1003
0010
1000
0010
,
0M00
0010
0100
0000
1000
0000
0020
0000
,
0000
0230
0000
0310
2000
0000
3001
0000
,
1000
0100
1000
0100
00M0
0100
0020
0000
,
1030
0000
0001
0000
1000
0001
0020
0000
,
0032
0000
0203
0000
0310
0000
0010
0100
,
0000
0001
0010
0000
0010
0000
0100
0000
,
0100
1000
0000
1000
0010
0000
0010
0000
,
1000
0000
1000
0001
0000
0001
0100
0000
,
0100
0000
0001
0000
0001
0010
0000
0010
,
0100
1001
0000
0000
;

//--------------- dance-single - Team TF2 Campers ----------------
#NOTEDATA:;
#STEPSTYPE:dance-single;
#DESCRIPTION:Team TF2 Campers;
#DIFFICULTY:Challenge;
#METER:16;
#RADARVALUES:0.718619,0.969825,0.411004,0.553962,0.33059,563,517,46,62,48,0,0,0,0,0.718619,0.969825,0.411004,0.553962,0.33059,563,517,46,62,48,0,0,0,0;
#CHARTNAME:bXF DS SJ-;
#CHARTSTYLE:;
#CREDIT:djfipu x ZSL;
#NOTES:
0000
0000
0000
0000
,
0000
0000
0000
0000
,
0000
0000
0000
0000
,
0000
0000
0000
0000
,
0000
0000
0000
0000
,
0011
0000
0000
0011
0000
0000
1000
0000
,
0001
0000
1010
0000
0000
1010
0000
0000
,
0001
0000
1000
0000
0101
0000
0000
0101
,
0000
1000
0001
1100
,
0000
1100
0000
0000
0001
0000
1000
0000
,
0002
0000
1003
0100
00M0
0100
0002
0000
,
0013
0000
20M0
0000
3001
0100
00M0
0100
,
2000
0000
3010
0000
00M2
0000
1003
0010
,
0M00
0010
0002
0000
1003
0000
0110
0000
,
0001
0010
0200
0000
2300
0000
3001
0000
,
001M
1000
0000
1000
0000
M100
0001
0000
,
0010
0000
0002
0000
1003
0010
0M00
0010
,
0200
0000
1300
0000
M020
0000
0000
0031
,
0000
010M
2000
0000
3010
0000
00M1
0000
,
1000
0000
0100
0000
0020
0000
0000
0000
0032
0000
0000
0000
1003
0100
1000
0100
,
1000
0100
0010
0100
1000
0010
0000
0001
,
0000
0010
0100
0001
0100
0010
1000
0100
,
0000
0001
0100
1000
0001
0010
0100
0010
,
0001
0100
0000
1000
0000
0100
0010
1000
,
0010
0100
0001
0010
0000
1000
0010
0000
,
0002
0000
0103
0010
000M
0010
0002
0000
,
0103
0000
2M00
0000
3010
0100
M000
0100
,
2000
0000
3001
0000
001M
0100
0001
0010
,
0M00
0010
2000
0000
3010
0000
00M1
0000
,
1000
0010
0200
0000
0302
0000
1000
0000
,
0013
0M00
0010
0000
1000
0000
0001
0000
0000
0000
010M
0000
2000
0000
0000
0000
,
0010
0000
0001
0000
3010
0200
0000
0301
,
0020
0000
0130
0000
0M02
0000
1003
0002
,
0000
1003
0020
0000
0130
0000
1001
0000
,
1000
0100
0020
0000
0032
0000
0103
0000
,
0101
0000
0001
1001
0000
1000
1010
0000
,
0000
0000
0010
0000
0100
0000
0001
0000
1000
0000
0001
0010
0100
0000
1000
0000
,
0100
0010
0001
1000
1001
0000
0001
0101
,
0000
0000
0110
0000
0000
1010
0000
1001
,
0000
0000
1000
0100
0010
0000
0001
0000
0100
0000
0010
0000
0100
0000
0001
0000
,
2000
0000
3001
0010
0M00
0010
2000
0000
,
3002
0000
0203
0000
0000
0010
0000
0302
,
0000
0000
0013
0000
1100
0000
0000
0110
,
0000
0000
0012
0000
0000
0000
0003
0010
,
0001
0010
0100
0000
1000
0000
0001
0100
0010
0000
1000
0000
0010
0100
0001
0000
,
0010
0000
0100
1000
0001
0000
0000
0000
0101
0000
0000
0000
0000
0000
0110
0000
,
0000
2002
0000
0000
,
0000
0000
0000
3003
0000
0000
1001
0000
0001
0100
0000
0001
,
0010
0M00
0010
1000
0000
0010
0100
0000
0000
0102
0000
0000
,
0000
0000
0000
0013
0000
0100
0001
0000
0100
0010
0000
0001
,
1000
0000
0010
0100
0000
0010
1000
0000
0000
2010
0000
0000
,
0000
0000
0000
3100
0000
0010
0001
0000
0100
0001
0000
0010
,
0001
0000
1000
0010
0000
0100
0010
0000
0000
2000
0000
0000
,
0000
0000
0000
3100
00M0
0100
0001
0000
0000
0000
0000
0101
,
0000
0000
0000
1001
0000
0000
0001
0100
0010
1000
0001
0100
,
0010
0100
0001
1000
0100
0010
0001
0000
1000
0100
0000
1000
,
0010
0M00
0010
0001
0000
0010
0100
0000
0000
2100
0000
0000
,
0000
0000
0000
3010
0000
0100
1000
0000
0100
0010
0000
1000
,
0001
0000
0010
0100
0000
0010
0001
0000
0000
0012
0000
0000
,
0000
0000
0000
0103
0000
0010
1000
0000
0100
1000
0000
0010
,
1000
0000
0001
0010
0000
0100
0010
0000
0000
0002
0000
0000
,
0000
0000
0000
0103
00M0
0100
1000
0000
0000
0000
0000
1100
,
0000
0000
0000
1001
0000
0000
1000
0100
0010
0001
1000
0100
,
0010
0000
0100
0000
1000
0000
0001
0000
0100
0000
0010
0000
1000
0000
0000
0000
0000
0000
0000
0000
0000
2000
0000
0000
,
0000
0000
0000
0000
3010
0000
0000
0000
00M0
0000
0000
0000
0001
0000
1000
0100
,
0010
0100
0000
1000
0002
0000
0003
0000
,
2020
0000
3030
0022
0000
0033
2002
0000
,
0000
0000
0000
0000
,
3003
0000
0000
0000
1000
0001
1000
0001
0010
0000
0M00
0000
0010
0000
0100
0000
,
0000
0001
2000
0000
0001
0000
3100
00M0
,
0100
0010
000M
0010
0002
0000
1000
0000
,
M103
0100
0100
0100
0000
0010
0002
0000
,
1003
0000
M010
0000
0001
0010
0200
0000
,
2300
0000
0000
0000
3001
0000
0000
0000
0100
00M0
0100
0000
1000
0000
0010
0000
,
0M00
0010
0002
0000
0010
0000
0103
M000
,
0100
0010
000M
0010
2000
0000
0001
0000
,
3100
00M0
0100
0010
000M
0010
0001
0000
,
1000
0000
0010
0000
0100
0001
0010
0100
,
1000
0010
0100
0000
0002
0000
0000
1003
,
0200
0010
0001
0320
,
0000
0001
0000
0000
0100
0000
1000
0000
,
0130
1000
0010
0000
0100
0001
0000
0010
,
0100
0000
0010
0001
0100
0000
1000
0100
,
0000
0010
1000
0000
0011
0000
0000
0011
,
0000
1000
0100
1010
,
0000
1010
0000
0000
0001
0000
0010
0000
,
0101
0000
0000
0101
0000
0000
1000
0000
,
0001
0100
0010
0000
1000
0100
0001
0000
,
0100
0000
0110
0000
0001
0000
0100
0010
,
000M
0010
0002
0000
1000
0000
0103
M000
,
0100
0000
0010
0000
000M
0000
0010
0000
1000
0000
0000
0000
0100
1000
0100
1000
,
0001
0100
0010
0100
M000
0100
1000
0000
,
0001
0000
0100
0001
0100
0000
0000
0000
0010
0000
1000
0000
0100
0000
0000
0000
,
0010
0000
1001
0000
1000
0000
0100
0010
,
000M
0010
2000
0000
0001
0000
3100
000M
,
0100
0000
0010
0000
M000
0000
0010
0000
0001
0000
0000
0000
0100
0001
0100
0001
,
1000
0100
0010
0100
000M
0100
0001
0000
,
1000
0000
0100
1000
0100
0000
0000
0000
1000
0000
0010
0000
0001
0000
0000
0000
,
0011
0000
0110
0000
0010
0000
0010
1000
,
0000
1000
0100
0000
0010
0000
0100
0000
,
1000
0001
0000
0001
0100
0000
0001
0000
,
1000
0100
0010
0001
1000
0100
0010
0001
,
1000
0010
1000
1000
0001
0100
0010
1000
,
0001
0100
0001
0001
0000
0000
0000
0000
;
