#VERSION:0.83;
#TITLE:聖少女領域;
#SUBTITLE:;
#ARTIST:ALI PROJECT;
#TITLETRANSLIT:Seishoujo Ryouiki;
#SUBTITLETRANSLIT:;
#ARTISTTRANSLIT:;
#GENRE:;
#ORIGIN:;
#CREDIT:;
#BANNER:bn.png;
#BACKGROUND:bg.jpg;
#PREVIEWVID:;
#JACKET:jkt.png;
#CDIMAGE:;
#DISCIMAGE:;
#LYRICSPATH:;
#CDTITLE:;
#MUSIC:audio.ogg;
#OFFSET:-0.079000;
#SAMPLESTART:12.118000;
#SAMPLELENGTH:12.000000;
#SELECTABLE:YES;
#BPMS:0.000=137.000;
#STOPS:;
#DELAYS:;
#WARPS:;
#TIMESIGNATURES:0.000=4=4;
#TICKCOUNTS:0.000=4;
#COMBOS:0.000=1;
#SPEEDS:0.000=1.000=0.000=0,
254.000=0.997=0.188=0,
254.188=0.987=0.188=0,
254.375=0.970=0.188=0,
254.562=0.947=0.188=0,
254.750=0.917=0.188=0,
254.938=0.882=0.188=0,
255.125=0.841=0.188=0,
255.312=0.795=0.188=0,
255.500=0.744=0.188=0,
255.688=0.689=0.188=0,
255.875=0.630=0.188=0,
256.062=0.568=0.188=0,
256.250=0.503=0.188=0,
256.438=0.437=0.188=0,
256.625=0.369=0.188=0,
256.812=0.300=0.188=0,
257.000=0.369=0.094=0,
257.083=0.437=0.094=0,
257.188=0.503=0.094=0,
257.292=0.568=0.094=0,
257.375=0.630=0.094=0,
257.458=0.689=0.094=0,
257.562=0.744=0.094=0,
257.667=0.795=0.094=0,
257.750=0.841=0.094=0,
257.833=0.882=0.094=0,
257.938=0.917=0.094=0,
258.042=0.947=0.094=0,
258.125=0.970=0.094=0,
258.208=0.987=0.094=0,
258.312=0.997=0.094=0,
258.417=1.000=0.094=0,
258.500=0.997=0.094=0,
258.583=0.987=0.094=0,
258.688=0.970=0.094=0,
258.792=0.947=0.094=0,
258.875=0.917=0.094=0,
258.958=0.882=0.094=0,
259.062=0.841=0.094=0,
259.167=0.795=0.094=0,
259.250=0.744=0.094=0,
259.333=0.689=0.094=0,
259.438=0.630=0.094=0,
259.542=0.568=0.094=0,
259.625=0.503=0.094=0,
259.708=0.437=0.094=0,
259.812=0.369=0.094=0,
259.917=0.300=0.094=0,
260.000=0.369=0.125=0,
260.125=0.437=0.125=0,
260.250=0.503=0.125=0,
260.375=0.568=0.125=0,
260.500=0.630=0.125=0,
260.625=0.689=0.125=0,
260.750=0.744=0.125=0,
260.875=0.795=0.125=0,
261.000=0.841=0.125=0,
261.125=0.882=0.125=0,
261.250=0.917=0.125=0,
261.375=0.947=0.125=0,
261.500=0.970=0.125=0,
261.625=0.987=0.125=0,
261.750=0.997=0.125=0,
261.875=1.000=0.125=0,
264.000=0.997=0.188=0,
264.188=0.987=0.188=0,
264.375=0.970=0.188=0,
264.562=0.947=0.188=0,
264.750=0.917=0.188=0,
264.938=0.882=0.188=0,
265.125=0.841=0.188=0,
265.312=0.795=0.188=0,
265.500=0.744=0.188=0,
265.688=0.689=0.188=0,
265.875=0.630=0.188=0,
266.062=0.568=0.188=0,
266.250=0.503=0.188=0,
266.438=0.437=0.188=0,
266.625=0.369=0.188=0,
266.812=0.300=0.188=0,
267.000=0.369=0.094=0,
267.083=0.437=0.094=0,
267.188=0.503=0.094=0,
267.292=0.568=0.094=0,
267.375=0.630=0.094=0,
267.458=0.689=0.094=0,
267.562=0.744=0.094=0,
267.667=0.795=0.094=0,
267.750=0.841=0.094=0,
267.833=0.882=0.094=0,
267.938=0.917=0.094=0,
268.042=0.947=0.094=0,
268.125=0.970=0.094=0,
268.208=0.987=0.094=0,
268.312=0.997=0.094=0,
268.417=1.000=0.094=0,
268.500=0.997=0.094=0,
268.583=0.987=0.094=0,
268.688=0.970=0.094=0,
268.792=0.947=0.094=0,
268.875=0.917=0.094=0,
268.958=0.882=0.094=0,
269.062=0.841=0.094=0,
269.167=0.795=0.094=0,
269.250=0.744=0.094=0,
269.333=0.689=0.094=0,
269.438=0.630=0.094=0,
269.542=0.568=0.094=0,
269.625=0.503=0.094=0,
269.708=0.437=0.094=0,
269.812=0.369=0.094=0,
269.917=0.300=0.094=0,
270.000=0.369=0.125=0,
270.125=0.437=0.125=0,
270.250=0.503=0.125=0,
270.375=0.568=0.125=0,
270.500=0.630=0.125=0,
270.625=0.689=0.125=0,
270.750=0.744=0.125=0,
270.875=0.795=0.125=0,
271.000=0.841=0.125=0,
271.125=0.882=0.125=0,
271.250=0.917=0.125=0,
271.375=0.947=0.125=0,
271.500=0.970=0.125=0,
271.625=0.987=0.125=0,
271.750=0.997=0.125=0,
271.875=1.000=0.125=0;
#SCROLLS:0.000=1.000;
#FAKES:;
#LABELS:0.000=Song Start;
#BGCHANGES:;
#FGCHANGES:0.000=lua=0.000=0=0=1=====,
;
#KEYSOUNDS:;
#ATTACKS:
;

//---------------dance-single - TaroNuke as "Kanaria"----------------
#NOTEDATA:;
#CHARTNAME:;
#STEPSTYPE:dance-single;
#DESCRIPTION:TaroNuke as "Kanaria";
#CHARTSTYLE:;
#DIFFICULTY:Hard;
#METER:13;
#RADARVALUES:0.501751,0.679345,0.053916,0.569972,0.207963,456.000000,449.000000,7.000000,74.000000,0.000000,0.000000,0.000000,0.000000,0.000000,0.501751,0.679345,0.053916,0.569972,0.207963,456.000000,449.000000,7.000000,74.000000,0.000000,0.000000,0.000000,0.000000,0.000000;
#CREDIT:;
#NOTES:
// measure 0
0000
0000
0000
0000
,  // measure 1
0000
0000
0000
0000
,  // measure 2
0000
0000
0000
0000
,  // measure 3
0000
0000
0000
0000
,  // measure 4
2002
0000
0000
3003
,  // measure 5
1000
0000
0000
0000
0100
0000
0000
0000
0010
0000
0000
0000
0001
0000
0000
0000
0010
0000
0000
0000
0100
0000
0000
0000
1000
0000
0000
0000
0000
0000
0001
0000
0000
0100
0000
0000
0001
0000
0000
0000
0000
0000
1000
0000
0000
0100
0000
0000
,  // measure 6
1000
0000
0000
0000
0000
0000
0001
0000
0000
0010
0000
0000
0001
0000
0000
0000
0000
0000
1000
0000
0000
0010
0000
0000
1000
0000
0000
0000
0001
0000
0000
0000
1000
0000
0000
0000
0200
0000
0000
0000
0000
0000
0310
0000
0000
0000
0000
0000
,  // measure 7
0200
0000
1300
0001
0200
0000
0310
1000
,  // measure 8
0001
0000
1000
0100
1000
0000
0001
0000
0100
0010
0100
0010
0100
0000
0001
0000
,  // measure 9
0200
0000
0301
1000
0200
0000
0310
0001
,  // measure 10
1000
0010
0001
0010
0100
0010
1000
0001
,  // measure 11
0020
0000
0031
1000
0020
0000
0130
0001
,  // measure 12
1000
0000
0001
0100
0001
0000
1000
0000
0100
0010
0100
0010
0100
0000
1000
0000
,  // measure 13
0001
0000
0000
0010
0100
0000
1000
0000
0020
0000
0000
0000
0100
0000
0000
0000
,  // measure 14
1030
0000
0000
0100
0010
0000
0001
0000
0200
0000
0000
0000
0010
0000
0000
0000
,  // measure 15
0301
0000
0000
0000
1010
0000
0000
0001
0000
0000
0001
0000
0011
0000
0000
0000
,  // measure 16
0000
0000
1000
0000
1100
0000
0000
0001
0000
0000
0100
0000
0101
0000
0000
0000
,  // measure 17
1000
0100
0010
0100
2000
0000
0000
3001
,  // measure 18
0000
0100
0010
0100
0001
1000
0100
1000
,  // measure 19
0001
0100
0010
0100
0002
0000
0000
1003
,  // measure 20
0000
0100
0010
0100
2000
0000
3002
0000
,  // measure 21
0013
0100
1000
0010
0200
0000
0000
0301
,  // measure 22
0000
0100
0001
0010
0200
0000
2300
0000
,  // measure 23
3002
0000
0000
0203
0000
0000
0320
0000
,  // measure 24
1030
0100
0010
0001
0010
0100
1000
0000
,  // measure 25
0001
0100
0010
0100
0002
0000
0000
1003
,  // measure 26
0000
0100
0010
0100
1000
0001
0100
0001
,  // measure 27
1000
0100
0010
0100
2000
0000
0000
3001
,  // measure 28
0000
0100
0010
0100
0002
0000
2003
0000
,  // measure 29
3010
0100
0001
0010
0200
0000
0000
1300
,  // measure 30
0000
0100
1000
0010
0200
0000
0302
0000
,  // measure 31
2003
0000
0000
3200
0000
0000
0320
0000
,  // measure 32
0031
0100
0010
1000
0010
0100
0001
0000
,  // measure 33
1000
1000
0100
0010
0001
0001
0100
0010
,  // measure 34
2000
0100
0001
0100
0010
0100
3001
0000
,  // measure 35
0001
0001
0100
0010
1000
1000
0100
0010
,  // measure 36
0002
0100
1000
0100
0010
0100
1003
0000
,  // measure 37
0001
0001
0001
0010
0200
0000
0000
0000
,  // measure 38
1300
1000
1000
0010
0200
0000
0000
0000
,  // measure 39
0302
0000
0000
0000
0003
0010
0100
1000
,  // measure 40
0002
0000
0103
0010
2000
0000
3100
0010
,  // measure 41
0001
0000
0000
0000
0100
0000
0000
0000
0010
0000
0000
0000
1000
0000
0000
0000
0010
0000
0000
0000
0100
0000
0000
0000
0001
0000
0000
0000
0000
0000
1000
0000
0000
0100
0000
0000
1000
0000
0000
0000
0000
0000
0001
0000
0000
0100
0000
0000
,  // measure 42
0001
0000
0000
0000
0000
0000
1000
0000
0000
0010
0000
0000
1000
0000
0000
0000
0000
0000
0001
0000
0000
0010
0000
0000
0001
0000
0000
0000
1000
0000
0000
0000
0001
0000
0000
0000
0200
0000
0000
0000
0000
0000
0310
0000
0000
0000
0000
0000
,  // measure 43
0200
0000
0301
1000
0200
0000
0310
0001
,  // measure 44
1000
0000
0001
0100
0001
0000
1000
0000
0100
0010
0001
0010
0100
0000
1000
0000
,  // measure 45
0200
0000
1300
0001
0200
0000
0310
1000
,  // measure 46
0001
0010
1000
0010
0100
0010
0001
1000
,  // measure 47
0020
0000
1030
0001
0020
0000
0130
1000
,  // measure 48
0001
0000
1000
0100
1000
0000
0001
0000
0100
0010
1000
0010
0100
0000
0001
0000
,  // measure 49
1000
0000
0000
0010
0100
0000
0001
0000
0020
0000
0000
0000
0100
0000
0000
0000
,  // measure 50
0031
0000
0000
0100
0010
0000
1000
0000
0200
0000
0000
0000
0000
0000
1300
0000
,  // measure 51
0020
0000
1030
0001
0020
0000
0130
1000
,  // measure 52
0001
0000
1000
0010
0100
0000
0001
0000
0010
0100
1000
0100
0010
0000
0001
0000
,  // measure 53
0020
0000
0031
1000
0020
0000
0130
0001
,  // measure 54
1000
0100
0001
1000
0010
0001
1000
0001
,  // measure 55
0200
0000
0301
1000
0200
0000
0310
0001
,  // measure 56
1000
0000
0001
0010
0100
0000
1000
0000
0010
0100
0001
0100
0010
0000
1000
0000
,  // measure 57
0001
0000
0000
0100
0010
0000
1000
0000
0200
0000
0000
0000
0010
0000
0000
0000
,  // measure 58
1300
0000
0000
0010
0100
0000
0001
0000
0020
0000
0000
0000
1030
0000
0000
0000
,  // measure 59
0001
0000
0100
0000
0020
0000
0000
0000
1000
0000
0000
0000
0130
0000
0000
0001
,  // measure 60
1000
0000
0100
0000
0020
0000
0000
0000
0001
0000
0000
0000
0130
0000
0000
1000
,  // measure 61
0001
0100
0020
0000
1030
0001
0010
0000
,  // measure 62
0200
0000
0300
1000
0100
0010
0002
0000
,  // measure 63
0103
0000
0000
0000
0000
0000
0010
0000
1000
0000
0001
0000
2000
0000
0000
0000
0000
0000
0000
0000
0000
3100
0000
0000
,  // measure 64
0010
0100
2000
0000
0000
3010
0100
0010
,  // measure 65
2000
0000
0000
0100
0000
0000
3020
0000
0000
0130
0001
1000
,  // measure 66
0002
0000
0000
0103
0010
0100
0002
0000
,  // measure 67
0000
0013
0100
0010
0002
0000
0100
0000
,  // measure 68
0023
0000
0000
0000
0000
0000
0031
0000
0100
0000
0010
0000
1000
0000
0000
0001
0000
0000
0010
0000
0000
0100
0000
0000
,  // measure 69
1000
0001
0100
0010
1000
0000
0101
0000
,  // measure 70
1002
0023
0230
0320
,  // measure 71
0000
0000
0032
1000
,  // measure 72
0200
0000
0000
0000
,  // measure 73
0000
0000
0303
0000
;

//---------------dance-single - Ama-tan as "Barasuishou"----------------
#NOTEDATA:;
#CHARTNAME:Ama-tan as "Barasuishou";
#STEPSTYPE:dance-single;
#DESCRIPTION:Ama-tan as "Barasuishou";
#CHARTSTYLE:;
#DIFFICULTY:Challenge;
#METER:15;
#RADARVALUES:0.617286,0.735957,0.469842,0.716316,0.296539,561.000000,500.000000,61.000000,93.000000,0.000000,0.000000,0.000000,0.000000,0.000000,0.617286,0.735957,0.469842,0.716316,0.296539,561.000000,500.000000,61.000000,93.000000,0.000000,0.000000,0.000000,0.000000,0.000000;
#CREDIT:Ama-tan as "Barasuishou";
#NOTES:
0000
0000
0000
0000
,
0000
0000
0000
0000
,
0000
0000
0000
0000
,
0000
0000
0000
0000
,
0001
1000
0100
1000
0002
0000
0000
0000
0000
0000
0000
0000
0000
0000
0003
0000
,
1000
0000
0000
0000
0100
0000
0000
0000
0010
0000
0000
0000
0001
0000
0000
0000
0100
0000
0000
0000
0010
0000
0000
0000
1000
0000
0000
0000
0000
0000
0001
0000
0000
0010
0000
0000
0100
0000
0000
0000
0000
0000
1000
0000
0000
0010
0000
0000
,
0100
0000
0000
0000
0000
0000
0001
0000
0000
0010
0000
0000
0100
0000
0000
0000
0000
0000
1000
0000
0000
0010
0000
0000
0100
0000
0000
0000
0001
0000
0000
0000
0010
0000
0000
0000
0100
0000
0000
0000
0000
0000
1000
0000
0000
0000
0000
0000
,
1200
0000
0310
0001
0201
0000
0310
1000
,
1100
0000
0100
0010
0001
1000
0010
0100
0001
1000
0100
1000
0001
0000
0100
0000
,
0201
0000
0310
1000
1200
0000
0310
0001
,
0011
0010
0110
0100
1100
1000
0010
0100
,
0201
0000
0310
1000
1200
0000
0310
0001
,
0101
0000
0100
0010
1000
0001
0010
0100
1000
0001
0100
0001
1000
0000
0100
0000
,
1100
0000
1000
0001
0100
0000
0010
0000
0120
0000
0000
0000
1030
0000
0000
0000
,
0101
0000
0001
1000
0100
0000
0010
0000
0120
0000
0000
0000
0031
0000
0000
0000
,
1000
0000
0000
0000
0001
0000
0100
0000
0001
0000
0000
0000
1000
0000
0200
0300
0000
0000
0200
0300
0001
0000
0000
0000
1100
0000
0000
0000
0001
0000
0000
0000
,
0101
0000
0000
0000
1000
0000
0100
0000
1000
0000
0000
0000
0001
0000
0200
0300
0000
0000
0200
0300
1000
0000
0000
0000
0101
0000
0000
0000
0000
0000
0000
0000
,
1100
1000
0001
0200
0020
0000
0030
0301
,
1000
0001
0010
0100
0001
0100
0010
0001
,
0100
0001
1000
0200
0020
0000
0030
1300
,
0001
1000
0010
0100
2000
0000
3200
0000
,
0301
1000
0100
0020
0200
0000
0300
0031
,
1000
0001
0100
0010
2000
0000
3200
0000
,
0320
0000
0000
0000
0000
0000
0031
1000
0020
0000
0000
0000
0230
0000
0000
0000
,
0301
0010
1000
0001
0100
1000
0020
0000
,
1030
0001
0010
0200
0002
0000
0003
1300
,
0001
1000
0010
0100
0010
0001
0010
0100
,
0001
1000
0010
0200
2000
0000
3000
0301
,
1000
0001
0010
0100
0002
0000
0203
0000
,
1300
0001
0100
0020
0002
0000
0003
0130
,
0001
1000
0100
1000
0002
0000
0023
0000
,
0230
0000
0000
0000
0000
0000
1300
0001
0200
0000
0000
0000
0320
0000
0000
0000
,
1030
0100
0001
1000
0010
0001
0200
0000
,
0301
0001
0010
0100
0001
0001
0100
0010
,
0001
0200
0320
0032
0023
0230
0302
0003
,
1000
1000
0010
0100
1000
1000
0100
0010
,
1000
0200
0320
2030
3020
0230
2300
3000
,
0001
0001
0001
0010
0200
0001
0010
1300
,
0001
0001
0001
0100
0020
0001
0100
1030
,
2001
0000
0000
0000
0000
0000
0000
0000
3000
0000
0100
0010
0001
0000
1000
0000
,
0020
0000
1030
0001
0020
0000
0130
1000
,
0001
0000
0000
0000
0100
0000
0000
0000
0010
0000
0000
0000
1000
0000
0000
0000
0100
0000
0000
0000
0010
0000
0000
0000
0001
0000
0000
0000
0000
0000
1000
0000
0000
0010
0000
0000
0100
0000
0000
0000
0000
0000
0001
0000
0000
0010
0000
0000
,
0100
0000
0000
0000
0000
0000
1000
0000
0000
0010
0000
0000
0100
0000
0000
0000
0000
0000
0001
0000
0000
0010
0000
0000
0100
0000
0000
0000
1000
0000
0000
0000
0010
0000
0000
0000
0100
0000
0000
0000
0000
0000
0001
0000
0000
0000
0000
0000
,
0201
0000
0310
1000
1200
0000
0310
0001
,
0101
0000
0100
0010
1000
0001
0010
0100
1000
0100
0001
0100
0010
0000
0001
0000
,
1200
0000
0310
0001
0201
0000
0310
1000
,
1010
0010
0110
0100
0101
0001
0010
0100
,
1200
0000
0310
0001
0201
0000
0310
1000
,
1100
0000
0100
0010
0001
1000
0010
0100
0001
0100
1000
0100
0010
0000
1000
0000
,
0101
0000
0001
1000
0100
0000
0010
0000
0120
0000
0000
0000
0031
0000
0000
0000
,
1100
0000
1000
0001
0100
0000
0010
0000
0120
0000
0000
0000
1030
0000
0001
0000
,
0021
0000
0130
1000
1020
0000
0130
0001
,
1001
0000
1000
0100
0100
0001
1000
0001
0010
0100
0001
0100
0010
0000
0001
0000
,
1020
0000
0130
0001
0021
0000
0130
1000
,
1100
0100
0110
0010
0011
0001
0100
0010
,
1020
0000
0130
0001
0021
0000
0130
1000
,
1001
0000
0001
0100
0100
1000
0001
1000
0010
0100
1000
0100
0010
0000
1000
0000
,
0011
0000
0001
1000
0010
0000
0100
0000
0210
0000
0000
0000
0301
0000
0000
0000
,
1010
0000
1000
0001
0010
0000
0100
0000
0210
0000
0000
0000
1300
0000
0000
0000
,
0001
0000
0100
0000
0020
0000
0000
0000
0001
0000
0000
0000
0130
0000
0000
0001
,
1000
0000
0100
0000
0020
0000
0000
0000
1000
0000
0000
0000
0130
0000
0000
1000
,
0001
0100
0020
0000
0031
0010
1000
0000
,
0002
0000
0003
1000
0100
0010
0002
0000
,
0103
0000
0000
0000
0000
0000
0010
0000
1000
0000
0001
0000
2001
0000
0000
0000
0000
0000
0000
0000
0000
3100
0000
0000
,
0010
0100
1002
0000
0000
0103
0010
0100
,
2001
0000
0000
0100
0000
0000
3020
0000
0000
0130
0001
1000
,
1002
0000
0000
0013
0100
0010
2001
0000
,
0000
3010
0100
0010
1002
0000
0100
0000
,
0023
0000
0000
0000
0000
0000
0000
0000
0000
0000
0000
0000
0031
0000
0000
0000
0100
0000
0000
0000
0010
0000
0000
0000
1010
0000
0000
0000
0000
0000
1000
0000
0000
0000
0000
0000
0010
0000
0000
0100
0000
0000
0001
0000
0000
0000
0000
0000
,
0011
0000
0010
0000
0001
0100
0010
0000
1010
0000
0000
0000
0101
0000
0000
0000
,
1002
0023
0230
0320
,
0000
0000
0032
1000
,
0200
0000
0000
0000
,
0000
0000
0303
0000
;
