#VERSION:0.83;
#TITLE:Scarlet High Heels;
#SUBTITLE:;
#ARTIST:BEMANI Sound Team "Loz";
#TITLETRANSLIT:;
#SUBTITLETRANSLIT:;
#ARTISTTRANSLIT:;
#GENRE:;
#CREDIT:chronon;
#MUSIC:Scarlet High Heels.ogg;
#BANNER:Scarlet High Heels.png;
#BACKGROUND:Scarlet High Heels-bg.png;
#CDTITLE:;
#SAMPLESTART:74.691;
#SAMPLELENGTH:21.000;
#SELECTABLE:YES;
#OFFSET:1.166;
#BPMS:0.000=140.000;
#STOPS:;
#BGCHANGES:;
#FGCHANGES:;

//--------------- dance-single - chronon ----------------
#NOTEDATA:;
#STEPSTYPE:dance-single;
#DESCRIPTION:chronon;
#DIFFICULTY:Beginner;
#METER:4;
#RADARVALUES:0,0,0,0,0;
#NOTES:
0000
0000
0000
0000
,
0000
0000
0000
0000
,
0000
0000
0000
0000
,
0000
0000
0000
0000
,
0000
0000
0000
0000
,
2000
0000
3000
0020
,
0000
0030
0200
0000
,
0300
0002
0000
0003
,
1000
0000
1000
0100
,
0000
0100
0010
0000
,
0010
0001
0000
0001
,
1000
0000
1000
0010
,
0000
0010
0100
0000
,
0100
0001
0000
0001
,
0000
0000
1000
1000
,
1000
0000
0100
0000
,
0010
0000
0001
0001
,
0001
0000
0100
0000
,
0010
0000
1000
1000
,
1000
0000
0010
0000
,
0100
0000
0001
0001
,
0001
0000
2000
0000
,
0000
3000
0001
0100
,
0100
0000
0001
1000
,
0001
0000
1000
0100
,
0100
0000
1000
0000
,
0001
0000
1000
0010
,
0010
0000
1000
0001
,
1000
0000
0000
1001
,
0000
0000
0000
0000
,
0001
0000
1000
0100
,
0010
0000
0001
1000
,
0001
0000
0001
0100
,
0010
0000
1000
0001
,
1000
0000
1000
0100
,
0010
0000
0001
1000
,
0001
0000
0001
0100
,
0010
0000
0010
0000
,
0010
0000
0000
0000
,
0000
0000
0000
0000
,
0000
0000
0000
0000
,
0000
0000
1000
0000
,
0000
0001
0000
0000
,
1000
0001
1000
0001
,
0000
0000
1000
0000
,
0100
0010
0000
0010
,
0001
0000
0100
0010
,
0000
0010
1000
0000
,
1000
0010
0000
0010
,
0100
0100
0000
0001
,
0001
0000
0001
0000
,
0100
0010
0000
0010
,
1000
0000
0100
0010
,
0000
0010
0001
0010
,
0000
0100
1000
0000
,
1000
0010
0000
0100
,
0001
0000
1000
0001
,
1000
0100
0000
0000
,
1000
0001
1000
0010
,
0000
0000
2002
0000
,
0000
0000
0000
0000
,
3003
0000
0000
0000
,
0000
0000
0001
0001
,
0000
0100
0100
0000
,
0010
0010
0000
1000
,
1000
0000
0001
0010
,
0001
1000
0000
0000
,
1000
0010
1000
0001
,
0000
1000
0000
0000
,
2002
0000
0000
0000
,
0000
0000
3003
0000
;

//--------------- dance-single - chronon ----------------
#NOTEDATA:;
#STEPSTYPE:dance-single;
#DESCRIPTION:chronon;
#DIFFICULTY:Easy;
#METER:9;
#RADARVALUES:0,0,0,0,0;
#NOTES:
0000
0000
0000
0000
,
0000
0000
0000
0000
,
0000
0000
0000
0000
,
0000
0000
0000
0000
,
0000
0000
0000
0000
,
0002
0000
0000
0013
0100
0000
2000
0000
,
0000
3010
0100
0000
0002
0000
0000
0103
,
0010
0000
1000
0001
1000
0000
0100
0000
,
0010
0001
0010
0000
0001
0000
0100
0001
,
0100
0000
0001
0000
1000
0001
1000
0000
,
0100
0000
1000
0001
1000
0000
0010
0000
,
1000
0010
0100
0000
0001
0000
1000
0100
,
0010
0000
0001
0000
0010
0100
1000
0000
,
0001
0100
0001
1000
,
0000
0000
0001
0100
,
1000
0100
0010
1000
,
1010
0000
0011
0010
,
1000
0010
0001
1000
,
0001
1000
0001
0100
,
1000
0000
0100
0000
0010
1000
0010
0000
,
1010
0000
0011
0010
,
1000
0000
0000
0000
0010
0000
0000
0000
0001
0000
0000
0001
0000
0000
1000
0000
,
0000
1000
0000
0000
0001
0000
0000
0000
1000
0000
0000
0000
0000
0000
0010
0000
,
0000
0010
0000
0000
0000
0000
0000
0000
1000
0000
0000
0000
0000
0000
0000
0000
,
0001
0000
0000
0000
0001
0000
0000
0010
,
0000
0010
0000
0000
0000
0000
0000
0000
0001
0000
0000
0000
1000
0000
0000
0000
,
0010
0000
0000
0000
0100
0000
0000
0000
0001
0000
0000
0100
0000
0000
0010
0000
,
0000
0010
0000
0000
0000
0000
0000
0000
1000
0000
0000
0000
0001
0000
0000
0000
,
1000
0000
0100
0000
0000
1000
0100
0000
,
1000
0000
0000
0001
0000
0000
0100
0000
,
0010
0000
0000
0010
0000
0000
0010
0000
1000
0000
0000
0000
0010
0000
0000
0000
,
0100
0000
0001
0000
0010
0100
0000
0000
,
1100
0000
0101
0100
,
0010
1000
0100
0010
,
0100
0000
1000
0000
0001
0100
0001
0000
,
0100
0010
0100
0000
0010
0000
1000
0000
,
1010
0000
0011
0010
,
0100
1000
0001
0000
,
1000
0000
0000
0001
0000
0000
1000
0000
0000
0000
0000
0000
0000
0000
0000
0000
,
0000
0000
0000
0000
,
0000
0000
0000
0000
,
0000
0000
0001
0001
,
0001
1000
1000
1000
,
0100
0100
0010
0010
,
0000
0000
0100
0000
0002
0000
0000
0203
,
0000
1300
0001
0100
,
2000
0000
0000
3200
0000
0000
0301
0000
,
0100
0000
0010
0000
2000
0000
0000
3020
,
0000
0130
0001
1000
,
0001
0000
0000
0001
0000
0000
0001
0000
0000
0000
0000
0000
1000
0000
0000
1000
,
0000
1000
0010
0000
0002
0000
0000
0023
,
0000
1030
0001
0010
,
2000
0000
0000
3020
0000
0000
0031
0000
,
0010
0000
0100
0000
1000
0000
0001
1000
,
0001
0000
0100
0000
0010
0100
0010
0000
,
1000
0000
0000
1000
0000
0000
1000
0000
0000
0000
0000
0000
0001
0000
0000
0001
,
0000
0001
0010
0000
0001
0010
0100
0000
,
1000
0000
1000
0010
0100
0000
0001
0000
,
0001
0100
0010
0000
0010
0000
1000
0100
,
0010
0100
2002
0000
,
0000
0000
0000
0000
,
3003
0000
0000
0000
,
0000
0000
0000
0000
0000
0000
0000
0000
0001
0000
0000
0100
0000
0000
0001
0000
,
0100
0000
0000
0000
0010
0000
0000
1000
0000
0000
0010
0000
1000
0000
0000
0000
,
1000
0000
0000
0100
0000
0000
1000
0000
0100
0000
0000
0000
0010
0000
0001
0000
,
0010
0000
0001
0000
1000
0010
0100
0000
,
0001
1000
0001
0010
0100
0000
1000
0001
,
1000
0010
0100
0000
0001
1000
0001
0000
,
1000
0000
0010
0100
0000
0000
0000
0000
,
2002
0000
0000
0000
,
0000
0000
3003
0000
;

//--------------- dance-single - chronon ----------------
#NOTEDATA:;
#STEPSTYPE:dance-single;
#DESCRIPTION:chronon;
#DIFFICULTY:Medium;
#METER:13;
#RADARVALUES:0,0,0,0,0;
#NOTES:
0000
0000
0000
0000
,
0000
0000
0000
0000
,
0000
0000
0000
0000
,
0000
0000
0000
0000
,
0000
0000
0000
0000
,
1000
0000
0000
0010
0000
0000
0100
0000
0001
0000
1000
0000
0001
0000
0000
0010
,
0000
0000
0100
0000
1000
0000
0001
0000
1000
0000
0000
0010
0000
0000
0100
0000
,
0001
0000
1000
0000
0001
0000
0010
0000
0100
0010
0100
0000
1000
0001
1000
0000
,
0001
0000
0100
0001
0000
1000
0010
0000
1000
0000
0001
0000
1000
0000
0100
1000
,
0000
0001
0010
0000
0001
0000
1000
0000
0001
0000
0100
0001
0000
1000
0010
0000
,
0100
0000
0001
0000
1000
0000
0100
1000
0000
0001
0010
0000
0100
0000
1000
0000
,
0001
0000
0010
0001
0000
0010
0100
0000
1000
0000
0001
0000
1000
0000
0010
1000
,
0000
0010
0100
0000
0001
0000
1000
0000
0001
0000
0010
0001
0000
0010
0100
0000
,
1000
0000
0001
0000
1000
0000
0010
0100
0010
0000
1000
0000
0001
1000
0001
1000
,
0000
0000
0000
0000
0001
0010
0200
0000
,
0001
0000
0000
0010
0000
0000
1300
0000
0001
0000
1000
0000
0010
0000
0000
0000
,
1010
0000
0001
1000
1100
0100
0020
0000
,
1000
0000
0000
0100
0000
0000
0031
0000
1000
0000
0001
0000
0100
0000
0010
0000
,
0110
0000
0000
0000
1001
0000
0000
0000
0001
0000
0100
0010
0100
0000
0020
0000
,
0001
0000
0000
0100
0000
0000
1030
0000
0001
1000
0001
0000
1000
0000
0100
0000
,
1100
0000
0000
0000
0001
0000
1000
0000
1010
0000
0010
0100
0010
0000
0200
0000
,
1000
0000
0000
0010
0000
0000
0301
0000
0101
0000
0000
1010
0000
0000
1100
0000
,
0000
0011
0000
0000
1001
0000
0000
0000
1100
0000
0000
0210
0000
0000
0001
0000
,
0000
0310
0000
0000
0001
0000
0100
0000
0101
0000
0000
0110
0000
0000
0020
0000
,
0001
0000
0000
0100
0000
0000
1030
0000
1010
0000
0000
0210
0000
0000
1000
0000
,
0000
0310
0000
0000
1000
0000
0100
0000
1000
0000
0100
0000
0010
0000
0000
0001
,
0000
0000
1000
0000
0001
0000
0000
0000
0101
0000
0000
0120
0000
0000
0001
0000
,
0000
0130
0000
0000
0001
0000
0010
0000
0011
0000
0000
0110
0000
0000
0100
0000
,
1000
0100
0001
0100
0000
1000
0001
0000
,
1000
0001
1000
0000
0000
0000
1001
0000
0000
0000
0001
0000
0100
0000
0010
0000
,
0110
0000
0000
1010
0000
0000
1001
0000
0001
0000
0000
0010
0000
0100
0000
0000
,
1000
0000
0000
0010
0000
0100
0000
0001
0000
0000
1000
0000
0000
0000
0001
1000
,
0001
0000
0010
0000
0100
0000
0010
0000
0001
0000
0000
0100
0000
0010
0000
0000
,
1000
0000
0000
0100
0000
0010
0000
0000
0001
0010
0000
0000
0010
0100
0000
0000
,
0100
1000
0000
0000
1000
0001
0000
0000
1000
0000
0010
1000
0010
0000
0100
0000
,
0001
0000
1000
0001
1000
0000
0001
0010
0000
0100
1000
0000
0001
0000
1000
0001
,
1000
0000
0010
0000
0100
0000
0001
0000
0000
0000
1000
0001
1000
0000
0100
0000
,
1000
0000
0001
0000
1000
0000
0010
0000
1000
0000
0000
0010
0000
0000
0100
0000
,
0001
0000
0000
1000
0000
0000
1001
0000
0000
0000
0000
0000
0000
0000
0000
0000
,
0000
0000
0000
0000
,
0000
0000
0000
0000
0000
0000
0000
0000
0000
0000
0000
0000
0001
0000
0000
1000
,
0000
0100
0020
0000
0031
0001
0010
0010
,
0100
0000
1000
1000
0010
0010
0100
0000
,
0001
0001
0100
0100
0010
0010
1000
0000
,
0000
0000
0000
0000
0001
0000
0100
0000
0010
0000
0000
0100
0000
0000
2000
0000
,
0000
3000
0101
0000
0100
0001
1000
0100
,
0010
0000
0000
0100
0000
0000
0002
0000
0000
0000
0003
0000
1100
0000
0000
0110
,
0000
0000
0011
0000
0001
0000
1000
0000
0001
0000
0000
0100
0000
0000
2000
0000
,
0000
3000
0110
0000
0010
0100
0001
0000
,
0101
0000
0000
1010
0000
0000
1001
0000
0000
0000
0000
0000
1100
0000
0000
0011
,
0000
0000
1001
0000
0001
0000
1000
0000
0100
0000
0000
0010
0000
0000
2000
0000
,
0000
3000
0011
0000
0010
0001
1000
0010
,
0100
0000
0000
0010
0000
0000
0002
0000
0000
0000
0003
0000
1010
0000
0000
0110
,
0000
0000
0101
0000
0001
0000
1000
0000
0001
0000
0000
0010
0000
0000
0100
0000
,
1000
0000
0001
0000
1000
0000
0000
0010
0000
0000
0100
0000
0001
0000
0000
0000
,
0101
0000
0000
1010
0000
0000
1001
0000
0000
0000
0000
0000
1100
0000
0000
0011
,
0000
0000
1001
0000
1000
0000
0100
0000
0010
0000
0100
0010
0100
0000
1000
0001
,
1000
0000
0001
0000
1000
0000
0010
0100
0010
0000
1000
0001
1000
0000
0100
0000
,
0010
0000
0001
0010
0001
0000
1000
0001
1000
0000
0001
0000
0100
0000
0001
0100
,
0001
0100
0010
0100
0220
0000
0000
0000
,
0000
0000
0000
0330
,
2002
0000
0000
0000
,
0000
0000
0000
0000
3003
0000
0000
0000
1000
0000
0001
1000
0000
0001
1000
0000
,
0001
0000
0010
0000
0100
0000
0010
0100
0000
0010
0100
0000
1000
0000
0001
0000
,
1000
0000
0010
1000
0000
0010
1000
0000
0001
0000
0010
0000
0001
0000
0010
0001
,
0010
0000
0100
0000
1000
0001
1000
0000
0001
0000
0100
0001
0100
0000
0010
0000
,
1000
0000
0001
0000
1000
0000
0100
1000
0100
0000
0010
0000
0001
0000
1000
0000
,
0001
0000
0100
0001
0100
0000
0010
0000
0001
0000
0010
0000
0100
0000
0010
0100
,
0010
0000
1000
0000
0001
1000
0001
1000
0000
0000
0000
0000
0000
0000
0000
0000
,
2002
0000
0000
0000
,
0000
0000
3003
0000
;

//--------------- dance-single - chronon ----------------
#NOTEDATA:;
#STEPSTYPE:dance-single;
#DESCRIPTION:chronon;
#DIFFICULTY:Hard;
#METER:16;
#RADARVALUES:0,0,0,0,0;
#NOTES:
0000
0000
0000
0000
,
0000
0000
0000
0000
,
0000
0000
0000
0000
,
0000
0000
0000
0000
,
0000
0000
0000
0000
,
0001
0000
0010
0100
0000
0100
1000
0000
0001
1000
0001
0000
1000
0000
0010
0100
,
0000
0100
0001
0000
1000
0001
1000
0000
0001
0000
0100
0010
0000
0010
1000
0000
,
0001
1000
0001
0000
1000
0000
0100
0000
1000
0100
0010
0000
0001
0100
0010
0000
,
1000
0000
0010
1000
0000
0010
0100
0001
1000
0001
0010
0000
0001
0000
0010
0001
,
0000
0010
0100
1000
0001
1000
0010
0000
1000
0000
0001
1000
0000
0001
0100
0010
,
0100
0001
1000
0000
0001
0000
1000
0001
0000
1000
0100
0010
0100
1000
0001
0000
,
1000
0001
0100
0010
1000
0001
0010
0100
1000
0100
0010
0000
0001
1000
0100
0010
,
0001
1000
0010
0100
0001
0100
0010
0000
1000
0001
0100
0010
1000
0001
1000
0100
,
0010
0001
0100
0000
0101
0000
0001
0100
0010
1000
0001
1000
0100
0010
0001
1000
,
0000
0000
0001
0100
0010
0000
0000
0000
0110
0000
0010
1000
0100
0010
0000
0100
,
0001
0200
0000
0010
0000
0000
1300
0000
0000
0001
1000
0000
0010
0100
0000
0000
,
1001
0000
1000
0001
0010
0100
0010
0000
0110
0000
0010
0001
0100
0010
0000
0100
,
1000
0200
0000
0010
0000
0000
0301
0000
0100
0001
1000
0100
0010
0001
0010
0100
,
1000
0000
0001
1000
0010
0100
0001
0000
0201
0000
0310
1000
0100
0010
0000
0100
,
0001
0100
0020
0001
0000
0230
1000
0000
0310
0001
0100
0000
0101
0000
0001
0100
,
0010
0100
0001
1000
0100
0010
0100
0000
1200
0000
0310
0001
0100
0010
0000
0100
,
1000
0100
0020
1000
0000
0130
0001
0000
0101
0000
0000
1100
0000
0000
0011
0000
,
0000
1010
0000
0000
1001
0000
0000
0000
0101
0000
0000
0210
0000
0000
1000
0000
,
0000
0301
0000
0000
0010
0100
1000
0000
1100
0000
0000
0110
0000
0000
0011
0000
,
2001
0000
0000
0100
0000
0000
3010
0000
1010
0000
0000
0120
0000
0000
0001
0000
,
0000
1030
0000
0000
0100
0010
0001
0010
0100
1000
0001
1000
0010
0100
0001
1000
,
0000
1000
0010
0100
0001
1000
0100
0000
1100
0000
0000
0210
0000
0000
0001
0000
,
0000
1300
0000
0000
0010
0100
0001
0000
0101
0000
0000
0110
0000
0000
1010
0000
,
1000
0010
0100
0010
0002
0000
0013
0000
0000
0000
1000
0001
1000
0000
0000
0000
,
0001
1000
0001
1000
0000
0000
0000
0000
0000
1001
0000
0000
0000
0000
0000
1000
0000
0000
0010
0000
0000
0100
0000
0000
,
0110
0000
0000
0101
0000
0000
1001
0000
1000
0000
0100
0010
0000
0010
0000
0010
,
0001
0000
0000
0000
0000
0000
0100
0000
0000
0010
0000
0000
0000
0000
0000
0010
0000
0000
0000
0000
0000
0010
0000
0000
0000
0000
0000
1000
0000
0000
0200
0000
0000
0000
0000
0000
0000
0000
0000
0000
0000
0000
1300
0000
0100
0000
0010
0000
,
0001
0000
1000
0001
1000
0010
0100
0001
1000
0001
0010
0100
0000
0100
0000
0100
,
1000
0000
0010
0100
0000
0100
0001
1000
0001
0010
0100
1000
0001
0100
0010
1000
,
0001
0100
0010
0100
0001
0010
0100
0010
0001
0000
0001
1000
0010
0000
0010
0100
,
0001
0000
0001
1000
0100
0000
2000
0100
0000
3002
0100
0000
1003
0000
0001
0010
,
0100
0000
0000
1000
0000
0000
0001
0000
0000
1000
0000
0000
0010
0000
0000
0100
0000
0000
0001
0000
0000
0100
0000
0000
0000
0000
0000
0000
0000
0000
0001
0000
0100
0000
0010
0000
1000
0000
0000
0000
0000
0000
0010
0000
0000
1000
0000
0000
,
0100
0000
0010
0001
0100
0000
0010
1000
0001
0010
0100
1000
0001
0100
0001
0000
,
0101
0000
0000
0110
0000
0000
1010
0000
2000
0000
0000
0000
3002
0000
0000
0000
,
0203
0320
2030
3002
,
2003
0000
0000
0000
3002
0000
0000
0000
0023
0000
0000
0000
0031
0000
0000
0010
,
0000
0100
2000
0000
3001
0001
1000
1000
,
0100
0100
1000
1000
0001
0001
0100
0100
,
0001
0000
0100
0000
0010
0000
1000
0000
0100
0000
0010
0000
1001
0000
0001
0010
,
0100
0010
0001
1000
0001
0100
0010
0200
1000
0000
0000
0310
0000
0000
2010
0000
,
0000
0000
3001
0010
0200
0000
0000
0000
1300
0100
0010
0001
1000
0010
0100
0020
,
0001
0000
0000
0130
0000
0000
0102
0000
0000
0000
1003
0100
0010
0000
0001
1000
,
0000
0001
0100
0000
0001
0100
0010
2000
0001
0000
0000
3100
0000
0000
1200
0000
,
0000
0000
0310
0001
2000
0000
0000
0000
3001
0000
1000
0000
0001
0000
0010
0000
,
0011
0000
0000
1010
0000
0000
0101
0000
0100
0010
1000
0000
1010
0000
0000
0011
,
0000
0000
1100
0000
1000
0100
0010
0200
0001
0000
0000
0310
0000
0000
0012
0000
,
0000
0000
1003
0010
0200
0000
0000
0000
0301
0100
0010
1000
0001
0010
0100
0020
,
1000
0000
0000
0130
0000
0000
2100
0000
0000
0000
3001
0100
0010
0000
1000
0001
,
0000
1000
0100
0000
1000
0100
0010
0002
0010
0000
0000
1003
0000
0000
0010
0000
,
1000
0000
0010
2000
0010
0000
0000
3001
0000
0000
0100
0000
0001
1000
0100
0000
,
1100
0000
0000
0101
0000
0000
1010
0000
0010
0100
0001
0000
0101
0000
0000
1100
,
0000
0000
0011
0000
0001
0010
0100
1000
0001
0000
1000
0010
0100
0010
1000
0001
,
1000
0100
0010
0001
1000
0000
0001
0100
0010
0100
0001
1000
0001
0010
0100
1000
,
0001
0000
0000
0000
0000
0000
1000
0000
0000
0100
0000
0000
0010
0000
0000
0100
0000
0000
1000
0000
0000
0001
0000
0000
1000
0000
0000
0010
0000
0000
0100
0000
0000
0001
0000
0000
1000
0000
0000
0000
0000
0000
0001
0000
1000
0000
0001
0000
,
0100
0010
1000
0001
1000
0100
0010
0000
2002
0000
0000
0000
3003
0000
0000
0000
,
0001
0000
1000
0000
0001
0000
0000
0001
0000
0000
0001
0000
0001
0000
1000
0000
,
2002
0000
0000
0000
0000
0000
0000
0000
3003
0000
0000
0000
1000
0010
1000
0000
,
0001
0010
0001
0000
0011
0000
0000
0000
2001
0000
3100
0010
0000
0010
0001
1000
,
0001
0100
0010
0000
1002
0000
0103
0010
0000
0010
1000
0001
0010
0100
0010
0000
,
0110
0000
0100
0010
0000
0010
0001
1000
0010
0100
0010
0000
0110
0000
1001
0000
,
1000
0000
0000
0100
0000
0000
0010
0000
0000
0000
0000
0000
0100
0000
0010
0000
0001
0000
1000
0000
0000
0001
0000
0000
1000
0000
0000
0010
0000
0000
0100
0000
0000
0001
0000
0000
0010
0000
0000
0100
0000
0000
1000
0000
0000
0001
0000
0000
,
1000
0010
0100
0000
0001
0100
0010
1000
0100
0010
0001
1000
0001
0100
0010
0000
,
1000
0010
0100
0001
0010
0100
1000
0100
0001
0100
1000
0000
1010
0000
0010
1000
,
0010
0000
0000
0100
0000
0000
0001
0000
0000
1000
0000
0000
0001
0000
0000
0010
0000
0000
0100
0000
0000
1000
0000
0000
0000
0000
0000
0000
0000
0000
0001
0000
1000
0000
0001
0000
0100
0000
0000
0010
0000
0000
0000
0000
0000
0000
0000
0000
,
2002
0000
0000
0000
,
0000
0000
3003
0000
;
