#TITLE:Saudade;
#ARTIST:mocha;
#GENRE:Latin house;
#CREDIT:tikal.;
#MUSIC:saudade.ogg;
#BANNER:Saudade.png;
#BACKGROUND:Saudade-bg.png;
#CDTITLE:cdtitle.png;
#SAMPLESTART:24.762;
#SAMPLELENGTH:15.238;
#BPMS:0=126;
#BGCHANGES:0=saudade.avi=1=0=0=0=====,99999=-nosongbg-=1=0=0=0=====;

//--------------- dance-single - tikal. ----------------
#NOTES:
     dance-single:
     tikal.:
     Easy:
     5:
     0,0,0,0,0:
0000
0000
0000
0000
,
0000
0000
0000
0000
,
0000
0000
0000
0000
,
0000
0000
0000
0000
,
0000
0000
0000
0000
,
1000
0000
0000
0000
,
0001
0000
0000
0000
0000
0000
0000
0000
0000
0000
0000
0000
0000
0100
0000
0000
,
0010
0000
0010
0000
,
1000
0000
0001
1001
,
1000
0001
1000
1000
,
0001
1000
0001
0001
,
1000
0001
1000
1000
,
0001
0010
1000
0100
,
0001
1000
0001
0001
,
1000
0001
1000
1000
,
0001
1000
0001
0001
,
1000
0010
0001
0100
,
1000
0010
0100
0100
,
0001
0010
0100
0100
,
1000
0010
0001
0100
,
1000
1000
0101
0000
,
0001
0010
0100
0100
,
1000
0010
0100
0100
,
0001
0010
1000
0100
,
0001
0001
1100
0000
,
0100
0010
0100
0100
,
0010
0100
0010
0010
,
0100
0010
0100
0100
,
0010
0001
0100
1000
,
0010
0100
0010
0010
,
0100
0010
0100
0100
,
0010
0100
0010
0010
,
0100
0001
0010
1000
,
1001
0000
0000
0000
,
0000
0000
0000
0000
,
1000
0000
0001
0000
,
1000
0000
0001
0000
,
1000
0100
1000
0100
,
0001
0100
0001
0100
,
1000
1000
0001
0001
,
1000
0100
0001
0010
,
1000
0000
1000
0000
,
0010
0000
0010
0000
,
0100
0001
0010
1000
,
0100
0000
0100
0000
,
0001
0000
0001
0000
,
0010
0000
0010
0000
,
0100
1000
0010
0001
,
0100
0000
0100
0000
,
1000
0001
0110
1001
,
1000
0100
0001
0010
,
1000
0100
0001
0010
,
1000
0100
0001
0010
,
1000
0000
1000
0001
1000
0000
1000
0000
,
0001
0100
1000
0010
,
0001
0100
1000
0010
,
0001
0100
1000
0010
,
0001
0000
0001
1000
0001
0000
0001
0000
,
0001
0000
0000
0000
,
1000
0000
0000
0000
0000
0000
0000
0000
0000
0000
0000
0000
0000
0010
0000
0000
,
0100
0000
0100
0000
,
0001
0000
1000
1001
,
0110
0000
0000
0000
;

//--------------- dance-single - tikal. ----------------
#NOTES:
     dance-single:
     tikal.:
     Medium:
     9:
     0,0,0,0,0:
0000
0000
0000
0000
,
0000
0000
0000
0000
,
0000
0000
0000
0000
,
0000
0000
0000
0000
,
0000
0000
0000
0000
,
1001
0000
0000
0000
,
1001
0000
0000
0000
0000
0000
0000
0000
0000
0000
0000
0000
0000
0100
0000
0000
,
1001
0000
1001
0000
,
1000
0000
0001
1000
0100
0000
0110
0000
,
0001
0000
0100
0000
0001
0100
0001
0000
,
0100
0000
0010
0000
0100
0010
0100
0000
,
1000
0000
0100
0000
1000
0100
1000
0000
,
0100
0001
0010
1000
,
0001
0000
0100
0000
0001
0100
0001
0000
,
0100
0000
0010
0000
0100
0010
0100
0000
,
1000
0000
0100
0000
1000
0100
1000
0000
,
0010
0001
0100
1000
,
0001
0100
0001
0000
0010
0000
0100
0000
,
1000
0100
1000
0000
0010
0000
0100
0000
,
0001
0010
1000
0100
,
0001
0000
0000
0000
0001
0000
0000
0000
1000
0000
0001
0000
0000
0001
0000
0000
,
1000
0010
1000
0000
0100
0000
0010
0000
,
0001
0010
0001
0000
0100
0000
0010
0000
,
1000
0100
0001
0010
,
1000
0000
0000
0000
1000
0000
0000
0000
0001
0000
1000
0000
0000
1000
0000
0000
,
0001
0000
0010
0000
0001
0010
0001
0000
,
0010
0000
0100
0000
0010
0100
0010
0000
,
1000
0000
0010
0000
1000
0010
1000
0000
,
0010
0001
0100
1000
,
0001
0000
0010
0000
0001
0010
0001
0000
,
0010
0000
0100
0000
0010
0100
0010
0000
,
1000
0000
0010
0000
1000
0010
1000
0000
,
0100
0001
0010
1000
,
1001
0000
0000
0000
,
0000
0000
0000
0000
,
0001
0000
0010
0000
,
1000
0000
0100
0000
,
0001
1000
0000
0010
0000
1000
0000
0001
,
0000
0010
0000
0001
0000
1000
0000
0001
,
0100
0010
0100
0010
,
1000
0000
0001
0000
1000
0001
1000
0001
,
1000
1000
0001
0000
,
0001
0001
0100
0000
,
0100
1000
0010
0001
,
0100
0000
0010
1000
,
0001
0001
1000
0000
,
1000
1000
0100
0000
,
0100
0001
0010
1000
,
0100
0000
0010
0001
,
1001
0000
0000
1001
0000
0000
1000
0001
1000
0001
0000
0000
,
1000
0010
1000
0010
0100
0000
1000
0000
,
0001
0010
0001
0010
0100
0000
0001
0000
,
1000
0100
1000
0100
0010
0000
1000
0000
,
0001
0100
1000
0010
,
0001
0010
0001
0010
0100
0000
0001
0000
,
1000
0100
1000
0100
0010
0000
1000
0000
,
0001
0100
0001
0100
0010
0000
0001
0000
,
0100
1000
0010
0001
,
1001
0000
0000
0000
,
1001
0000
0000
0000
0000
0000
0000
0000
0000
0000
0000
0000
0000
0010
0000
0000
,
1001
1000
1001
0001
,
1000
0010
1000
0001
0010
0000
0110
0000
,
1001
0000
0000
0000
;

//--------------- dance-single - tikal. ----------------
#NOTES:
     dance-single:
     tikal.:
     Hard:
     13:
     0,0,0,0,0:
0000
0000
0000
0000
,
0000
0000
0000
0000
,
0000
0000
0000
0000
,
0000
0000
0000
0000
,
0000
0000
0000
0000
,
1001
0000
0010
0000
,
1001
0000
0000
0000
0000
0000
0000
0000
0100
0000
0000
0000
0000
0110
0000
0000
,
1001
0000
1001
0000
,
1000
0000
0010
0000
1000
0000
0001
0000
0010
0000
0000
1100
0000
0000
0101
0000
,
0100
0000
0000
0000
0100
0000
0000
0000
0100
0010
0000
0010
0000
0100
0010
0000
,
1000
0000
0000
0000
1000
0000
0000
0000
1000
0001
0000
0001
0000
1000
0001
0000
,
0010
0000
0000
0000
0010
0000
0000
0000
0010
0100
0000
0100
0000
0010
0100
0000
,
0001
0000
0000
0000
0100
0000
0000
0000
1000
0000
0000
0010
0000
0000
0100
0000
,
0010
0000
0000
0000
0010
0000
0000
0000
0010
0100
0000
0100
0000
0010
0100
0000
,
0001
0000
0000
0000
0001
0000
0000
0000
0001
1000
0000
1000
0000
0001
1000
0000
,
0100
0000
0000
0000
0100
0000
0000
0000
0100
0010
0000
0010
0000
0100
0010
0000
,
1000
0000
0000
0000
0010
0000
0000
0000
0001
0000
0000
0100
0000
0000
0010
0000
,
1000
0000
0010
0000
0000
0100
0000
0001
0000
0100
0000
0000
0010
0000
0000
1000
,
0001
0000
0010
0000
0000
0100
0000
1000
0000
0100
0000
0000
0010
0001
0000
0001
,
1000
0010
0001
0100
,
1000
0000
0001
0000
0000
0001
0000
1000
0100
0000
0010
0000
0000
0010
0000
0000
,
0001
0000
0100
0000
0000
0010
0000
1000
0000
0010
0000
0000
0100
0000
0000
0001
,
1000
0000
0100
0000
0000
0010
0000
0001
0000
0010
0000
0000
0100
1000
0000
1000
,
0001
0100
1000
0010
,
0001
0000
1000
0000
0000
1000
0000
0001
0010
0000
0100
0000
0000
0100
0000
0000
,
1000
0000
0010
0000
1000
0000
0010
0000
1000
0001
0000
0001
0000
0010
0001
0000
,
0100
0000
0010
0000
0100
0000
0010
0000
0100
0001
0000
0001
0000
1000
0001
0000
,
0010
0000
0001
0000
0010
0000
0001
0000
0010
0100
0000
0100
0000
0010
0100
0000
,
0001
0000
0000
0000
0100
0000
0010
0100
1000
0000
0000
0001
0000
0000
0100
0000
,
0001
0000
0010
0000
0001
0000
0010
0000
0001
1000
0000
1000
0000
0010
1000
0000
,
0100
0000
0010
0000
0100
0000
0010
0000
0100
1000
0000
1000
0000
0001
1000
0000
,
0010
0000
1000
0000
0010
0000
1000
0000
0010
0100
0000
0100
0000
0010
0100
0000
,
1000
0000
0000
0000
0100
0000
0010
0100
0001
1000
0000
0001
0010
0000
0100
0000
,
1001
0000
0001
0000
,
1000
0000
0001
0000
,
1000
0010
0001
0100
,
1000
0000
0000
0000
0010
0000
0000
0000
0001
0000
0000
0010
0000
0000
1000
0000
,
0001
0010
0000
0010
0001
0100
0000
0100
,
0010
1000
0000
1000
0100
0001
0000
0001
,
0100
0010
0100
0010
,
0001
1000
0001
1000
0010
0001
0010
1000
,
0001
0010
0000
0010
0000
0000
0100
0000
1000
0000
0000
0001
0000
0000
0001
0000
,
1000
0010
0000
0010
0000
0000
0100
0000
0001
0000
0000
1000
0000
0000
1000
0000
,
0001
0010
1000
0100
,
0001
0000
0001
0000
0000
0001
0000
0001
0000
1000
0000
0000
1000
0000
0000
1000
,
0001
0100
0000
0100
0000
0000
0010
0000
1000
0000
0000
0001
0000
0000
0001
0000
,
1000
0100
0000
0100
0000
0000
0010
0000
0001
0000
0000
1000
0000
0000
1000
0000
,
0001
0100
1000
0010
,
0001
0000
0001
0000
0000
0001
0000
1000
0000
1000
0000
0000
1000
0000
0000
1000
,
0000
0010
0010
0000
0100
0100
0000
0001
1000
0001
1000
0001
,
1000
0000
0100
0000
0010
0000
0100
0000
1000
0001
0000
0010
0000
0001
0100
0000
,
0010
0000
1000
0000
0100
0000
1000
0000
0010
0100
0000
0001
0000
0100
0010
1000
,
0001
0000
0010
0000
0100
0000
0010
0000
0001
1000
0000
0100
0000
1000
0010
0000
,
0100
0000
1000
0000
0100
0000
0001
0100
0010
1000
0000
0001
0010
0000
0100
0000
,
0100
0000
0001
0000
0100
0000
0010
0000
0100
1000
0000
1000
0000
0001
0100
0000
,
0010
0000
0001
0000
0010
0000
0100
0000
0010
1000
0000
1000
0000
0001
0100
0001
,
0010
0000
1000
0000
0010
0000
0100
0000
0010
0001
0000
0001
0000
1000
0010
0000
,
0100
0000
1000
0000
0100
0000
0010
1000
0001
0010
0000
0001
0100
0000
0010
0000
,
1001
0000
0100
0000
,
1001
0000
0000
0000
0000
0000
0000
0000
0010
0000
0000
0000
0000
0110
0000
0000
,
1001
0000
0000
1000
0000
1000
0001
0000
1001
0000
0000
0001
0000
0001
1000
0000
,
0001
0000
0010
0000
0001
0000
1000
0000
0010
0000
1000
0001
0100
0001
0010
0100
,
1000
0000
0000
0000
;

//--------------- dance-single - tikal. ----------------
#NOTES:
     dance-single:
     tikal.:
     Challenge:
     16:
     0,0,0,0,0:
0000
0000
0000
0000
,
0000
0000
0000
0000
,
0000
0000
0000
0000
,
0000
0000
0000
0000
,
0000
0000
0000
0000
,
1001
0000
0010
0000
,
1001
0000
0000
0000
0000
0000
0000
0000
0100
0000
0000
0000
0000
0110
0000
0000
,
1001
1000
1001
0001
,
1000
0000
0000
0000
0000
0000
0010
0000
0000
0000
0000
0000
1000
0000
0000
0000
0000
0000
0001
0000
0000
0000
0000
0000
0010
0000
0001
0000
1000
0000
0100
0000
0000
1000
0000
0000
0001
0000
0000
0100
0000
0000
0010
0000
0000
1000
0000
0000
,
0001
0000
1000
0100
1000
0100
1000
0100
1000
0001
0000
0001
0000
0001
1000
0001
,
0100
0000
0001
0100
0001
0100
0001
0100
0001
1000
0000
1000
0000
1000
0001
1000
,
0100
0000
0010
0001
0010
0001
0010
0001
0010
0100
0000
0100
0000
0100
0010
0100
,
1000
0000
0000
0000
0001
0000
0010
0001
0100
0000
0000
0010
0000
0000
1000
0000
,
0001
0000
1000
0010
1000
0010
1000
0010
1000
0001
0000
0001
0000
0001
1000
0001
,
0010
0000
0001
0010
0001
0010
0001
0010
0001
1000
0000
1000
0000
1000
0001
1000
,
0010
0000
0100
0001
0100
0001
0100
0001
0100
0010
0000
0010
0000
0010
0100
0010
,
1000
0000
0000
0000
0001
0000
0100
0001
0010
0000
0000
0100
0000
0000
1000
0000
,
0001
0100
0000
0100
0000
0100
0001
0010
0100
0000
1000
0010
0000
0010
0100
0001
,
1000
0100
0000
0100
0000
0100
1000
0010
0100
0000
0001
0010
0000
0010
0100
1000
,
0001
0000
0000
0001
0100
0000
0000
0100
1000
0000
0000
1000
0010
0000
0000
0010
,
0001
0000
1000
0000
0000
1000
0000
0001
0010
0000
0100
0000
0000
0100
0000
0000
,
1000
0010
0000
0010
0000
0010
1000
0100
0010
0000
0001
0100
0000
0100
0010
1000
,
0001
0010
0000
0010
0000
0010
0001
0100
0010
0000
1000
0100
0000
0100
0010
0001
,
1000
0000
0000
1000
0010
0000
0000
0010
0001
0000
0000
0001
0100
0000
0000
0100
,
1000
0000
0001
0000
0000
0001
0000
1000
0100
0000
0010
0000
0000
0010
0000
0000
,
0001
0000
0100
0001
1000
0001
0100
0001
1000
0010
0000
0010
0000
0010
0100
0010
,
1000
0000
0100
1000
0001
1000
0100
1000
0001
0010
0000
0010
0000
0010
0100
0010
,
0001
0000
1000
0010
0100
0010
1000
0010
0100
0001
0000
0001
0000
0001
0010
0001
,
0100
0000
0000
0000
0010
0000
0100
0001
0010
0100
0000
0100
0000
0000
1000
0000
,
1000
0000
0100
1000
0001
1000
0100
1000
0001
0010
0000
0010
0000
0010
0100
0010
,
0001
0000
0100
0001
1000
0001
0100
0001
1000
0010
0000
0010
0000
0010
0100
0010
,
1000
0000
0001
0010
0100
0010
0001
0010
0100
1000
0000
1000
0000
1000
0010
1000
,
0100
0000
0010
0001
0100
0010
1000
0010
0100
0001
0000
0001
1000
0000
0100
0000
,
1001
0000
0001
0000
,
1000
0000
0001
0000
,
1000
0100
0001
0010
,
1000
0000
0000
0000
0100
0000
0000
0000
0001
0000
0000
0100
0000
0000
1000
0000
,
0001
1000
1000
0010
1000
0001
0001
0010
,
0001
0000
1000
0100
1000
0000
0001
0000
1000
0000
0001
0100
0001
0000
1000
0000
,
1010
0001
0011
1000
,
0001
0000
0100
0000
1000
0000
0100
0000
0001
0100
0010
0100
1000
0100
0010
0100
,
0001
0000
0001
0000
0000
0001
0000
0001
0000
0001
0000
0000
0001
0000
0000
0001
,
1000
0000
1000
0000
0000
1000
0000
1000
0000
1000
0000
0000
1000
0000
0000
1000
,
0100
0000
0000
0100
0001
0000
0000
0001
0010
0000
0000
0010
1000
0000
0000
1000
,
0100
0000
0100
0000
0000
0100
0000
0100
0000
0010
0000
0000
0010
0000
0000
0001
,
1000
0000
1000
0000
0000
1000
0000
1000
0000
1000
0000
0000
1000
0000
0000
1000
,
0001
0000
0001
0000
0000
0001
0000
0001
0000
0001
0000
0000
0001
0000
0000
0001
,
0100
0000
0000
0100
1000
0000
0000
1000
0010
0000
0000
0010
0001
0000
0000
0001
,
0100
0000
0100
0000
0000
0100
0000
0010
0000
0010
0000
0000
0010
0000
0000
1000
,
0001
0100
0100
1000
0100
0100
0001
0010
0010
1000
0100
0100
,
0001
0000
0100
0001
0010
0001
0100
0001
0010
0100
0000
0100
0000
0100
0100
0100
,
1000
0000
0100
1000
0010
1000
0100
1000
0010
0100
0000
0100
0000
0100
0100
0100
,
0001
0000
0010
0001
0100
0001
0010
0001
0100
0010
0000
0010
0000
0010
0010
0010
,
1000
0000
0010
1000
0100
1000
0010
0100
0001
1000
0000
1000
0100
0000
0010
0000
,
0001
0000
1000
0100
0010
0100
0001
0100
0010
0001
0000
0001
0000
0001
0001
0001
,
0100
0000
0001
0100
0010
0100
1000
0100
0010
1000
0000
1000
0000
1000
1000
1000
,
0100
0000
0010
0100
0001
0100
0010
0100
1000
0010
0000
0010
0000
0010
0010
0010
,
0100
0000
0001
0010
0100
0010
1000
0010
0100
1000
0000
0010
0100
0000
0001
0000
,
1001
0000
0100
0000
,
1001
0000
0000
0000
0000
0000
0000
0000
0010
0000
0000
0000
0000
0110
0000
0000
,
0001
0100
0000
0100
0000
0010
1000
0010
1000
0100
0000
0100
0000
0010
0001
0010
,
0001
0000
0000
0100
0000
0000
0010
0000
0000
1000
0000
0000
0100
0000
0000
0010
0000
0000
0001
0000
0000
1000
0000
0000
0010
0000
0100
0000
0001
0000
1000
0000
0000
0100
0000
0000
0010
0000
0000
0001
0000
0000
0100
0000
0000
0010
0000
0000
,
1000
0000
0000
0000
;
