#VERSION:0.83;
#TITLE:Sarutobi Champion is 拙者;
#SUBTITLE:;
#ARTIST:Project B-;
#TITLETRANSLIT:Sarutobi Champion is sessha;
#SUBTITLETRANSLIT:;
#ARTISTTRANSLIT:;
#GENRE:PIECED MAKIBISHI;
#CREDIT:Graphics by forcednature;
#MUSIC:Sarutobi Champion is sessha.ogg;
#BANNER:Sarutobi Champion is sessha.png;
#BACKGROUND:Sarutobi Champion is sessha-bg.png;
#CDTITLE:;
#SAMPLESTART:38.769;
#SAMPLELENGTH:15.000;
#SELECTABLE:YES;
#OFFSET:0.000;
#BPMS:0.000=130.000
,160.000=195.000
;
#STOPS:;
#BGCHANGES:;
#FGCHANGES:;

//--------------- dance-single - Extraordiberry ----------------
#NOTEDATA:;
#STEPSTYPE:dance-single;
#DESCRIPTION:Extraordiberry;
#DIFFICULTY:Beginner;
#METER:4;
#RADARVALUES:0,0,0,0,0;
#CREDIT:Extraordiberry;
#NOTES:
0000
0000
0000
0000
,
0000
0000
0000
0000
,
0000
0000
0000
0000
,
0000
0000
0000
0000
,
0000
0000
0000
0000
,
1000
0000
0000
0000
,
0001
0000
0000
0000
,
0010
0000
0000
0000
,
0100
0000
0000
0000
,
1000
0000
1000
0000
,
0001
0000
0000
0000
,
0001
0000
0001
0000
,
1000
0000
0000
0000
,
1001
0000
0000
0000
,
1000
0000
0000
0000
,
0100
0000
0000
0000
,
0010
0010
0010
0000
,
0001
0000
0000
0000
,
0100
0000
0000
0000
,
0010
0000
0000
0000
,
1000
1000
1000
0000
,
0001
0000
0000
0000
,
0010
0000
0000
0000
,
0100
0000
0000
0000
,
1000
1000
1000
0000
,
0001
0000
0000
0000
,
0100
0000
0000
0000
,
0010
0000
1000
0000
,
0001
0001
0001
0000
,
1000
0000
0000
0000
,
0000
0000
0000
0000
,
0001
0000
0000
0000
,
0000
0000
0000
0000
,
1000
0000
0000
0000
,
0100
0000
0000
0000
,
0010
0000
0000
0000
,
0001
0000
0000
0000
,
1000
0000
0000
0000
,
0001
0000
0000
0000
,
1000
0000
0000
0000
,
0001
0000
0000
0000
,
1000
0000
0000
0000
,
0001
0000
0000
0000
,
0100
0000
0000
0000
,
0010
0000
0000
0000
,
1000
1000
1000
0000
,
0001
0000
0000
0000
,
0010
0000
0000
0000
,
0010
0000
0000
0000
,
0001
0001
0001
0000
,
1000
0000
0000
0000
,
0010
0000
0000
0000
,
0100
0000
0001
0000
,
1000
1000
1000
0000
,
0001
0000
0000
0000
,
0010
0000
0000
0000
,
0100
0000
1000
0000
,
0001
0001
0001
0000
,
0100
0000
0000
0000
,
0010
0000
0000
0000
,
0100
0000
0010
0000
,
0100
0000
0010
0000
,
0100
0000
0000
0100
,
0000
0000
1001
0000
;

//--------------- dance-single - Extraordiberry ----------------
#NOTEDATA:;
#STEPSTYPE:dance-single;
#DESCRIPTION:Extraordiberry;
#DIFFICULTY:Easy;
#METER:8;
#RADARVALUES:0,0,0,0,0;
#CREDIT:Extraordiberry;
#NOTES:
0000
0000
0000
0000
,
0000
0000
0000
0000
,
0000
0000
0000
0000
,
0000
0000
0000
0000
,
0000
0000
0000
0000
,
1000
0100
0010
0100
,
1000
0001
0100
0010
,
1000
0100
0010
0100
,
1000
0001
1001
0110
,
1000
0010
0100
0001
,
1000
1000
0001
0001
,
0010
0100
0010
0001
,
1000
0001
1001
0000
,
1000
0100
0001
0100
,
1000
0010
0001
0010
,
1000
0100
1000
0010
,
1000
1000
2000
3000
,
0001
0100
1000
0100
,
0001
0010
1000
0010
,
0001
0001
0100
0100
,
0010
0010
0010
1000
,
0001
0010
1000
0010
,
0001
0100
1000
0100
,
0001
0010
0001
0100
,
0001
0000
0001
0002
0000
0003
0000
0000
,
1000
0100
0010
0100
,
1000
0001
0100
0010
,
0110
1000
1001
0001
,
0010
0000
0100
0000
1000
1000
1000
0000
,
0001
0000
0000
1000
,
0000
0000
0000
0000
,
0001
0000
0000
2000
0000
0000
0000
0000
,
3000
0000
0000
0001
,
1001
1000
0010
0100
,
0010
1000
0001
0010
,
0100
0000
1000
0000
0001
0001
0001
0000
,
0100
0010
1000
0000
,
0001
0000
0000
0000
1000
0000
0000
0000
0001
0000
0000
0000
,
1000
0000
0000
0000
0001
0000
0000
0000
1000
0000
0000
0000
,
0001
0000
0000
0000
1000
0000
0000
0000
0001
0000
0000
0000
,
1000
0000
0001
0000
,
1000
0000
0001
0000
,
1000
0100
0001
0100
,
1000
0010
0001
0010
,
1000
0100
1000
0010
,
1000
1000
1000
1000
,
0001
0100
1000
0100
,
0001
0010
1000
0010
,
0001
0100
0001
0010
,
0001
0100
0010
1000
,
0001
0010
0100
0010
,
0001
1000
0010
0100
,
0001
0010
1000
0010
,
0001
1000
0010
0110
,
1000
0010
0001
0010
,
1000
0100
0001
0100
,
1000
0000
0000
0001
0000
0000
1000
0000
0000
0001
0000
0000
1000
0000
0000
0001
,
0000
0000
1000
0000
0000
0001
0000
0000
1000
0000
0000
0000
1001
0000
0000
0000
,
0001
0100
1000
0100
,
0001
0010
1000
0010
,
0001
1001
1000
1001
,
1000
0100
0001
1000
,
0010
0000
0000
0100
0000
0000
0010
0000
0000
0100
0000
0000
0010
0000
0000
0100
,
0000
0000
0010
0000
0000
0100
0000
0000
0020
0000
0000
0000
0000
0000
0000
0000
,
0000
0000
0000
0000
0200
0000
0000
0330
;

//--------------- dance-single - Extraordiberry ----------------
#NOTEDATA:;
#STEPSTYPE:dance-single;
#DESCRIPTION:Extraordiberry;
#DIFFICULTY:Medium;
#METER:13;
#RADARVALUES:0,0,0,0,0;
#CREDIT:Extraordiberry;
#NOTES:
0000
0000
0000
0000
,
0000
0000
0000
0000
,
0000
0000
0000
0000
,
0000
0000
0000
0000
,
0000
0000
0000
0000
,
1000
0000
0000
0100
0000
0000
1000
0000
0001
0000
0000
0100
0000
0000
0001
0000
,
1000
0000
0000
0100
0000
0000
0010
0000
0001
0000
0000
0100
0000
0000
0010
0000
,
1000
0000
0000
0100
0000
0000
1000
0000
0001
0000
0000
0100
0000
0000
0001
0000
,
1000
0000
0000
0100
0000
0000
0010
0000
0001
0000
0001
0000
0100
0000
0100
0000
,
0001
1000
0100
0010
0001
1000
0001
0000
,
1000
0010
0100
0001
1000
0100
0110
0000
,
0001
0100
0110
0000
1000
0100
0110
0000
,
0001
0000
1000
0001
0000
0001
1000
0000
0001
0000
0000
0000
1000
0000
0000
0000
,
0001
1000
0100
0010
0100
1000
0010
0010
,
0000
1000
0100
0010
0100
1000
0010
0010
,
1000
0100
0010
0000
0001
0100
0010
0000
,
1000
0001
1000
0000
0001
1000
0001
0000
2000
0000
0000
0000
0000
0000
3000
0000
,
0001
0001
0010
0100
1000
1000
0001
0000
,
1000
1000
0010
0100
0001
0001
1000
0000
,
0001
0000
0000
0010
0100
0000
0000
0100
1000
0000
0000
1000
0010
0000
0100
0000
,
0001
1000
0100
0010
0001
1000
1001
0000
,
0001
0010
0100
0010
0001
0100
0100
0000
,
0001
0010
0100
0010
0001
0100
0100
0001
,
1000
0100
0010
0000
0001
0100
0010
1000
,
1000
0001
0001
2000
0000
0000
3000
0000
,
0001
0001
0010
0100
1000
1000
0001
0000
,
1000
1000
0010
0100
0001
0001
1000
0000
,
0001
0010
0110
0000
1000
0010
0110
0000
,
0001
0010
1000
0010
0001
0010
1000
0010
,
0001
0000
0000
1000
,
0000
0000
0000
0000
0000
0001
0001
0001
,
0001
0000
0000
2000
0000
0000
0000
0000
,
3001
1000
0001
1000
0001
0000
0000
0000
0000
0000
1000
0000
1000
0000
1000
0000
,
0001
0010
0100
0010
0001
0100
0010
0100
,
0001
0010
0100
0010
0001
1000
1000
1000
,
0001
0000
0000
0100
0000
0000
0010
0000
0000
0000
1000
0000
0001
0000
0010
0100
,
0000
0100
0010
0000
0001
1000
0001
1000
0001
0000
0000
0000
1000
0000
0000
0000
,
0001
0000
0000
0000
0100
0000
0000
0000
0010
0000
0000
0000
,
1000
0000
0000
0000
0001
0000
0000
0000
0010
0000
0000
0000
,
0100
0000
1000
0000
0001
0000
0100
0000
0001
0000
1000
0000
,
0100
1000
0001
0100
,
0001
1000
0100
0110
,
1000
0001
0100
0010
0100
0001
0010
0010
,
0000
0001
0100
0010
0100
0001
0010
0010
,
0001
1000
0010
0000
1000
0001
0010
0000
,
0001
0001
1000
1000
0001
0001
2000
0000
,
3001
0100
0010
0100
0001
0010
0100
0000
,
1000
0010
0100
0010
1000
0100
0010
0000
,
0001
0000
0000
0001
0100
0000
0000
0100
0010
0000
0000
0010
1000
0000
0000
1000
,
0100
0010
0001
1000
0010
0100
0110
0000
,
0001
0001
0010
0100
1000
1000
0001
0000
,
1000
1000
0010
0100
0001
0001
1000
0000
,
0001
0100
1000
0100
0001
0010
1000
0010
,
0001
1000
0010
0010
0100
0001
1001
0000
,
1000
0010
0100
0010
1000
0100
0010
0100
,
1000
0001
0100
0001
1000
0100
1000
0001
,
0100
0000
0000
0010
0000
0000
0100
0000
0000
0010
0000
0000
0110
0000
0000
0110
,
0000
0000
0110
0000
0000
0110
0000
0000
1001
0000
0000
1001
0000
0000
0000
0000
,
0001
0010
1000
0010
0001
1000
0010
0000
,
1000
0010
0001
0010
1000
0001
0010
0000
,
0001
0010
1000
0010
0001
0010
1000
0010
,
0001
0000
0001
0000
1000
0000
1000
0000
0001
1000
0001
0000
1000
0001
1000
0000
,
0010
0000
0000
0100
0000
0000
0010
0000
0000
0100
0000
0000
0110
0000
0000
0110
,
0000
0000
0110
0000
0000
0110
0000
0000
2002
0000
0000
0000
0000
0000
0000
0000
,
0000
0000
0000
0000
0000
0000
0000
3003
;

//--------------- dance-single - Extraordiberry ----------------
#NOTEDATA:;
#STEPSTYPE:dance-single;
#DESCRIPTION:Extraordiberry;
#DIFFICULTY:Hard;
#METER:17;
#RADARVALUES:0,0,0,0,0;
#CREDIT:Extraordiberry;
#NOTES:
0000
0000
0000
0000
,
0000
0000
0000
0000
,
0000
0000
0000
0000
,
0000
0000
0000
0000
,
0000
0000
0000
0000
,
1000
0000
0100
0010
0000
0100
1000
0000
0001
0000
0100
0010
0000
0100
0001
0000
,
1000
0000
0100
0010
0000
0100
1000
0000
0001
0000
0100
1000
0000
0100
0010
0100
,
0001
0000
0010
0100
0000
0010
0001
0000
1000
0000
0010
0100
0000
0010
1000
0000
,
0001
0000
0010
0100
0000
0010
0001
1000
0010
0100
1000
0000
0100
0010
1000
0000
,
0001
0000
0010
0000
0100
0000
1000
0000
0001
0000
0100
0000
0010
0100
0001
0000
,
1000
0000
0000
0100
0000
0000
0010
0000
0000
0001
0000
0000
0100
0000
0000
0010
0000
0000
1000
0001
1000
0001
0000
0000
,
0011
0000
0000
0010
0100
0010
0100
0000
0000
1000
0000
0000
1010
0000
0000
0010
0100
0010
0100
0000
0000
0001
0000
0000
,
1001
0000
1000
0010
0000
0001
0010
0000
0110
0000
0000
0000
0100
0000
0000
0000
,
1001
0000
0001
0000
0001
0000
0010
0000
0100
0000
1000
0001
0100
0000
0100
0000
,
0000
0000
0001
1000
0001
0000
0010
0000
0100
0010
0001
1000
0010
0000
0100
0000
,
0001
0000
1000
0100
0010
0000
0100
0000
1000
0000
0010
0100
0001
0000
1000
0000
,
0100
0001
0100
0001
0100
0001
0100
0001
0200
0000
0000
0000
0310
0000
0001
0000
,
1001
0000
1000
0010
0100
0000
0001
0000
1000
0100
0010
0100
1000
0100
0010
0100
,
1000
0000
0001
0100
0010
0000
1000
0000
0001
0010
0100
1000
0100
0010
0001
1000
,
0010
0000
0000
1000
0100
1000
0100
0000
0000
0010
0001
0010
0001
0000
0000
1000
0010
1000
0010
0000
0000
0100
0000
0000
,
0001
0010
0100
0010
0001
1000
0010
0100
0001
0100
0010
1000
0200
0000
0000
0000
,
1300
0000
1000
0000
0010
0000
0100
0000
0001
1000
0100
0000
0100
0000
0000
0000
,
1000
0001
1000
0000
0010
0000
0100
0010
1000
0001
0010
0000
0100
0000
1000
0000
,
0001
0100
0010
0000
0100
0000
0001
0000
0010
0100
1000
0000
0001
0000
0100
1000
,
0100
1000
0100
1000
0100
1000
0200
0000
0000
0000
0310
0000
1000
0000
0000
0000
,
0001
0010
0100
0000
1000
0000
0001
0100
0010
0100
0001
1000
0001
0010
0100
0000
,
1000
0010
0100
0000
0001
0000
1000
0100
0010
0100
1000
0001
0100
0010
1000
0000
,
0001
0000
0010
1000
0000
0010
0001
0000
1000
0000
0010
0001
0000
0010
1000
0000
,
0001
0000
0000
0010
0100
0010
0100
0000
0000
1000
0001
1000
0001
0000
0000
0100
0010
0100
0010
0000
0000
1000
0000
0000
,
0001
0000
0000
1100
,
0000
0000
0000
0000
0000
0101
0101
0101
,
0101
0000
0000
2000
0000
0000
0000
3000
,
0001
1000
0001
1000
0001
1000
0001
0000
0000
0000
0000
0000
0000
0000
0000
0011
0000
0000
0011
0000
0000
0011
0000
0000
,
1100
0000
1000
0001
0100
0000
0100
0010
1000
0000
1000
0001
0010
0000
0010
0100
,
1000
0000
1000
0001
0100
0000
0100
0010
1000
0000
1100
0000
1100
0000
1100
0000
,
0001
1000
0001
0100
0010
0100
0001
1000
0001
0010
0100
0010
0001
0000
1000
1000
,
0000
0000
0000
0001
0000
0000
0001
0000
0000
0000
0000
0000
1000
0000
0001
0000
1000
0000
0001
0000
1000
0000
0001
0000
1000
0000
0000
0000
0000
0000
0001
0000
0000
0000
0000
0000
0010
0000
0000
0000
0000
0000
0001
0000
0000
0000
0000
0000
,
1000
0000
0010
0100
0010
0100
0010
0000
1000
0000
1000
0000
,
0001
0000
0010
0100
0010
0100
0010
0000
0001
1000
0001
1000
,
0010
0100
0010
0100
0001
1000
0001
1000
0100
0010
0100
0010
,
0001
1000
0001
1000
0010
0100
0010
0100
,
0001
1000
0001
1000
0001
1000
0001
1000
0001
1000
0001
1000
0001
0000
0000
0000
,
1001
0000
1000
0000
1000
0000
0100
0000
0010
0000
0001
1000
0010
0000
0100
0000
,
0010
0000
1000
0001
1000
0000
0100
0000
0010
0100
1000
0001
0100
0000
0010
0000
,
1000
0000
0001
0010
0100
0000
0010
0000
0001
0000
0100
0010
1000
0000
0001
0000
,
0010
1000
0010
1000
0010
1000
0010
1000
0010
1000
0010
1000
0020
0000
0000
0000
,
0031
0000
1000
0001
1000
0000
0010
0100
0010
1000
0010
0100
0010
1000
0010
0100
,
0010
0000
1000
0000
0001
0000
0010
0100
0010
0001
0010
0100
0010
0001
0010
0100
,
0010
0000
0001
1000
0010
0000
0010
0100
0001
0000
0001
1000
0100
0000
0100
0010
,
0001
1000
0010
0100
0001
0001
2000
0000
,
3001
0000
1000
0100
0010
0000
0001
0000
1000
0010
0100
0010
1000
0010
0100
0010
,
1000
0000
0001
0010
0100
0000
1000
0000
0001
0100
0010
1000
0010
0100
0001
1000
,
0100
0000
0010
0000
0001
1000
0001
0000
0100
0000
0010
0000
1000
0001
1000
0000
,
0001
0010
0100
1000
0100
0010
0001
1000
0001
0100
0010
0100
0001
0000
0000
0000
,
1000
0000
0100
0010
0100
1000
0100
0010
0100
1000
0100
0010
0100
0000
1000
0000
,
0001
0000
0100
0010
0100
0001
0100
0010
0100
0001
0100
0010
0100
0000
0001
0000
,
1000
0000
0000
0100
0000
0000
0010
0000
0000
0001
0000
0000
0101
0000
0000
1001
,
0000
0000
1100
0000
0000
0110
0000
0000
0011
0000
0000
1001
0000
0000
1000
0000
,
0010
0000
0100
0010
0100
0000
0001
0000
0010
0000
0100
0010
0100
0000
1000
0000
,
0010
0000
0100
0010
0100
0000
0001
0000
0010
0000
0100
0010
0100
0000
1000
0000
,
0010
0000
0100
0010
0100
0000
0001
1000
0001
0000
0010
0100
0010
0000
0001
1000
,
0010
1000
0010
1000
0010
0100
0010
0100
0010
0001
0010
0001
0010
0000
0000
0000
,
0110
0000
0000
0101
0000
0000
1010
0000
0000
1100
0000
0000
0011
0000
0000
1010
,
0000
0000
0101
0000
0000
0110
0000
0000
1002
0000
0000
0000
0000
0000
0000
0000
,
0000
0000
0000
0000
2000
0000
0000
3003
;

//--------------- dance-double - Extraordiberry ----------------
#NOTEDATA:;
#STEPSTYPE:dance-double;
#DESCRIPTION:Extraordiberry;
#DIFFICULTY:Hard;
#METER:17;
#RADARVALUES:0,0,0,0,0;
#CREDIT:Extraordiberry;
#NOTES:
00000000
00000000
00000000
00000000
,
00000000
00000000
00000000
00000000
,
00000000
00000000
00000000
00000000
,
00000000
00000000
00000000
00000000
,
00000000
00000000
00000000
00000000
,
00010000
00000000
00001000
01000000
00000000
01000000
00010000
00000000
10000000
00000000
00010000
00100000
00000000
00100000
00001000
00000000
,
00010000
00000000
00000010
00001000
00000000
00001000
00000001
00000000
00001000
00000000
00000001
00000010
00000000
00000010
00001000
00010000
,
00001000
00000000
00010000
00000100
00000000
00000100
00001000
00000000
00000001
00000000
00001000
00000010
00000000
00000010
00010000
00000000
,
00001000
00000000
00100000
00010000
00000000
00010000
10000000
00100000
01000000
00010000
10000000
00000000
10000000
01000000
00010000
00000000
,
00001000
00000000
00010000
00000000
00100000
00000000
10000000
00000000
00010000
00000000
00100000
00000000
00001000
00010000
00001000
00000000
,
00010000
00000000
00000000
00001000
00000000
00000000
00000010
00000000
00000000
00000001
00000000
00000000
00001000
00000000
00000000
00000010
00000000
00000000
00010000
00001000
00010000
00001000
00000000
00000000
,
00100000
00000000
00000000
00010000
00100000
00010000
00100000
00000000
00000000
01000000
00000000
00000000
10000000
00000000
00000000
00010000
01000000
00010000
01000000
00000000
00000000
00100000
00000000
00000000
,
10000000
00000000
01000000
00010000
00000000
00010000
00001000
00000000
00011000
00000000
00000000
00000000
00100000
00000000
00000000
00000000
,
00001000
00000000
00010000
00000000
00100000
00000000
10000000
00000000
00010000
00000000
10000000
00100000
00010000
00000000
00001000
00000000
,
00000000
00000000
00010000
00001000
00010000
00000000
00100000
00000000
10000000
00010000
00100000
01000000
10000000
00000000
00100000
00000000
,
00010000
00000000
00001000
00010000
00001000
00000000
00000010
00000000
00000001
00000000
00001000
00000010
00001000
00000000
00000001
00000000
,
00000100
00001000
00000100
00001000
00000100
00001000
00000100
00001000
00000200
00000000
00000000
00000000
00000301
00000000
00000100
00000000
,
00001000
00000000
00010000
00001000
00010000
00000000
00100000
00000000
10000000
00010000
00100000
01000000
10000000
01000000
00100000
00010000
,
10000000
00000000
00100000
01000000
00100000
00000000
00010000
00000000
00001000
00010000
00001000
00100000
00010000
10000000
01000000
00100000
,
00010000
00000000
00000000
10000000
01000000
10000000
01000000
00000000
00000000
00010000
01000000
00010000
01000000
00000000
00000000
00010000
00001000
00010000
00001000
00000000
00000000
01000000
00000000
00000000
,
00010000
10000000
01000000
00100000
00010000
00100000
01000000
10000000
00010000
10000000
01000000
00000000
00020000
00000000
00000000
00000000
,
00031000
00000000
00000010
00000000
00000001
00000000
00001000
00000000
00000001
00000010
00001000
00000000
00010000
00000000
00000000
00000000
,
00001000
00010000
00001000
00000000
00000010
00000000
00000001
00001000
00000010
00000100
00000001
00000000
00000010
00000000
00001000
00000000
,
00010000
00001000
00010000
00000000
00100000
00000000
10000000
00000000
00010000
00100000
00010000
00000000
10000000
00000000
01000000
00010000
,
01000000
00010000
01000000
00010000
01000000
00010000
02000000
00000000
00000000
00000000
13000000
00000000
01000000
00000000
00010000
00000000
,
00001000
00010000
00001000
00000000
00000010
00000000
00000001
00001000
00000010
00000100
00000001
00000100
00000010
00001000
00000001
00000000
,
00000010
00000100
00000010
00000000
00001000
00000000
00010000
00001000
00010000
00000010
00001000
00000001
00000100
00000010
00001000
00000000
,
00000001
00000100
00000001
00000100
00001000
00000100
00001000
00000100
00001000
00010000
00001000
00010000
00100000
00010000
00100000
10000000
,
00010000
20000000
32000000
03020000
00032000
00003020
00000032
00001003
,
00001001
00000000
00000000
00011000
,
00000000
00000000
00000000
00000000
00000000
10010000
10010000
10010000
,
10010000
00000000
00000000
00020000
00000000
00000000
00000000
00030000
,
10000000
00010000
10000000
00010000
10000000
00010000
10000000
00000000
00000000
00000000
00000000
00000000
00000000
00000000
00000000
00011000
00000000
00000000
00011000
00000000
00000000
00011000
00000000
00000000
,
00011000
00000000
00010000
00001000
00010000
00000000
00000100
00001000
00000100
00000000
00000010
00000001
00000010
00000000
00000001
00001000
,
00000001
00000000
00000100
00000010
00000100
00000000
00001000
00010000
00001000
00000000
00011000
00000000
00011000
00000000
00011000
00000000
,
00001000
00010000
00100000
10000000
00010000
00100000
01000000
10000000
00010000
00100000
01000000
10000000
00010000
00000000
10000000
01000000
,
00000000
00000000
00000000
01000000
00000000
00000000
00010000
00000000
00000000
00000000
00000000
00000000
00001000
00000000
00010000
00000000
00001000
00000000
00010000
00000000
00001000
00000000
00010000
00000000
00001000
00000000
00000000
00000000
00000000
00000000
00000000
00000000
00000000
00000000
00000000
00000000
00010000
00000000
00000000
00000000
00000000
00000000
00000000
00000000
00000000
00000000
00000000
00000000
,
00011000
00000000
00001000
00010000
00001000
00010000
00001000
00000000
01000000
00000000
01000000
00000000
,
00001000
00000000
00010000
00001000
00010000
00001000
00010000
00000000
00000100
00001000
00000100
00001000
,
00000001
00000100
00000001
00000100
00001000
00000100
00001000
00000100
00001000
00010000
00001000
00010000
,
00001000
00010000
00001000
00010000
00001000
00010000
00001000
00010000
,
00001000
00010000
00001000
00010000
00001000
00010000
00001000
00010000
00001000
00010000
00001000
00010000
00001000
00000000
00000000
00000000
,
00010000
00000000
00001000
00000000
00000010
00000000
00000001
00000000
00001000
00000000
00000001
00000010
00001000
00000000
00010000
00000000
,
00000000
00000000
00001000
00010000
00001000
00000000
00000010
00000000
00000001
00001000
00000010
00000100
00000001
00000000
00000010
00000000
,
00001000
00000000
00010000
00001000
00010000
00000000
00100000
00000000
10000000
00000000
00010000
00100000
00010000
00000000
10000000
00000000
,
01000000
00010000
01000000
00010000
01000000
00010000
01000000
00010000
01000000
00010000
01000000
00010000
02000000
00000000
00000000
00000000
,
03010000
00000000
00001000
00010000
00001000
00000000
00000010
00000100
00001000
00000100
00000010
00000100
00001000
00000100
00000010
00000000
,
00000001
00000000
00000100
00000000
00001000
00000000
00010000
00001000
01000000
00001000
00010000
00001000
01000000
00001000
00010000
00000000
,
00001000
00000000
00010000
00100000
00010000
00000000
00100000
10000000
00100000
00000000
10000000
00010000
10000000
00000000
01000000
00010000
,
01000000
00010000
00001000
00000010
00000001
00000100
00002000
00000000
,
00013000
00000000
00001000
00010000
00001000
00000000
00000010
00000000
00000001
00001000
00000010
00000100
00000001
00000100
00000010
00001000
,
00000001
00000000
00001000
00000010
00010000
00000000
00001000
00000000
00010000
00001000
00010000
00000100
00001000
00000001
00000100
00000010
,
00001000
00000000
00000001
00000000
00000100
00001000
00000100
00000000
00001000
00000000
00010000
00000000
00100000
00010000
00100000
00000000
,
10000000
00010000
10000000
00010000
00100000
01000000
00100000
01000000
00010000
00001000
00010000
00001000
00020000
00000000
00000000
00000000
,
00031000
00000000
00000010
00000100
00001000
00000100
00000010
00000100
00001000
00000100
00000010
00000100
00001000
00000000
00000001
00000000
,
00000100
00000000
00000010
00010000
00001000
00010000
00000010
00010000
00001000
00010000
00000010
00010000
00001000
00000000
00010000
00000000
,
00001000
00000000
00000000
01000000
00000000
00000000
00010000
00000000
00000000
10000000
00000000
00000000
01000000
00000000
00000000
00010000
,
00000000
00000000
00000100
00000000
00000000
00000011
00000000
00000000
00001001
00000000
00000000
00001010
00000000
00000000
00000001
00000000
,
00000100
00000000
00001000
00010000
00001000
00000000
00010000
00000000
00100000
00000000
10000000
00010000
10000000
00000000
01000000
00000000
,
00010000
00000000
00001000
00010000
00001000
00000000
00000010
00000000
00000001
00000000
00001000
00000001
00001000
00000000
00000001
00000000
,
00000100
00001000
00010000
00100000
10000000
00010000
10000000
01000000
,
00010000
01000000
00010000
01000000
00010000
00001000
00010000
00001000
00000010
00001000
00000010
00001000
00000010
00000000
00000001
00000000
,
00000011
00000000
00000000
00001001
00000000
00000000
00000101
00000000
00000000
00001010
00000000
00000000
00011000
00000000
00000000
01010000
,
00000000
00000000
01100000
00000000
00000000
10100000
00000000
00000000
00020000
00000000
00000000
00000000
00000000
00000000
00000000
00000000
,
00000000
00000000
00000000
00000000
00002000
00000000
00000000
00033000
;
