#VERSION:0.83;
#TITLE:STUCK (Thunderpuss Radio Remix);
#SUBTITLE:;
#ARTIST:Stacie Orrico;
#TITLETRANSLIT:;
#SUBTITLETRANSLIT:;
#ARTISTTRANSLIT:;
#GENRE:;
#ORIGIN:;
#CREDIT:djfipu;
#BANNER:STUCK (Thunderpuss Radio Remix)-bn.png;
#BACKGROUND:STUCK (Thunderpuss Radio Remix)-bg.png;
#PREVIEWVID:;
#JACKET:STUCK (Thunderpuss Radio Remix)-jacket.png;
#CDIMAGE:;
#DISCIMAGE:;
#LYRICSPATH:STUCK (Thunderpuss Radio Remix).lrc;
#CDTITLE:djfipu-cdtitle.png;
#MUSIC:STUCK (Thunderpuss Radio Remix).ogg;
#OFFSET:0.000000;
#SAMPLESTART:59.516998;
#SAMPLELENGTH:18.898001;
#SELECTABLE:YES;
#DISPLAYBPM:100.000000:127.000000;
#BPMS:0.000=127.000,
111.000=126.454,
112.000=125.924,
113.000=124.100,
114.000=123.420,
115.000=120.613,
116.000=119.646,
117.000=117.690,
118.000=116.096,
119.000=114.000,
120.000=112.760,
121.000=111.248,
122.000=109.393,
123.000=107.335,
124.000=105.793,
125.000=104.287,
126.000=102.787,
127.000=100.000,
130.000=100.251,
132.000=100.397,
133.000=99.785,
134.000=100.097,
135.000=100.251,
136.000=100.076,
138.000=99.751,
140.000=100.153,
142.000=100.000,
146.000=100.063,
148.000=100.000,
149.000=99.730,
150.000=100.069,
151.000=99.951,
152.000=102.229,
153.000=102.160,
154.000=107.000,
156.000=110.906,
157.000=111.000,
158.000=114.691,
159.000=118.154,
160.000=118.304,
161.000=120.000,
163.000=129.000,
164.000=128.934,
165.000=127.259,
166.000=127.000,
204.000=126.811,
205.000=127.259,
206.000=127.079,
207.000=126.811,
208.000=126.911,
209.000=126.855,
210.000=127.000;
#STOPS:;
#DELAYS:;
#WARPS:1.500=16.000,
19.500=16.000,
37.500=16.000;
#TIMESIGNATURES:0.000=4=4;
#TICKCOUNTS:0.000=4;
#COMBOS:0.000=1;
#SPEEDS:0.000=1.000=0.000=0;
#SCROLLS:0.000=1.000;
#FAKES:;
#LABELS:0.000=Song Start;
#BGCHANGES:0.000=STUCK (Thunderpuss Radio Remix).mp4=1.000=0=0=0=StretchNoLoop====,
99999=-nosongbg-=1.000=0=0=0 // don't automatically add -songbackground-
;
#KEYSOUNDS:;
#ATTACKS:
;

//---------------dance-single - ----------------
#NOTEDATA:;
#CHARTNAME:;
#STEPSTYPE:dance-single;
#DESCRIPTION:;
#CHARTSTYLE:;
#DIFFICULTY:Beginner;
#METER:2;
#RADARVALUES:0.107439,0.299120,0.102555,0.051278,0.000000,88.000000,76.000000,12.000000,6.000000,0.000000,0.000000,0.000000,0.000000,0.000000,0.107439,0.299120,0.102555,0.051278,0.000000,88.000000,76.000000,12.000000,6.000000,0.000000,0.000000,0.000000,0.000000,0.000000;
#CREDIT:djfipu;
#DISPLAYBPM:100.000000:127.000000;
#NOTES:
// measure 0
0000
0000
0000
0000
,  // measure 1
0000
0000
0000
0000
,  // measure 2
0000
0000
0000
0000
,  // measure 3
0000
0000
0000
0000
,  // measure 4
0000
0000
0000
0000
,  // measure 5
0000
0000
0000
0000
,  // measure 6
0000
0000
0000
0000
,  // measure 7
0000
0000
0000
0000
,  // measure 8
0000
0000
0000
0000
,  // measure 9
0000
0000
0000
0000
,  // measure 10
0000
0000
0000
0000
,  // measure 11
0000
0000
0000
0000
,  // measure 12
0000
0000
0000
0000
,  // measure 13
0000
0000
0000
0000
,  // measure 14
1000
0000
0000
0000
,  // measure 15
0001
0000
0000
0000
,  // measure 16
1000
0000
0000
0000
,  // measure 17
0010
0000
0000
0000
,  // measure 18
0100
0000
0000
0000
,  // measure 19
0010
0000
0000
0000
,  // measure 20
1000
0000
0000
0000
,  // measure 21
0001
0000
0000
0000
,  // measure 22
0010
0000
0000
0000
,  // measure 23
0100
0000
0000
0000
,  // measure 24
0010
0000
0000
0000
,  // measure 25
0001
0000
0000
0000
,  // measure 26
1000
0000
0000
0000
,  // measure 27
0001
0000
0000
0000
,  // measure 28
0100
0000
0000
0000
,  // measure 29
0100
0000
0000
0000
,  // measure 30
0100
0000
0000
0000
,  // measure 31
0010
0000
0000
0000
,  // measure 32
1001
1000
0000
0001
,  // measure 33
0000
0010
0000
0001
,  // measure 34
0000
0100
0000
0001
,  // measure 35
0000
1000
0000
0100
,  // measure 36
0000
0010
0000
0100
,  // measure 37
0000
1000
0000
0001
,  // measure 38
2002
0000
0000
0000
,  // measure 39
0000
0000
0000
0000
,  // measure 40
0000
0000
0000
3003
,  // measure 41
0110
0000
0000
0000
,  // measure 42
0010
0000
0000
0000
,  // measure 43
0100
0000
0000
0000
,  // measure 44
0100
0000
0000
0000
,  // measure 45
1001
0000
0000
0000
,  // measure 46
1000
0000
0000
0000
,  // measure 47
0001
0000
0001
0000
,  // measure 48
0001
0000
0001
0000
,  // measure 49
0100
0000
0000
0000
,  // measure 50
0020
0000
0000
0000
,  // measure 51
0130
0000
0000
0000
,  // measure 52
0001
0000
0000
0000
,  // measure 53
1000
0000
1000
0000
,  // measure 54
1000
0000
1000
0000
,  // measure 55
0100
0000
0010
0000
,  // measure 56
0100
0000
1000
0000
,  // measure 57
0001
0000
0100
0000
,  // measure 58
0010
0000
0100
0000
,  // measure 59
0010
0000
1000
0000
,  // measure 60
0001
0000
0010
0000
,  // measure 61
0110
0000
1001
0000
,  // measure 62
0110
0000
1001
0000
,  // measure 63
0110
0000
1001
0000
,  // measure 64
0110
0000
1001
0000
,  // measure 65
0001
0000
0100
0000
,  // measure 66
0010
0000
2000
0000
,  // measure 67
3002
0000
2000
0000
,  // measure 68
0000
0000
0000
0000
,  // measure 69
0000
0000
0000
0000
,  // measure 70
3003
0000
0000
0000
;

//---------------dance-single - ----------------
#NOTEDATA:;
#CHARTNAME:;
#STEPSTYPE:dance-single;
#DESCRIPTION:;
#CHARTSTYLE:;
#DIFFICULTY:Easy;
#METER:5;
#RADARVALUES:0.253947,0.299120,0.213657,0.316212,0.000000,208.000000,183.000000,25.000000,37.000000,0.000000,0.000000,0.000000,0.000000,6.000000,0.253947,0.299120,0.213657,0.316212,0.000000,208.000000,183.000000,25.000000,37.000000,0.000000,0.000000,0.000000,0.000000,6.000000;
#CREDIT:djfipu;
#DISPLAYBPM:100.000000:127.000000;
#NOTES:
// measure 0
0000
0000
1001
0000
,  // measure 1
0000
0000
0000
0000
,  // measure 2
0000
0000
0000
0000
,  // measure 3
0000
0000
0000
0000
,  // measure 4
0000
0000
0000
0000
,  // measure 5
1001
0000
0000
0000
,  // measure 6
0000
0000
0000
0000
,  // measure 7
0000
0000
0000
0000
,  // measure 8
0000
0000
0000
0000
,  // measure 9
0000
0000
1001
0000
,  // measure 10
0000
0000
0000
0000
,  // measure 11
0000
0000
0000
0000
,  // measure 12
0000
0000
0000
0000
,  // measure 13
0000
0000
0000
0000
,  // measure 14
1001
0000
0110
0000
,  // measure 15
1001
0000
0110
0000
,  // measure 16
1000
0100
1000
0010
,  // measure 17
0100
0001
0010
0001
,  // measure 18
0100
0100
0010
0010
,  // measure 19
1000
0001
0200
0000
,  // measure 20
0301
0001
1000
1000
,  // measure 21
0100
0010
0200
0000
,  // measure 22
2300
3002
0023
0230
,  // measure 23
0300
2000
3002
0203
,  // measure 24
0310
0010
0100
0100
,  // measure 25
0001
1000
0002
0013
,  // measure 26
0001
0001
1000
1000
,  // measure 27
0100
0010
0200
0310
,  // measure 28
0100
1000
0200
1300
,  // measure 29
1000
0001
2000
3001
,  // measure 30
0001
0100
0002
0013
,  // measure 31
0110
0000
1001
0000
,  // measure 32
1000
1000
0001
0001
,  // measure 33
0100
0001
0100
0010
,  // measure 34
1000
1000
0001
0001
,  // measure 35
0010
0100
0010
0100
,  // measure 36
1000
0001
0100
0020
,  // measure 37
0130
0010
1000
0001
,  // measure 38
2000
0000
3002
2003
,  // measure 39
3002
2003
3002
2003
,  // measure 40
3002
2003
3002
2003
,  // measure 41
3001
0100
0010
0100
,  // measure 42
0001
1000
0100
1000
,  // measure 43
0010
0100
0001
0010
,  // measure 44
0100
1000
0001
0100
,  // measure 45
0010
0100
0001
1000
,  // measure 46
0100
1000
0010
0100
,  // measure 47
0110
0000
1001
0000
,  // measure 48
0011
0000
1100
0000
,  // measure 49
1000
0001
0100
0010
,  // measure 50
0110
0000
0000
0000
,  // measure 51
0001
0001
1000
1000
,  // measure 52
0100
0100
0010
0010
,  // measure 53
0110
0000
1001
0000
,  // measure 54
0110
0000
1001
0000
,  // measure 55
0002
0103
0002
0013
,  // measure 56
0010
0001
0010
0100
,  // measure 57
2000
3010
2000
3100
,  // measure 58
0100
0010
0001
1000
,  // measure 59
0020
1030
0020
0130
,  // measure 60
0010
0100
0001
1000
,  // measure 61
1100
0000
0011
0000
,  // measure 62
0101
0000
1010
0000
,  // measure 63
1100
0000
0011
0000
,  // measure 64
0101
0000
1010
0000
,  // measure 65
1001
0001
0100
0010
,  // measure 66
2000
3000
0002
0003
,  // measure 67
0020
0030
0220
0000
,  // measure 68
0000
0000
0000
0000
,  // measure 69
0000
0000
0000
0000
,  // measure 70
0330
0000
0000
0000
;

//---------------dance-single - XO----------------
#NOTEDATA:;
#CHARTNAME:;
#STEPSTYPE:dance-single;
#DESCRIPTION:XO;
#CHARTSTYLE:;
#DIFFICULTY:Medium;
#METER:9;
#RADARVALUES:0.346735,0.538416,0.264935,0.521323,0.128194,284.000000,253.000000,31.000000,61.000000,0.000000,0.000000,0.000000,0.000000,9.000000,0.346735,0.538416,0.264935,0.521323,0.128194,284.000000,253.000000,31.000000,61.000000,0.000000,0.000000,0.000000,0.000000,9.000000;
#CREDIT:djfipu;
#DISPLAYBPM:100.000000:127.000000;
#NOTES:
// measure 0
0000
0000
0000
0000
0001
0100
1000
0000
,  // measure 1
0000
0000
0000
0000
,  // measure 2
0000
0000
0000
0000
,  // measure 3
0000
0000
0000
0000
,  // measure 4
0000
0000
0000
0000
,  // measure 5
0001
0100
1000
0000
0000
0000
0000
0000
,  // measure 6
0000
0000
0000
0000
,  // measure 7
0000
0000
0000
0000
,  // measure 8
0000
0000
0000
0000
,  // measure 9
0000
0000
0000
0000
0001
0100
1000
0000
,  // measure 10
0000
0000
0000
0000
,  // measure 11
0000
0000
0000
0000
,  // measure 12
0000
0000
0000
0000
,  // measure 13
0000
0000
0000
0000
,  // measure 14
1001
0000
0101
0000
,  // measure 15
1100
0000
0110
0000
,  // measure 16
1001
0000
0000
0000
0001
0000
0000
1000
0010
0000
0000
0000
0100
0000
0000
0001
,  // measure 17
0010
0000
0000
0000
0100
0000
0000
1000
0001
0000
0000
0001
0000
0000
0001
0000
,  // measure 18
1000
0100
0010
0000
0100
1000
0001
0000
,  // measure 19
2000
3020
0230
0302
,  // measure 20
1003
0001
0100
0000
0010
1000
0100
0000
,  // measure 21
0020
0032
2003
3001
,  // measure 22
0110
0000
0000
0000
0100
0000
0000
0000
0010
0000
0000
0100
0000
0000
0000
0000
,  // measure 23
0000
0000
1001
0000
0000
0000
1000
0000
0001
0000
0000
0100
0000
0000
0010
0000
,  // measure 24
0100
0000
0001
0010
0200
0000
0310
0000
,  // measure 25
0001
1000
0001
0200
0000
0000
0310
0100
,  // measure 26
0010
0000
1000
0100
0020
0000
0130
0000
,  // measure 27
1000
0001
1000
0020
0000
0000
0130
0000
,  // measure 28
0001
0010
0100
2000
0000
0000
3001
0000
,  // measure 29
1000
0100
0010
0002
0000
0000
1003
0000
,  // measure 30
0001
0100
0010
2000
0000
3001
0000
0001
,  // measure 31
0000
0001
0000
0001
0000
0001
0000
0001
,  // measure 32
1000
0101
1000
0011
,  // measure 33
1000
0100
0010
0001
0100
0010
0100
0001
,  // measure 34
0100
1010
0100
0011
,  // measure 35
0002
0000
2003
0000
3002
0023
2030
0000
,  // measure 36
3020
0000
0230
0000
2300
3020
0032
0000
,  // measure 37
0023
0230
0302
1003
,  // measure 38
0002
0000
2003
3200
,  // measure 39
0320
0032
2003
3020
,  // measure 40
0230
0302
2003
3001
,  // measure 41
0020
0130
0020
0031
,  // measure 42
0000
1000
0100
0010
0100
1000
0010
0100
,  // measure 43
0020
0130
0020
1030
,  // measure 44
0000
0010
0100
0010
1000
0100
0010
0100
,  // measure 45
0020
0031
0200
0310
,  // measure 46
0000
1000
0001
0010
0001
1000
0010
1000
,  // measure 47
0001
0000
0000
0001
0000
0000
0000
0000
1000
0000
0000
1000
0000
0000
0000
0000
,  // measure 48
0010
0000
0000
0010
0000
0000
0000
0000
0100
0000
0000
0100
0000
0000
0000
0000
,  // measure 49
0110
0000
0000
0010
1000
0000
0000
0000
0001
0000
0000
1000
0100
0000
0000
0000
,  // measure 50
0110
0000
0000
0000
,  // measure 51
0010
0000
0000
0001
0000
0000
1000
0000
0100
0000
0000
1000
0000
0000
0001
0000
,  // measure 52
0010
0000
0000
0100
0000
0000
1000
0000
0001
0000
0000
0100
0000
0000
0010
0000
,  // measure 53
1000
0000
0000
1010
0000
0000
0000
0000
0001
0000
0000
0101
0000
0000
0000
0000
,  // measure 54
0100
0000
0000
0110
0000
0000
0000
0000
0001
0000
0000
1001
0000
0000
0000
0000
,  // measure 55
2000
3020
0032
0023
,  // measure 56
0000
1030
0100
0001
0100
1000
0001
0100
,  // measure 57
0002
0023
2030
3020
,  // measure 58
0000
0031
0100
1000
0100
0001
1000
0100
,  // measure 59
0020
0230
2300
3002
,  // measure 60
0000
1003
0100
0001
1000
0010
0002
0000
,  // measure 61
1003
0000
0000
1001
0000
0000
0000
0000
0010
0000
0000
0110
0000
0000
0000
0000
,  // measure 62
0001
0000
0000
0101
0000
0000
0000
0000
1000
0000
0000
1100
0000
0000
0000
0000
,  // measure 63
0011
0000
0000
0011
0000
0000
0000
0000
1010
0000
0000
1010
0000
0000
0000
0000
,  // measure 64
0101
0000
0000
0101
0000
0000
0000
0000
1100
0000
0000
1100
0000
0000
0000
0000
,  // measure 65
0001
0000
0000
0100
0010
0000
0000
0000
1000
0000
0000
0100
0010
0000
0000
0000
,  // measure 66
1002
0003
2000
3000
,  // measure 67
0002
0003
0220
0000
,  // measure 68
0000
0000
0000
0000
,  // measure 69
0000
0000
0000
0000
,  // measure 70
0330
0000
0000
0000
;

//---------------dance-single - venomcore the song----------------
#NOTEDATA:;
#CHARTNAME:XO+ FS DS;
#STEPSTYPE:dance-single;
#DESCRIPTION:venomcore the song;
#CHARTSTYLE:;
#DIFFICULTY:Hard;
#METER:12;
#RADARVALUES:0.455395,0.717887,0.435860,0.444406,0.213657,373.000000,322.000000,51.000000,52.000000,8.000000,1.000000,0.000000,0.000000,15.000000,0.455395,0.717887,0.435860,0.444406,0.213657,373.000000,322.000000,51.000000,52.000000,8.000000,1.000000,0.000000,0.000000,15.000000;
#CREDIT:djfipu;
#DISPLAYBPM:100.000000:127.000000;
#NOTES:
// measure 0
0000
0000
0000
0000
0001
0100
1000
0010
,  // measure 1
0001
0000
0000
0000
,  // measure 2
0000
0000
0000
0000
,  // measure 3
0000
0000
0000
0000
,  // measure 4
0000
0000
0000
0000
,  // measure 5
0001
0100
1000
0010
0001
0000
0000
0000
,  // measure 6
0000
0000
0000
0000
,  // measure 7
0000
0000
0000
0000
,  // measure 8
0000
0000
0000
0000
,  // measure 9
0000
0000
0000
0000
0001
0100
1000
0010
,  // measure 10
0001
0000
0000
0000
,  // measure 11
0000
0000
0000
0000
,  // measure 12
0000
0000
0000
0000
,  // measure 13
0000
0000
0000
0000
,  // measure 14
1001
0000
0000
0000
0000
0000
0000
0001
1000
0000
0000
0000
0000
0000
0000
0100
,  // measure 15
0010
0000
0000
0000
0000
0000
0000
0000
0110
0000
0000
1001
0000
0000
0110
0000
,  // measure 16
1000
0000
0010
0000
0100
0000
0000
0001
0010
0000
0001
0000
1000
0000
0000
0001
,  // measure 17
0100
0000
0010
0000
0100
0000
0000
0000
0110
0000
0000
1001
0000
0000
0011
0000
,  // measure 18
0001
0000
0100
0000
0010
0000
0100
0000
0001
0000
1000
0200
0000
0000
0000
1300
,  // measure 19
0010
1000
0100
0010
0002
0000
0000
1003
,  // measure 20
0100
0000
0010
0000
0100
0000
1000
0000
0001
0000
0100
0010
0000
0000
0000
0100
,  // measure 21
0001
0000
0000
0010
0100
0000
0000
1000
0001
0000
0000
0000
1001
0000
0000
0000
,  // measure 22
2000
0000
0000
0000
3020
0000
0000
0000
0230
0000
0000
1300
0000
0000
0100
0000
,  // measure 23
0001
0000
0020
0000
0000
0000
0130
0000
1100
0000
0000
0011
0000
0000
0010
0000
,  // measure 24
1000
0010
0001
1000
0020
0000
0030
0100
,  // measure 25
1000
0100
0001
0020
0000
0000
0130
0100
,  // measure 26
0001
0100
1000
0001
0200
0000
0000
0310
,  // measure 27
0001
0010
1000
0200
0000
0000
0310
0100
,  // measure 28
0001
0100
0010
0200
0000
0000
1300
0010
,  // measure 29
0001
0010
0100
0020
0000
0000
1030
0100
,  // measure 30
0001
0100
0010
0200
0300
1100
0000
0011
,  // measure 31
0000
0101
0000
1010
0000
0110
0000
1000
,  // measure 32
0001
0100
1010
0000
1000
0100
0011
0000
,  // measure 33
0001
0100
1000
0100
0001
0100
0010
0100
,  // measure 34
0001
0010
1100
0000
1000
0010
0101
0000
,  // measure 35
1000
0000
0010
0000
0001
0000
0010
0000
1000
0000
1100
0000
0000
0101
0000
0000
,  // measure 36
0100
0020
0000
0130
1000
0100
0020
0000
,  // measure 37
1030
0000
0001
0000
0000
0010
0000
0000
0100
0000
0000
1000
0000
0000
0001
0000
,  // measure 38
2000
0000
3002
0023
,  // measure 39
2030
3200
0302
0023
,  // measure 40
2030
3200
0302
2003
,  // measure 41
3010
0100
2001
0000
3100
0010
1002
0000
,  // measure 42
0000
0013
1000
0010
0001
0010
0100
0010
,  // measure 43
0001
1000
0210
0000
1300
0001
0120
0000
,  // measure 44
0000
0130
0001
0100
1000
0100
0010
0100
,  // measure 45
2001
3010
1002
0013
,  // measure 46
0110
0100
1000
0010
0100
0010
1000
0001
,  // measure 47
1001
0000
0000
1100
0000
0000
0000
0000
1001
0000
0000
0101
0000
0000
0000
0000
,  // measure 48
1001
0000
0000
0011
0000
0000
0000
0000
1001
0000
0000
1010
0000
0000
0000
0000
,  // measure 49
0010
0000
0000
1000
0001
0000
0000
0000
0010
0000
0000
0001
1000
0000
0000
0000
,  // measure 50
1001
0000
0000
0000
,  // measure 51
1001
0000
1000
0100
00M0
0100
0001
0000
1000
0010
0M00
0010
0001
0000
0001
0100
,  // measure 52
00M0
0100
1000
0000
0001
0010
0M00
0010
1000
0000
0001
0100
00M0
0100
1000
0000
,  // measure 53
1100
0000
0000
0101
0000
0000
0000
0000
0011
0000
0000
1010
0000
0000
0000
0000
,  // measure 54
0101
0000
0000
0011
0000
0000
0000
0000
1100
0000
0000
1010
0000
0000
0000
0000
,  // measure 55
2000
3010
0002
0013
2000
3100
0002
0100
,  // measure 56
1003
0100
0001
0100
1000
0010
0100
0001
,  // measure 57
2000
3010
0002
0103
2000
3100
0002
0013
,  // measure 58
0001
0010
1000
0010
0100
0010
0001
0001
,  // measure 59
2000
0010
3001
0000
0002
0010
1003
0000
,  // measure 60
1001
1000
0100
0001
1000
0010
0002
0000
,  // measure 61
0003
0000
1000
0000
0010
0000
0000
0100
00M0
0100
1000
0000
0002
0000
0000
1003
,  // measure 62
0000
0000
0001
0000
0010
0000
0000
0100
00M0
0100
0001
0000
2000
0000
0000
3001
,  // measure 63
0000
0000
1000
0000
0010
0000
0000
0100
00M0
0100
1000
0000
0002
0000
0000
1003
,  // measure 64
0000
0000
0001
0000
1000
0000
0010
0000
0110
0000
0000
1001
0000
0000
0001
0000
,  // measure 65
1000
0000
0000
0010
0100
0000
0000
0001
1000
0000
0000
0100
0010
0000
0000
0000
,  // measure 66
2002
3003
0020
0000
,  // measure 67
0230
0000
2302
0000
,  // measure 68
0000
0000
0000
0000
,  // measure 69
0000
0000
0000
0000
,  // measure 70
3003
0000
0000
0000
;
