#TITLE:STAY TUNE;
#SUBTITLE:;
#ARTIST:Suchmos;
#TITLETRANSLIT:;
#SUBTITLETRANSLIT:;
#ARTISTTRANSLIT:;
#GENRE:;
#CREDIT:;
#MUSIC:STAY-TUNE-Edit.ogg;
#BANNER:st-banner.png;
#BACKGROUND:st-bg.png;
#CDTITLE:;
#SAMPLESTART:0.000;
#SAMPLELENGTH:0.000;
#SELECTABLE:YES;
#OFFSET:0.000;
#BPMS:0.000=123.000;
#STOPS:;
#BGCHANGES:;
#FGCHANGES:;

//--------------- dance-single - Evergreen ----------------
#NOTES:
     dance-single:
     Evergreen:
     Hard:
     13:
     0,0,0,0,0:
0000
0000
0000
0000
,
0000
0000
0000
0000
,
0000
0000
0000
0000
,
0000
0000
0000
0000
,
1000
0010
1000
0000
0001
0010
0001
0000
,
1000
0100
1000
0000
0001
0100
0001
0000
1000
0000
0010
0100
0001
0000
1000
0000
,
0100
0000
0000
0010
0001
0000
0000
0000
0100
0000
0000
0010
1000
0000
0000
0000
,
0001
0100
0001
0000
0100
0000
0100
0000
0010
0000
1000
0010
1000
0000
0001
0000
,
0010
0001
1000
0000
0010
1000
0001
0000
,
1000
0100
1000
0000
0001
0100
0001
0000
1000
0000
0010
0100
0001
0000
1000
0000
,
0001
0000
0000
0100
0010
0000
0000
0000
1000
0000
0000
0100
0010
0000
0000
0000
,
0001
0000
0010
0100
0000
1000
0010
0000
1000
0000
0001
0100
0010
1000
0001
0000
,
0010
0100
0020
0000
0031
0100
0010
1000
,
0001
0100
0010
0100
0001
1000
0010
1000
,
0002
0000
1000
0000
0000
0000
1003
0100
,
0010
0100
1000
0001
0100
0010
1000
0001
,
2000
0000
0001
0000
0000
0000
3001
0100
,
0010
1000
0000
0001
0000
0010
0100
0010
,
0001
1000
0010
0100
0001
0000
1000
0010
,
001M
0000
0001
0000
1000
0000
0001
0000
0010
0000
0100
1000
0100
0000
1000
0000
,
0001
0100
0010
1000
0001
1000
0100
1000
,
0002
0000
0023
0000
0230
0000
1300
0010
,
0100
0001
1000
0000
0001
0010
0001
1000
,
0001
0100
0010
1000
0001
1000
0200
0000
,
1300
0000
0000
0001
0100
0000
0000
0000
0001
0000
0000
1000
0100
0000
0010
0000
,
0100
1000
0001
0100
0010
1000
0001
0010
,
0100
1000
0010
0100
0000
0000
0001
0010
,
001M
0000
1000
0000
0001
0000
1000
0000
0010
0000
1000
0010
1000
0000
0001
0010
,
0001
1000
0100
1000
0010
0100
0001
0100
,
0101
0000
0000
0000
1100
0000
0000
0000
1001
0000
0001
1000
0001
0000
1000
0000
,
0100
0010
0100
1000
0001
0100
0010
1000
,
1010
0000
0011
0000
1001
1000
0010
0100
,
0001
0010
0100
1000
0001
0100
0010
1000
,
1001
0000
0000
0000
0110
0000
0000
0000
1001
0000
1000
0001
1000
0000
0001
0000
,
0010
0100
1000
0001
0100
0010
1000
0001
,
1000
0000
1000
0000
0001
0000
0001
0000
1000
0000
0010
1000
0010
0000
0100
0000
,
0001
0000
0010
0001
0010
0000
0001
0000
0100
0000
0010
0000
0100
0000
0001
0000
,
0010
0000
0001
0000
1000
0000
0010
0000
1000
0000
0001
0000
0100
0000
0010
1000
,
0010
0000
0000
1000
0010
0000
1000
0000
0001
0000
0000
0010
0001
0000
0100
0000
,
0001
0100
0001
0000
0100
0000
0100
0000
0010
0000
1000
0000
0001
0000
0010
0000
,
0100
1000
0010
0100
0010
1000
0100
0010
,
0100
1000
0100
0000
1000
0000
1000
0000
0010
0000
0100
0000
0001
0000
0100
0000
,
0010
0000
0000
1000
0001
0000
0000
0000
0010
0000
0000
0001
1000
0000
0001
0000
,
1000
0100
1000
0000
0100
0000
0100
0000
0010
0000
0001
0010
0001
0000
1000
0000
,
0010
0100
0001
0000
0010
0100
1000
0000
,
0001
0100
0010
0000
0100
0001
0010
0100
,
1000
0100
0010
0000
0001
0100
0010
0000
,
1000
0010
0100
0000
0010
1000
0100
0010
,
0002
0010
1000
0103
,
2000
0000
0010
0000
3001
0100
0001
1000
,
0020
0100
0100
0100
,
0130
0000
0010
0000
0100
0000
0010
0000
1000
0010
1000
0000
0001
0010
0001
0000
,
1000
0100
1000
0000
0001
0100
0001
0000
,
1000
0010
1000
0000
0001
0010
0001
0000
1000
0000
0100
0010
0001
0000
1000
0000
,
0010
0000
0000
0100
0001
0000
0000
0000
0010
0000
0000
0100
1000
0000
0000
0000
,
0001
0010
0001
0000
0010
0000
0010
0000
0100
0000
1000
0100
1000
0000
0001
0000
,
0100
0001
1000
0000
0100
1000
0001
0000
,
1000
0010
1000
0000
0001
0010
0001
0000
1000
0000
0100
0010
0001
0000
1000
0000
,
0001
0000
0000
0010
0100
0000
0000
0000
1000
0000
0000
0010
0100
0000
0000
0000
,
0001
0000
1000
0100
1000
0001
0100
0000
0001
0010
0001
0000
1000
0010
1000
0000
,
1010
0000
0000
0001
0010
0000
0001
0000
0011
0000
0000
1000
0010
0000
1000
0000
,
0001
0100
0001
0000
1000
0000
0100
0000
0010
0000
0000
0010
0001
0000
0100
0000
,
0101
0000
0000
1000
0100
0000
1000
0000
1100
0000
0000
0001
0100
0000
0001
0000
,
1000
0010
1000
0000
0010
0000
0010
0000
0100
0000
0001
0010
0100
1000
0100
0000
,
1100
0000
0000
0001
0010
0000
0001
0000
0011
0000
0000
0001
1000
0000
0010
0000
,
1000
0010
1000
0000
0010
0000
0010
0000
0100
0000
0001
0100
0001
0000
0000
0000
,
0101
0000
0000
0010
1000
0000
0010
0000
1010
0000
0000
0001
0010
0000
0001
0000
,
0010
0100
1000
0001
1000
0000
0001
0000
1000
0000
0001
0100
0001
1000
0100
0010
,
0001
0000
0000
0000
;
