#VERSION:0.83;
#TITLE:SOFT LANDING ON THE BODY;
#SUBTITLE:;
#ARTIST:DJ SIMON;
#TITLETRANSLIT:;
#SUBTITLETRANSLIT:;
#ARTISTTRANSLIT:;
#GENRE:SPIRITUAL;
#ORIGIN:;
#CREDIT:;
#BANNER:SOFT LANDING ON THE BODY.png;
#BACKGROUND:SOFT LANDING ON THE BODY-bg.png;
#PREVIEWVID:;
#JACKET:SOFT LANDING ON THE BODY-jacket.png;
#CDIMAGE:;
#DISCIMAGE:;
#LYRICSPATH:SOFT LANDING ON THE BODY.lrc;
#CDTITLE:;
#MUSIC:SOFT LANDING ON THE BODY.ogg;
#OFFSET:-0.000000;
#SAMPLESTART:23.991394;
#SAMPLELENGTH:11.999998;
#SELECTABLE:YES;
#BPMS:0.000=160.000,
152.000=320.000,
175.000=80.000,
191.000=160.000;
#STOPS:;
#DELAYS:;
#WARPS:;
#TIMESIGNATURES:0.000=4=4;
#TICKCOUNTS:0.000=4;
#COMBOS:0.000=1;
#SPEEDS:0.000=1.000=0.000=0;
#SCROLLS:0.000=1.000;
#FAKES:;
#LABELS:0.000=Song Start;
#BGCHANGES:0.000=SOFT LANDING ON THE BODY.mp4=1.000=0=0=0=StretchNoLoop====,
99999=-nosongbg-=1.000=0=0=0 // don't automatically add -songbackground-
;
#KEYSOUNDS:;
#ATTACKS:
;

//---------------dance-single - ----------------
#NOTEDATA:;
#CHARTNAME:;
#STEPSTYPE:dance-single;
#DESCRIPTION:;
#CHARTSTYLE:;
#DIFFICULTY:Hard;
#METER:12;
#RADARVALUES:0.593640,0.646160,0.311939,0.000000,0.217244,373.000000,345.000000,28.000000,0.000000,0.000000,0.000000,0.000000,0.000000,0.000000,0.593640,0.646160,0.311939,0.000000,0.217244,373.000000,345.000000,28.000000,0.000000,0.000000,0.000000,0.000000,0.000000,0.000000;
#CREDIT:Benomothim;
#NOTES:
0000
0000
0000
0000
,
0000
0000
0000
0000
,
0000
0000
0000
0000
,
0000
0000
0000
0000
,
1001
0000
0001
0100
0000
0100
0000
0010
,
0000
0010
0000
1000
1000
0000
0000
0000
,
0001
0000
0010
0000
0001
1000
0010
0100
,
0000
0000
0010
0000
0100
0000
0000
0000
0100
0000
0000
0000
0001
1000
0000
0000
,
0001
0000
0100
0000
0010
0000
0000
0010
0000
0000
0100
0000
0000
0000
0101
0000
,
0000
0000
1000
0000
0100
0000
0000
0000
1000
0000
0001
0100
0000
0001
0100
0000
,
0010
0000
1000
0000
0100
0000
0000
0100
1000
0000
0010
0000
0000
0000
0010
0000
,
0100
0000
0001
0000
1000
0000
0000
0100
1000
0000
0010
0000
0100
0000
0001
0000
,
1000
0100
1001
0000
1000
0100
1001
0000
,
0001
0000
0100
0010
0000
0100
0010
0000
1000
0000
0000
0000
0001
0000
1000
0000
,
0001
0100
1001
0000
0001
0100
1001
0000
,
0001
0000
0011
0000
0000
0000
0001
0000
0000
0000
1000
0000
1010
0000
0000
0001
,
1000
0000
0001
0100
0000
0010
0100
0010
,
0000
0000
1000
0000
0001
0000
0010
0000
0010
0000
0000
0000
0000
0000
0001
0100
,
0010
0000
0010
0100
0000
0010
0100
0010
,
0000
0000
1000
0000
0100
0000
0010
0000
0010
0000
0000
0000
0000
0000
0000
0001
,
1000
0000
0000
0001
0100
0000
0101
0000
0000
0000
0110
0000
1000
0000
0001
0000
,
0010
1000
0010
0100
0000
1000
0001
1000
,
0010
0000
0000
1000
0100
0000
1100
0000
0000
0000
0110
0000
0001
0000
1000
0000
,
0010
0100
0010
0000
0100
0000
0110
0000
,
1001
0000
1000
0010
0000
0010
0000
0100
,
0000
0001
0100
0010
0100
1000
0100
0001
,
1000
0000
0001
0010
0000
0010
0000
0100
,
0000
1000
0100
0010
0100
0001
0100
1000
,
0001
0000
1000
0010
0000
0010
0000
0100
,
0000
1000
0100
0001
0010
0100
0001
0100
,
1000
0000
1000
0001
0000
0001
0000
1000
,
0000
0001
0100
1000
0100
0010
1000
0001
,
1000
0000
0001
0000
0101
0000
0000
0001
1000
0000
0001
0000
0101
0000
0000
0000
,
1000
0100
0001
0100
0100
1000
0010
0100
,
0001
0000
1000
0000
1010
0000
0000
1000
0001
0000
1000
0000
1010
0000
0000
0000
,
0001
0010
1000
0010
0010
0001
0100
0010
,
1000
0000
0100
0000
0011
0000
0000
0001
0100
0000
0001
0000
1010
0000
0000
0000
,
1000
0100
0001
0100
0010
0100
0001
0100
,
1000
0010
1010
1000
,
0001
0010
0011
0001
,
1000
0010
0001
1000
,
0100
0001
1000
0001
,
0010
1000
0001
0100
,
1000
0000
0000
0000
0010
0000
0000
0000
0100
0000
0000
0000
1001
0000
1000
0010
,
0000
0010
0000
0100
0000
0100
0000
0001
1000
0000
0000
1000
0001
0000
0001
0010
,
0000
0010
0000
0100
0000
0100
0000
0010
0001
0000
0000
0001
0100
0000
0100
0010
,
0000
0010
0000
0100
0000
0100
0000
0001
1000
0000
0000
1000
0100
0000
0100
1000
,
0000
1000
0000
0010
0000
0010
0000
0100
0001
0000
0000
0000
1000
0000
0001
0000
,
0100
1000
0100
1000
0100
0010
1000
0100
,
0010
0001
0001
0100
0010
1000
0001
1000
,
0010
0001
0010
0001
0010
0100
0001
0010
,
0100
1000
1000
0000
1100
0000
0001
0100
,
0010
0001
0010
1000
0100
0010
1000
0010
,
0100
1000
0001
0100
0010
0010
1000
0000
,
0010
0010
0000
1000
0001
1000
0100
0110
,
0010
0000
0001
0000
1100
0000
0001
0100
,
0010
0000
0100
0001
0011
0000
1000
0010
,
0100
0000
0010
1000
1100
0000
0001
0100
,
1000
0000
0000
0000
;

//---------------dance-single - ----------------
#NOTEDATA:;
#CHARTNAME:;
#STEPSTYPE:dance-single;
#DESCRIPTION:;
#CHARTSTYLE:;
#DIFFICULTY:Medium;
#METER:9;
#RADARVALUES:0.428121,0.484620,0.233955,0.000000,0.089126,269.000000,248.000000,21.000000,0.000000,0.000000,0.000000,0.000000,0.000000,0.000000,0.428121,0.484620,0.233955,0.000000,0.089126,269.000000,248.000000,21.000000,0.000000,0.000000,0.000000,0.000000,0.000000,0.000000;
#CREDIT:Benomothim;
#NOTES:
0000
0000
0000
0000
,
0000
0000
0000
0000
,
0000
0000
0000
0000
,
0000
0000
0000
0000
,
1001
0000
0000
1000
0000
1000
0000
0010
,
0000
0010
0000
0100
0100
0000
0000
0000
,
0001
1000
0100
0010
,
0001
0100
0010
0000
0010
0000
1001
0000
,
0001
0010
0100
0000
1000
0010
0000
0000
,
0100
0000
0001
1000
0000
0001
0000
0100
,
0100
0000
0001
0010
0001
1000
0000
0100
,
0000
0000
1000
0001
1000
0000
0001
0100
,
0010
1001
0010
1001
,
0000
0001
0001
0000
1000
0010
0100
0000
,
0100
1001
0100
1001
,
0000
0000
1000
0000
0000
0001
0010
0100
,
1000
0000
1000
0001
0000
0001
0000
0100
,
0000
0100
0000
0010
0100
0000
0000
0001
,
1000
0000
1000
0100
0000
0100
0000
0010
,
0000
0100
0000
1000
0001
0000
0000
1000
,
0001
0000
1000
0010
0000
0010
0000
0100
,
0000
0100
0000
0001
0000
1000
0100
1000
,
0100
0000
0000
0010
0000
0010
0000
0001
,
0000
1000
0010
0000
0010
0000
0110
0000
,
0001
0101
0000
1000
,
0000
0001
0010
0001
0010
0100
1000
0100
,
0000
1100
0000
0001
,
0000
1000
0010
1000
0010
0100
0001
0100
,
0000
0001
0000
0011
,
0000
1000
0100
1000
0010
1000
0100
1000
,
0000
1000
0000
1010
,
0000
0001
0100
0001
0010
0001
0100
0001
,
1000
1010
0010
0110
,
0001
1000
0000
0001
1000
0000
0000
0000
,
0001
0011
0010
0110
,
1000
0001
0000
1000
0001
0000
0000
0000
,
0100
1010
0100
0011
,
1000
0001
0000
0100
0010
0000
0000
0000
,
1000
0000
0010
0000
,
0100
0000
0001
0000
,
1000
0100
1000
0100
,
0010
0001
0010
0001
,
1000
0010
1000
0010
,
0100
0000
0000
0000
0001
0000
0000
0000
0100
0000
0000
0000
0010
0000
0000
0010
,
0000
0000
0000
1000
0000
1000
0000
0100
0100
0000
0000
0000
0010
0000
0000
0010
,
0000
0000
0000
0001
0000
0001
0000
0100
0100
0000
0000
0000
0001
0000
0000
0001
,
0000
0000
0000
1000
0000
1000
0000
0010
0010
0000
0000
0000
0100
0000
0000
0100
,
0000
0000
0000
0001
0000
0001
0000
1000
1000
0000
0000
0000
1001
0000
0000
0000
,
0000
1000
0000
1000
0000
0010
0000
0010
,
0000
0100
0000
0001
1000
0000
0001
0000
,
0010
0010
0000
0001
0000
1000
0000
0100
,
0000
1000
1000
0000
1001
0000
0001
0000
,
0100
0010
0000
1000
1000
0001
0000
0001
,
1000
0100
0000
1000
0010
0100
0001
0000
,
1000
0100
0000
1000
0001
0010
0000
0110
,
0000
0100
1000
0000
1001
0000
0001
0100
,
1000
0000
1000
0100
0001
0000
1000
0100
,
0001
0000
0001
0100
1000
0000
1000
0010
,
0100
0000
0000
0000
;

//---------------dance-single - ----------------
#NOTEDATA:;
#CHARTNAME:;
#STEPSTYPE:dance-single;
#DESCRIPTION:;
#CHARTSTYLE:;
#DIFFICULTY:Easy;
#METER:6;
#RADARVALUES:0.297616,0.355388,0.133688,0.000000,0.000000,187.000000,175.000000,12.000000,0.000000,0.000000,0.000000,0.000000,0.000000,0.000000,0.297616,0.355388,0.133688,0.000000,0.000000,187.000000,175.000000,12.000000,0.000000,0.000000,0.000000,0.000000,0.000000,0.000000;
#CREDIT:Venomothim;
#NOTES:
0000
0000
0000
0000
,
0000
0000
0000
0000
,
0000
0000
0000
0000
,
0000
0000
0000
0000
,
1000
0000
1000
0000
,
0010
0010
0100
0000
,
0001
1000
0100
0000
,
0010
0000
0001
0000
,
1000
0100
0001
0010
,
1000
0100
0001
0000
,
0001
0100
1000
0010
,
0001
0100
1000
0000
,
0010
1001
0100
1001
,
0000
0001
1000
0100
,
1000
1100
0001
0101
,
0000
1000
0010
0100
,
0001
0000
0001
0000
,
1000
1000
1000
0000
,
0100
0000
0100
0000
,
0010
0010
0010
0000
,
0100
0000
0100
0000
,
1000
1000
0010
0010
,
0100
0000
0100
0000
,
0001
0001
0001
0000
,
1000
0100
1000
0100
,
0000
0010
0001
1000
,
0001
0100
0001
0100
,
0000
0010
1000
0001
,
1000
0010
0001
0100
,
0000
0100
0001
0010
,
1000
0100
0001
0010
,
0000
0010
0001
0100
,
0000
0110
0000
1001
,
0000
0001
0010
0100
,
1000
1010
0001
0011
,
0000
1000
1000
1000
,
0001
0110
0000
0110
,
0000
1000
0001
1000
,
0010
0000
0101
0000
,
0010
0000
1100
0000
,
0001
0000
0100
0000
,
0010
0000
1000
0000
,
0100
0000
0010
0000
,
0001
0000
0100
0100
,
0010
0000
1000
1000
1000
0000
0100
0000
,
0010
0000
0001
0001
0001
0000
1000
0000
,
0001
0000
0100
0100
0100
0000
0001
0000
,
1000
0000
0010
0010
0010
0000
1000
0000
,
1000
0100
0100
0010
,
0001
1000
0000
0001
,
0100
0100
0010
0010
,
0100
0001
0000
1000
,
0100
0001
0100
1000
,
0100
0001
0000
0001
,
0100
1000
0100
0001
,
0100
1000
0000
1000
,
0010
1000
0100
0010
,
0001
0100
0001
0010
,
1000
0000
0000
0000
;

//---------------dance-single - ----------------
#NOTEDATA:;
#CHARTNAME:;
#STEPSTYPE:dance-single;
#DESCRIPTION:;
#CHARTSTYLE:;
#DIFFICULTY:Beginner;
#METER:3;
#RADARVALUES:0.159153,0.193848,0.000000,0.000000,0.000000,100.000000,100.000000,0.000000,0.000000,0.000000,0.000000,0.000000,0.000000,0.000000,0.159153,0.193848,0.000000,0.000000,0.000000,100.000000,100.000000,0.000000,0.000000,0.000000,0.000000,0.000000,0.000000,0.000000;
#CREDIT:Venomothim;
#NOTES:
0000
0000
0000
0000
,
0000
0000
0000
0000
,
0000
0000
0000
0000
,
0000
0000
0000
0000
,
1000
0000
0000
0000
,
0001
0000
0000
0000
,
0100
0000
0000
0000
,
0000
0000
0000
0000
,
0001
0001
0000
0000
,
1000
1000
0000
0000
,
0010
0010
0000
0000
,
0100
0100
0000
0000
,
0010
0010
0000
0000
,
1000
1000
0000
0000
,
0001
0001
0000
0000
,
0010
0010
0000
0000
,
0100
0000
0100
0000
,
1000
1000
1000
0000
,
0001
0000
0001
0000
,
0100
0100
0100
0000
,
0010
0000
0100
0000
,
0001
0001
0001
0000
,
0010
0000
0100
0000
,
0010
0010
0010
0000
,
0001
0000
0001
0000
,
1000
0000
0000
0000
,
1000
0000
1000
0000
,
0001
0000
0000
0000
,
0100
0000
0100
0000
,
0010
0000
0000
0000
,
0010
0000
0010
0000
,
0100
0000
0000
0000
,
0001
0000
0001
0000
,
1000
0000
1000
0000
,
0000
0000
1000
0000
,
0001
0000
0001
0000
,
0000
0000
0100
0000
,
0100
0000
0010
0000
,
0000
0000
0000
0000
,
0100
0000
0000
0000
,
0001
0000
0000
0000
,
0010
0000
0000
0000
,
0100
0000
0000
0000
,
1000
0000
0000
1000
,
0000
0001
0000
0100
,
0000
0010
0000
1000
,
0000
0100
0000
0010
,
0000
0001
0000
1000
,
0000
1000
0000
0001
,
0001
0001
0000
0001
,
0000
0001
0000
1000
,
1000
1000
0000
0010
,
0000
0010
0000
0100
,
0100
0100
0000
0100
,
0000
0100
0000
0010
,
0010
0010
0000
1000
,
0000
1000
0000
0100
,
0000
0100
0000
0010
,
0010
0000
0000
0000
;

//---------------dance-double - ----------------
#NOTEDATA:;
#CHARTNAME:;
#STEPSTYPE:dance-double;
#DESCRIPTION:;
#CHARTSTYLE:;
#DIFFICULTY:Hard;
#METER:12;
#RADARVALUES:0.560218,0.613852,0.278517,0.000000,0.200533,352.000000,327.000000,25.000000,0.000000,0.000000,0.000000,0.000000,0.000000,0.000000,0.560218,0.613852,0.278517,0.000000,0.200533,352.000000,327.000000,25.000000,0.000000,0.000000,0.000000,0.000000,0.000000,0.000000;
#CREDIT:Benomothim;
#NOTES:
00000000
00000000
00000000
00000000
,
00000000
00000000
00000000
00000000
,
00000000
00000000
00000000
00000000
,
00000000
00000000
00000000
00000000
,
00001001
00000000
00000001
00000100
00000000
00000100
00000000
00000010
,
00000000
00000010
00000000
00010000
00010000
00000000
00000000
00000000
,
00001000
00000000
00010000
00000000
00001000
00100000
01000000
00100000
,
00000000
00000000
00010000
00000000
10000000
00000000
00000000
00000000
00100000
00000000
00000000
00000000
10000000
00010000
00000000
00000000
,
10000000
00000000
00100000
00000000
01000000
00000000
00000000
01000000
00000000
00000000
00010000
00000000
00000000
00000000
01001000
00000000
,
00000000
00000000
00001000
00000000
00100000
00000000
00000000
00000000
00001000
00000000
00010000
00000010
00000000
00010000
00000010
00000000
,
00001000
00000000
00000100
00000000
00000010
00000000
00000000
00000001
00001000
00000000
00000010
00000000
00000000
00000000
00000010
00000000
,
00000100
00000000
00000001
00000000
00001000
00000000
00000000
00000001
00000010
00000000
00000100
00000000
00010000
00000000
00000000
00000000
,
00001000
00010000
00010010
00000000
00010000
00001000
00101000
00000000
,
00001000
00000000
00100000
01000000
00000000
00100000
01000000
00000000
10000000
00000000
00000000
00000000
00010000
00000000
01000000
00000000
,
00001000
00001000
00010010
00000000
00010000
00010000
00101000
00000000
,
00001000
00000000
00011000
00000000
00000000
00000000
00000010
00000000
00000000
00000000
00001000
00000000
00001100
00000000
00000000
00000001
,
00000100
00000000
00000010
00000100
00000000
00000001
00000010
00001000
,
00000000
00000000
00010000
00000000
00000000
00000000
00001000
00000000
00001000
00000000
00000000
00000000
00000000
00000000
00000000
00100000
,
00010000
00000000
10000000
00100000
00000000
10000000
01000000
00010000
,
00000000
00001000
00000000
00010000
00010000
00000000
00000000
00000000
,
00011000
00000000
00000000
00010000
00000010
00000000
00000100
00000000
00000000
00000000
00000001
00000000
00000100
00000000
00001000
00000000
,
00000100
00000010
00010000
00001000
00000000
00010000
00001000
00100000
,
00001000
00000000
00000000
00001000
01000000
00000000
00100000
00000000
00000000
00000000
10000000
00000000
00100000
00000000
00010000
00000000
,
00100000
01000000
00001000
00000000
00010000
00000000
00011000
00000000
,
00010010
00000000
00000010
00000100
00000000
00000001
00000000
00001000
,
00000000
00000001
00000010
00001000
00010000
01000000
10000000
00010000
,
01000000
00000000
01000000
00100000
00000000
10000000
00000000
00010000
,
00000000
10000000
01000000
00010000
00001000
00000010
00000001
00001000
,
00000010
00000000
00000000
00000010
00000100
00000000
00000001
00000000
00000000
00000000
00001000
00000000
00000000
00000000
00000100
00000000
,
00000000
00010000
00000100
00010000
01000000
00010000
00000100
00010000
,
00001000
00000000
00000000
00001000
01000000
00000000
00100000
00000000
00000000
00000000
10000000
00000000
00010000
00000000
00100000
00000000
,
00000000
00001000
00100000
00001000
00000010
00001000
00100000
00001000
,
00010000
00010010
00000010
00000110
,
00000001
00000100
00001000
00000100
00000100
00000010
00000010
00010000
,
00001000
00101000
00100000
01100000
,
10000000
01000000
00010000
01000000
01000000
00100000
00100000
00001000
,
00010000
00001001
00010000
00001001
,
00000001
00000100
00001000
00010000
00100000
10000000
01000000
00010000
,
00001000
00000000
10010000
00000000
,
00001000
00000000
10010000
00000000
,
10000000
00100000
00010000
00001000
,
00000100
00000001
00001000
00000001
,
00000010
00001000
00010000
01000000
,
10000000
00000000
00000000
00000000
00100000
00000000
00000000
00000000
01000000
00000000
00000000
00000000
10010000
00000000
10000000
01000000
,
00000000
01000000
00000000
00100000
00000000
00100000
00000000
00001000
00010000
00000000
00000000
00010000
00000010
00000000
00000010
00000100
,
00000000
00000100
00000000
00000001
00000000
00000001
00000000
00001000
00000100
00000000
00000000
00000000
00001000
00000000
00000001
00000100
,
00000000
00001000
00000000
00010000
00000000
00100000
00000000
10000000
00010000
00000000
00000000
10000000
00010000
00000000
10000000
00100000
,
00000000
00010000
00000000
00001000
00000000
00000100
00000000
00000001
00001000
00000000
00000000
00000000
00000001
00000000
00000010
00000000
,
00000100
00000001
00000100
00000001
00000103
00001000
00000000
00000010
,
00010000
00001000
00100000
00010000
01000000
01000000
01000000
00010000
,
00100000
10000000
00100000
10000000
30100000
00010000
00000000
01000000
,
00001000
00010000
00010000
00000000
00011000
00000000
00010000
00000010
,
00000100
00001000
00000100
00000010
00001000
00000100
00010000
00001000
,
00100000
01000000
00010000
01000000
00100000
00001000
00010000
00000000
,
00000010
00000010
00000000
00001000
00000001
00001000
00000100
00000110
,
00000010
00000000
00000001
00000000
00001100
00000000
00000001
00000100
,
00000101
00000000
00000001
00000100
00001000
00000000
00010000
00001000
,
00011000
00000000
00001000
00010000
01000000
00000000
10000000
00010000
,
01000000
00000000
00000000
00000000
;

//---------------dance-double - ----------------
#NOTEDATA:;
#CHARTNAME:;
#STEPSTYPE:dance-double;
#DESCRIPTION:;
#CHARTSTYLE:;
#DIFFICULTY:Medium;
#METER:9;
#RADARVALUES:0.436079,0.484620,0.289658,0.000000,0.072415,274.000000,248.000000,26.000000,0.000000,0.000000,0.000000,0.000000,0.000000,0.000000,0.436079,0.484620,0.289658,0.000000,0.072415,274.000000,248.000000,26.000000,0.000000,0.000000,0.000000,0.000000,0.000000,0.000000;
#CREDIT:Benomothim;
#NOTES:
00000000
00000000
00000000
00000000
,
00000000
00000000
00000000
00000000
,
00000000
00000000
00000000
00000000
,
00000000
00000000
00000000
00000000
,
00011000
00000000
00000000
00001000
00000000
00001000
00000000
01000000
,
00000000
01000000
00000000
00010000
10000000
00000000
00000000
00000000
,
00010000
00100000
01000000
00000000
,
10000000
00100000
01000000
01100000
,
00010000
10000000
01000000
00000000
00100000
00010000
00000000
00000000
,
00100000
00000000
00001000
00000000
00010000
00000010
00000000
00001000
,
00001000
00000000
00000001
00000000
00001000
00000010
00000100
00000010
,
00000000
00001000
00000001
00000000
00000001
00000000
00001000
00000100
,
00010000
00011000
00001000
00011000
,
01000000
00100000
01000000
00001000
00001000
00000000
00100000
00000000
,
00001000
00011000
00010000
00011000
,
00000100
00001000
00000000
00000000
00000001
00000000
00000101
00000000
,
00001001
00000000
00001000
00000100
00000000
00000100
00000000
00010000
,
00000000
00001000
00000000
01000000
01000000
00000000
00000000
00010000
,
10000000
00000000
00010000
00100000
00000000
00100000
00000000
00001000
,
00000000
00010000
00000000
00000010
00000010
00000000
00000000
00000000
,
00001010
00000000
00000001
00000010
00000000
00000110
00000000
00000110
,
00000000
00010000
00000000
00001000
00000000
01000000
00010000
01000000
,
00100000
00000000
10000000
01000000
00000000
01100000
00000000
01100000
,
00000000
00010000
10000000
00000000
10010000
00000000
00000000
00000000
,
00010000
00000000
00000000
01000000
00000000
00001000
00000000
00010000
,
00000000
00001000
00100000
00001000
00100000
00001000
00100000
00001000
,
00010000
00000000
00000000
00000010
00000000
00001000
00000000
00000100
,
00000000
00010000
00000010
00010000
00000010
00010000
00000010
00010000
,
00001000
00000000
00000000
00100000
00000000
00100000
00000000
00010000
,
00000000
00100000
01000000
00100000
01000000
00100000
01000000
00100000
,
00001000
00000000
00010000
00000010
00000000
00000010
00000000
00001000
,
00000000
00000010
00000100
00000010
00000100
00000010
00000100
00000010
,
00010000
00010100
00000000
01001000
,
00001000
00010000
00000000
00001000
00010000
00000000
00000000
00000000
,
00001000
00101000
00000000
00010010
,
00010000
00001000
00000000
00010000
00001000
00000000
00000000
00000000
,
00010000
00001100
00010000
00001100
,
00000001
00000100
00000000
00000100
00000010
00000000
00010000
00000000
,
00001000
00000000
00110000
00000000
,
00001000
00000000
00110000
00000000
,
10000000
00100000
00000000
00100000
,
01000000
00000000
01000000
00001000
,
00010000
00000000
00011000
00000000
,
00010000
00000100
00000010
00000001
,
00000000
00000000
00000000
00000000
00001000
00000000
00000000
00000000
00001000
00000000
00000000
00000000
00000010
00000000
00000000
00000010
,
00000000
00000010
00000000
00001000
00000000
00000000
00000000
00000100
00000100
00000000
00000000
00000000
00010000
00000000
00000000
00010000
,
00000000
00010000
00000000
00001000
00000000
00000000
00000000
01000000
01000000
00000000
00000000
00000000
00010000
00000000
00000000
10000000
,
00000000
01000000
00000000
00100000
00000000
00010000
00000000
01000000
01000000
00000000
00000000
00000000
10010000
00000000
00000000
00000000
,
10000000
01000000
00000000
01000000
00000000
00100000
00000000
00010000
,
00000000
01000000
00000000
00001000
00010000
00001000
00010000
00000000
,
00010000
00000100
00000000
00000100
00000000
00000010
00000000
00000001
,
00000000
00001000
00001000
00000000
00000000
00000000
00000001
00000000
,
00001000
00000010
00000000
00001000
00000100
00001000
00000000
00000100
,
00010000
00000100
00000000
00010000
00001000
00010000
00001000
00000000
,
01000000
00010000
00000000
10000000
01000000
00100000
00000000
00010000
,
10000000
00000000
01010000
00000000
01001000
00000000
00001000
00010000
,
00000010
00000000
00000010
00010000
00001000
00000000
00010000
00001000
,
00100000
00000000
00100000
00001000
00010000
00000000
00001000
00010000
,
00001000
00000000
00000000
00000000
;

//---------------dance-double - ----------------
#NOTEDATA:;
#CHARTNAME:;
#STEPSTYPE:dance-double;
#DESCRIPTION:;
#CHARTSTYLE:;
#DIFFICULTY:Easy;
#METER:6;
#RADARVALUES:0.248278,0.387696,0.144829,0.000000,0.000000,156.000000,143.000000,13.000000,0.000000,0.000000,0.000000,0.000000,0.000000,0.000000,0.248278,0.387696,0.144829,0.000000,0.000000,156.000000,143.000000,13.000000,0.000000,0.000000,0.000000,0.000000,0.000000,0.000000;
#CREDIT:Ben Speirs;
#NOTES:
// measure 0
00000000
00000000
00000000
00000000
,  // measure 1
00000000
00000000
00000000
00000000
,  // measure 2
00000000
00000000
00000000
00000000
,  // measure 3
00000000
00000000
00000000
00000000
,  // measure 4
00010000
00000000
00001000
00000000
,  // measure 5
01000000
01000000
01000000
00000000
,  // measure 6
00001000
00000000
00010000
00000000
,  // measure 7
00001000
00010000
00001000
00000000
,  // measure 8
00010000
00000100
00000010
00000000
,  // measure 9
00000010
00000001
00001000
00000001
,  // measure 10
00000100
00000100
00000010
00000000
,  // measure 11
00000010
00001000
00000100
00010000
,  // measure 12
00000000
00011000
00000000
00011000
,  // measure 13
00000000
00001000
01000000
00000000
,  // measure 14
00000000
00011000
00000000
00011000
,  // measure 15
00000000
00010000
00000100
00000000
,  // measure 16
00010000
00000000
00001000
00000000
,  // measure 17
01000000
00010000
10000000
00000000
,  // measure 18
00010000
00010000
00100000
00100000
,  // measure 19
00001000
00010000
00001000
00000000
,  // measure 20
00010000
00000000
00000010
00000000
,  // measure 21
00001000
00000001
00000010
00000000
,  // measure 22
00000001
00000001
00001000
00001000
,  // measure 23
00000010
00010000
00001000
00000000
,  // measure 24
00100000
00000000
00100000
00000000
,  // measure 25
00100000
00001000
00010000
00010000
,  // measure 26
00000010
00000000
00000010
00000000
,  // measure 27
00000010
00010000
00001000
00001000
,  // measure 28
01000000
00000000
01000000
00000000
,  // measure 29
01000000
00001000
00010000
00010000
,  // measure 30
00000100
00000000
00000100
00000000
,  // measure 31
00000100
00010000
00001000
00001000
,  // measure 32
00000000
00011000
00000000
00011000
,  // measure 33
00100000
00000000
00000000
00100000
00000000
00000000
00000000
00000000
,  // measure 34
00000000
00011000
00000000
00011000
,  // measure 35
00000010
00000000
00000000
00000010
00000000
00000000
00000000
00000000
,  // measure 36
00000000
00011000
00000000
00011000
,  // measure 37
01000000
00000000
00000000
01000000
00000000
00000000
00000000
00000000
,  // measure 38
00000000
00000000
00011000
00000000
,  // measure 39
00000000
00000000
00011000
00000000
,  // measure 40
00000000
00000000
00010000
00000000
,  // measure 41
00000000
00000000
00000100
00000000
,  // measure 42
00000000
00000000
00000010
00000000
,  // measure 43
00000001
00000000
00001000
00000000
,  // measure 44
00000000
00000010
00000000
00000100
,  // measure 45
00000100
00000000
00000100
00000000
00000000
00000000
00000010
00000010
,  // measure 46
00000010
00000000
00001000
00000000
00000100
00000000
00010000
00010000
,  // measure 47
00010000
00001000
01000000
10010000
,  // measure 48
00000000
00000000
10000000
01000000
,  // measure 49
00100000
00010000
00000000
01000000
,  // measure 50
00000000
00000000
01000000
00001000
,  // measure 51
00010000
00000100
00000000
00010000
,  // measure 52
00000000
00000000
00000100
00000100
,  // measure 53
00000010
00000010
00000000
00000001
,  // measure 54
00001000
00000010
00000100
00000100
,  // measure 55
00000100
00000100
00000000
00000001
,  // measure 56
00000100
00001000
00000000
00001000
,  // measure 57
00010000
01000000
00000000
10000000
,  // measure 58
10000000
00000000
00000000
00000000
;
