#TITLE:SO DANCE!;
#SUBTITLE:;
#ARTIST:ダンキラ協会;
#TITLETRANSLIT:;
#SUBTITLETRANSLIT:;
#ARTISTTRANSLIT:Dankira Association;
#GENRE:;
#CREDIT:;
#MUSIC:SO DANCE!.ogg;
#BANNER:SO DANCE!-bn.png;
#BACKGROUND:SO DANCE!-bg.png;
#CDTITLE:cdtitle.png;
#SAMPLESTART:9.430;
#SAMPLELENGTH:15.000;
#SELECTABLE:YES;
#OFFSET:-0.055;
#BPMS:0.000=128.000;
#STOPS:;
#BGCHANGES:0.725=SO DANCE!.avi=1.000=0=0=1=====,,
99999=-nosongbg-=1.000=0=0=0 // don't automatically add -songbackground-
#FGCHANGES:;

//--------------- dance-single - Highflyer ----------------
#NOTES:
     dance-single:
     Highflyer:
     Beginner:
     1:
     0,0,0,0,0:
0000
0000
0000
0000
,
0000
0000
0000
0000
,
0000
0000
0000
0000
,
0000
0000
0000
0000
,
0000
0000
0000
0000
,
1000
0000
0000
0000
,
0001
0000
0000
0000
,
0100
0000
0000
0000
,
0010
0000
0000
0000
,
1001
0000
1000
0000
,
1000
0000
0000
0000
,
0001
0000
0001
0000
,
0001
0000
0000
0000
,
0010
0000
0010
0000
,
0010
0000
0000
0000
,
0100
0000
0100
0000
,
0100
0000
0000
0000
,
1000
0000
0000
0000
,
0001
0000
0000
0000
,
0100
0000
0000
0000
,
0010
0000
0010
0000
,
0010
0000
0000
0000
,
0100
0000
0000
0000
,
0001
0000
0000
0000
,
1000
0000
1000
0000
,
1000
0000
0000
0000
,
0100
0000
0100
0000
,
0100
0000
0000
0000
,
0010
0000
0010
0000
,
0010
0000
0000
0000
,
0001
0000
0001
0000
,
0001
0000
0000
0000
,
1000
0000
1000
0000
,
1000
0000
0000
0000
,
0001
0000
0000
0000
,
0100
0000
0000
0000
,
0100
0000
0000
0000
,
0010
0000
0000
0000
,
1000
0000
0000
0000
,
0001
0000
0000
0000
,
0010
0000
0000
0000
,
1001
0000
0000
0000
,
1000
0000
0000
0000
,
0001
0000
0001
0000
,
0001
0000
0000
0000
,
1000
0000
0000
0000
,
0010
0000
0000
0000
,
0100
0000
0100
0000
,
0100
0000
0000
0000
;

//--------------- dance-single - Highflyer ----------------
#NOTES:
     dance-single:
     Highflyer:
     Easy:
     3:
     0,0,0,0,0:
0000
0000
0000
0000
,
0000
0000
0000
0000
,
0000
0000
0000
0000
,
0000
0000
0000
0000
,
0000
0000
0000
0000
,
1000
0000
1000
0000
,
0001
0000
0001
0000
,
0100
0000
0100
0000
,
0010
0000
0010
0010
,
0010
0000
0100
0001
,
1000
0000
0100
0010
,
0100
0100
0010
0000
,
0001
0000
1000
0010
,
0100
0000
0010
0100
,
0001
0000
1000
0001
,
1000
0000
1000
0000
,
1000
0000
0100
0010
,
0100
0000
0010
0001
,
0100
0000
0010
1000
,
0100
0000
0010
0100
,
1000
1000
0001
0000
,
1000
0000
0010
0100
,
0001
0000
0010
0100
,
1000
0000
0010
0100
,
0010
0010
1000
0000
,
0000
0001
0000
0010
,
0000
0100
0010
0010
,
0001
0000
1000
0000
,
0010
0000
0100
0010
,
1000
0000
0001
0000
,
0010
0100
0010
0001
,
0100
0000
0010
0000
,
0100
0010
1000
0001
,
1000
0000
1000
0000
,
0001
0000
0001
0000
,
0010
0100
1000
0001
,
0100
0010
0000
0100
,
0000
0010
1000
0001
,
0010
0001
1000
0010
,
0100
0100
0010
1000
,
0001
0010
0000
0000
,
1001
0000
1000
0010
,
0100
0000
0010
1000
,
0001
0001
0010
0000
,
0100
0000
0010
0001
,
1000
0000
0010
0100
,
0001
0000
1000
0100
,
0010
0010
0100
0000
,
0010
0000
0001
0000
;

//--------------- dance-single - Highflyer ----------------
#NOTES:
     dance-single:
     Highflyer:
     Medium:
     7:
     0,0,0,0,0:
0000
0000
0000
0000
,
0000
0000
0000
0000
,
0000
0000
0000
0000
,
0000
0000
0000
0000
,
0000
0000
0000
0000
,
1000
0010
0100
0001
,
0010
0100
1000
0001
,
0100
0010
0100
0001
,
1000
0100
1000
0000
0001
0100
0001
0000
,
1001
0000
0000
0000
1000
0000
0000
0000
0100
0000
0000
0010
0000
0000
0001
0000
,
0000
0000
1000
0000
0010
0000
0100
0010
,
1000
0000
0000
0000
1000
0000
0000
0000
0001
0000
0000
0001
0000
0000
0010
0000
,
0000
0000
0100
0000
0010
0001
1000
0000
,
0010
0000
0000
0000
0010
0000
0000
0000
0100
0000
0000
0001
0000
0000
1000
0000
,
0000
0100
0010
0100
,
1000
0000
0000
0000
1000
0000
0000
0000
0001
0000
0000
0100
0000
0000
0010
0000
,
0000
0000
0100
0000
0001
1000
0100
0000
,
0020
0000
0030
0000
0100
1000
0100
1000
,
0002
0000
0003
0000
1000
0010
1000
0010
,
0200
0000
0300
0000
0001
1000
0001
1000
,
0100
0100
0010
0000
,
2002
0000
3003
0000
0001
0100
0001
0100
,
0020
0000
1030
0000
0001
0010
0001
0010
,
0200
0000
0310
0000
0001
1000
0001
1000
,
0010
0100
0010
0000
,
1000
0100
0010
0001
0000
1000
0000
0010
,
0000
0100
0000
0001
0000
1000
0001
1000
,
0000
0100
0010
0100
0000
0010
0000
0001
,
0000
1000
0000
0010
0100
0000
0010
0000
,
0000
0100
0001
1000
0000
0100
0000
0010
,
0000
0100
0000
1000
0000
0001
0100
0010
,
0000
0100
0010
0100
0000
0001
1000
0001
,
0000
0100
0000
0010
1000
0000
0001
0000
,
0010
0000
0100
0010
0001
0000
1000
0000
,
0010
0000
0100
0010
0100
0000
0010
0000
,
1000
0100
0010
0000
0100
0000
0010
0000
,
0001
0000
1000
0010
0000
0100
0001
0010
,
0000
0100
0000
0010
0001
1000
0000
0010
,
0000
0100
0010
0200
0000
0000
0310
0000
,
1000
0001
1000
0000
0100
0010
0100
0000
,
1000
0001
1000
0010
0000
0100
0020
0000
,
1030
0000
0000
0000
0001
0000
0000
0000
0010
0000
0000
0100
0000
0000
0010
0000
,
0000
0000
0001
0000
1000
0000
0010
0100
,
0010
0000
0000
0000
0010
0000
0000
0000
0100
0000
0000
0001
0000
0000
1000
0000
,
0000
0000
0100
0000
0010
0100
1000
0000
,
0001
0000
0000
0000
0000
0000
0000
0000
1000
0000
0000
0010
0000
0000
0100
0000
,
0000
0000
0010
0000
0100
0000
0001
1000
,
0100
0000
0000
0000
0100
0000
0000
0000
0010
0000
0000
0001
0000
0000
1000
0000
,
0010
0000
0100
0001
0000
0000
0000
0000
;

//--------------- dance-single - Highflyer ----------------
#NOTES:
     dance-single:
     Highflyer:
     Hard:
     13:
     0,0,0,0,0:
0000
0000
0000
0000
,
0000
0000
0000
0000
,
0000
0000
0000
0000
,
0000
0000
0000
0000
,
0000
0000
0000
0000
,
1001
2000
0000
3001
0100
0001
0010
2000
,
0000
0000
0000
3010
0000
0000
0001
0000
0000
1000
0000
0010
0100
0000
0001
1000
0000
0000
0100
0000
0000
0010
0000
0000
,
0100
1000
0001
0000
0100
0000
0010
0000
1001
0000
1000
0001
0100
0000
0010
0000
,
0100
0001
1000
0001
0010
0100
1000
0001
0100
0010
1000
0100
0010
0000
0010
0000
,
1002
0000
0100
0000
1003
0000
0100
0000
0010
0000
0001
2000
0010
0000
3001
0000
,
0100
0000
0010
0000
0100
0000
0001
1000
0100
0000
0010
0000
0001
0000
1000
0000
,
1010
0000
0000
0000
1010
0000
1000
0000
0001
0000
0010
0100
1000
0000
0010
0000
,
0100
0000
0001
0000
1000
0000
0100
0000
0010
0001
1000
0000
0010
0000
0010
0000
,
0200
0000
0000
0000
0301
0000
0010
0000
0100
0000
0010
0002
1000
0000
0013
0000
,
0001
0100
0001
1000
0100
0001
0100
0010
,
0011
0000
0000
0000
1010
0000
0001
0000
1000
0000
0010
0100
0000
0100
0001
0000
,
1000
0000
0100
0010
0100
0000
1000
0000
0010
0000
0100
0000
0001
1000
0100
0000
,
2002
0000
0000
0000
3003
0000
0000
0000
1000
0100
0010
0100
1000
0000
0010
0000
,
0210
0010
0301
1000
0001
0100
1000
0100
,
0002
0000
0000
0000
0013
0000
0000
0000
0100
1000
0001
0000
0100
0000
0010
0000
,
1000
0000
0001
0000
0020
0030
1001
0000
,
2000
0000
0000
0000
3001
0000
0000
0000
0100
0010
0100
0001
1000
0000
0100
0000
,
0002
0000
0103
0000
0010
0001
1000
0010
,
0210
0000
0000
0000
0301
0000
0000
0000
1000
0100
1000
0100
0010
0000
0001
0000
,
0100
0000
0000
0000
0010
1000
0001
0000
0020
0000
0100
0000
0031
1000
0001
0000
,
1010
1000
0100
0001
0000
0200
0000
2300
,
0000
3002
0000
2003
0000
3002
0203
2300
,
0000
3100
0001
0010
0000
0200
0000
2300
,
0000
3020
0000
0130
0001
0010
0100
1000
,
0001
0000
1000
0000
0010
0000
0001
0000
0000
0000
0010
0100
0010
0000
2000
0000
,
0000
3200
0000
0320
0000
0032
0023
2030
,
3000
0010
0001
0100
0000
0010
1000
0001
,
0010
0000
0100
0000
1000
0000
0001
0100
0001
0000
0010
0000
0100
1000
0001
0000
,
1001
0000
0000
1000
0000
0000
0010
0000
0000
0100
0000
0000
0001
0000
0000
0010
0000
0001
1000
0000
0000
0001
0000
0000
,
0100
0000
0000
0010
0000
0000
1000
0000
0000
0100
0000
0010
0001
0000
1000
0001
0000
0000
0100
0000
0000
0010
0000
0000
,
0100
0001
1000
0000
0100
0000
0010
0000
0100
0000
1000
0001
0000
0000
1001
0000
,
0000
0000
0000
0000
0000
0000
0002
0000
0000
0000
0000
0000
0203
0000
0000
0000
0000
0000
1300
0000
0000
0000
0100
0000
0010
0000
0000
0000
1000
0000
0200
0000
0000
0000
0000
0000
0302
0000
0000
0000
0000
0000
0103
0000
0000
1000
0000
0000
,
0001
0000
0000
2000
0000
0000
0000
0000
0000
3002
0000
0000
0203
0000
0000
0301
0000
1000
0001
0000
0000
0020
0000
0000
,
0000
0000
0000
0130
0000
0000
1000
0000
0000
0010
0000
0100
0001
0000
1000
0100
0000
0000
0010
0000
0000
0100
0000
0000
,
1000
0002
0100
0000
0013
0000
0100
0000
1000
0000
0001
2000
0010
0000
3100
0000
,
0010
0001
1000
0010
0100
0010
1000
0100
0010
0001
1000
0001
0100
0000
0100
0000
,
1001
0000
1000
0100
0010
0000
0001
0000
1000
0000
0010
0200
0001
0000
0310
0000
,
1000
0000
0001
0000
0010
0000
0100
0010
0001
0000
1000
0000
0010
0000
0100
0000
,
0102
0000
1003
0000
1200
0000
0310
0001
1000
0000
0001
0010
0000
0001
0100
0000
,
0010
0000
0100
0000
0001
0000
1000
0002
0010
0000
1003
0000
0100
0000
0100
0000
,
1001
0000
1000
0002
0100
0000
1003
0000
0001
0000
0010
0200
1000
0000
0310
0000
,
0001
1000
0010
1000
0100
0001
0100
1000
,
1020
0000
0130
0000
0201
0000
0310
0000
1000
0000
0001
0010
0000
0001
0100
0000
,
0010
0000
1000
0100
0010
0001
0010
0100
0000
0000
000M
0000
00M0
0000
0M00
0000
;
