#TITLE:SKA a go go;
#SUBTITLE:~SKA CORE MIX~;
#ARTIST:THE BALD HEAD (arranged by KEN MATSUMOTO);
#TITLETRANSLIT:;
#SUBTITLETRANSLIT:;
#ARTISTTRANSLIT:;
#GENRE:SKACORE;
#CREDIT:;
#BANNER:SKA a go go (SKA CORE MIX).png;
#BACKGROUND:SKA a go go (SKA CORE MIX)-bg.png;
#LYRICSPATH:SKA a go go (SKA CORE MIX).lrc;
#CDTITLE:;
#MUSIC:SKA a go go (SKA CORE MIX).ogg;
#OFFSET:-0.078335;
#SAMPLESTART:59.328384;
#SAMPLELENGTH:11.999998;
#SELECTABLE:YES;
#BPMS:0.000000=170.000000
,56.000000=168.000000
,60.000000=170.000000
,68.000000=169.000000
,72.000000=85.000000
,76.000000=86.000000
,78.000000=85.000000
,92.000000=85.500000
,96.000000=85.000000
,104.000000=170.000000
,136.000000=169.500000
,138.000000=170.000000
,164.000000=170.199997
,168.000000=170.000000
,172.000000=170.300003
;
#STOPS:
;
#BGCHANGES:0.000=SKA a go go (SKA CORE MIX).mp4=1.000=0=0=0=StretchNoLoop====,
99999=-nosongbg-=1.000=0=0=0 // don't automatically add -songbackground-
;
#KEYSOUNDS:;
#ATTACKS:;

//---------------dance-single - ----------------
#NOTES:
     dance-single:
     :
     Hard:
     14:
     0.647498,0.972434,0.299561,0.000000,0.345146,348.000000,325.000000,23.000000,0.000000,0.000000,0.000000,0.647498,0.972434,0.299561,0.000000,0.345146,348.000000,325.000000,23.000000,0.000000,0.000000,0.000000:
// measure 0
0000
0000
0000
0000
,  // measure 1
0000
0000
0000
0000
,  // measure 2
0000
0000
0000
0000
,  // measure 3
0000
0000
0000
0000
,  // measure 4
0001
0100
0001
0100
0001
0100
0010
1000
,  // measure 5
0001
0010
0001
0010
0001
0010
0100
1000
,  // measure 6
0010
0100
0010
0100
0010
0100
0001
1000
,  // measure 7
0100
0010
0100
0010
0100
0010
0001
1000
,  // measure 8
1010
0000
0001
0100
1000
0100
0001
0001
,  // measure 9
1000
0100
1000
0100
0001
0100
0010
0010
,  // measure 10
0001
0000
1000
0010
0001
0010
1000
1000
,  // measure 11
0001
0010
0001
0010
1000
0010
0100
0100
,  // measure 12
1000
0010
1000
0010
1000
0010
1000
0010
,  // measure 13
0100
0010
0001
0010
0100
0010
1000
0001
,  // measure 14
0010
0011
0000
1000
1100
0000
0001
0101
,  // measure 15
0000
0000
0000
0000
,  // measure 16
1000
0010
1000
0000
0000
0000
0001
0010
0001
0000
0000
0000
1000
0001
1000
0000
,  // measure 17
0000
0000
0000
0000
0000
0010
0010
0000
,  // measure 18
1001
0000
0001
0000
0011
0000
0000
0000
0001
0100
1000
0100
0000
0001
0010
0100
,  // measure 19
1000
0000
0010
0000
1010
0000
0000
0000
1000
0100
0010
1000
0010
0001
1000
0000
,  // measure 20
0001
0000
0100
0000
0110
0000
0000
0000
1000
0010
0001
0010
0000
1000
0100
0010
,  // measure 21
0001
0000
0100
0000
0101
0000
0000
0000
0001
0010
0100
0001
0100
1000
0001
0000
,  // measure 22
1000
0000
0100
0000
0100
0000
0000
0000
1000
0000
0000
0010
0000
0000
0100
0000
,  // measure 23
0001
0000
0010
0000
0010
0000
0000
0000
0001
0000
0000
0100
0000
0000
0010
0000
,  // measure 24
1000
0000
0100
0000
0100
0000
1000
0001
1000
0000
0001
0100
0000
0010
1000
0000
,  // measure 25
0001
0000
0010
0100
0010
0000
0001
1000
0001
0000
1000
0010
0100
0001
1000
0000
,  // measure 26
1001
0000
0001
0000
0100
0000
0100
0110
,  // measure 27
0010
0000
1000
0000
0001
0000
1000
1100
,  // measure 28
0100
0000
0010
0000
0001
0000
0100
0101
,  // measure 29
0001
0000
1000
0100
0001
0100
1000
0001
,  // measure 30
0100
0000
0010
1000
0010
0000
0100
0101
,  // measure 31
0001
0000
1000
0100
1000
0000
0001
0011
,  // measure 32
0010
0000
0001
1000
0001
0000
1000
1010
,  // measure 33
0010
0000
0000
0000
1001
0300
0000
0000
1000
0001
1000
0001
1000
0000
0000
0000
,  // measure 34
0001
0100
1000
0100
0001
0100
1000
0100
,  // measure 35
0001
0010
1000
0010
0001
0010
1000
0010
,  // measure 36
0001
0100
0010
0100
1000
0100
0010
0100
,  // measure 37
0001
1000
0001
1000
0001
0000
0000
0000
1000
0000
1100
0000
0000
0000
0000
0000
,  // measure 38
1000
0010
0001
0010
1000
0010
0001
0010
,  // measure 39
1000
0100
0001
0100
1000
0100
0001
0100
,  // measure 40
1000
0010
0100
0010
0001
0010
0100
0010
,  // measure 41
1000
1010
1010
0000
0001
0011
0011
0000
,  // measure 42
1000
0001
1000
0001
1000
0001
1000
0001
1000
0001
1000
0001
1000
0001
1000
0001
,  // measure 43
1000
0001
1000
0001
1000
0001
1000
0001
1000
0001
1000
0001
1000
0001
1003
0001
,  // measure 44
0100
0010
0100
0010
0100
0010
0100
0010
0100
0010
0100
0010
0100
0000
0001
0000
,  // measure 45
1000
1001
0000
0000
;

//---------------dance-single - ----------------
#NOTES:
     dance-single:
     :
     Medium:
     10:
     0.424223,0.500951,0.130244,0.000000,0.000000,228.000000,218.000000,10.000000,0.000000,0.000000,0.000000,0.424223,0.500951,0.130244,0.000000,0.000000,228.000000,218.000000,10.000000,0.000000,0.000000,0.000000:
0000
0000
0000
0000
,
0000
0000
0000
0000
,
0000
0000
0000
0000
,
0000
0000
0000
0000
,
1000
0001
0000
1000
0000
0001
0100
0001
,
0000
1000
0000
0001
0000
1000
0100
1000
,
0000
0001
0000
1000
0000
0001
0010
0001
,
0000
1000
0000
0001
0000
0100
0010
0000
,
1000
0100
0000
0010
0000
0001
0010
0100
,
0000
0010
0000
0001
0000
1000
0010
0100
,
0000
0001
0000
1000
0000
0001
0100
0010
,
0000
1000
0000
0001
0000
1000
0100
0010
,
0001
1000
0010
0100
,
0101
0110
1010
1001
,
1000
0100
0000
0100
0010
0000
0010
0001
,
0000
0000
0000
0000
,
0001
0100
0000
0100
0010
0000
0010
1000
,
0000
0000
0000
0000
,
0001
0001
0010
0000
0001
1000
0010
0100
,
0010
0010
1000
0000
0001
1000
0100
0010
,
0100
0100
1000
0000
0100
1000
0010
0100
,
0010
0010
1000
0000
0001
0010
0100
1000
,
0000
0001
0100
0000
0100
0000
0010
0000
,
0000
1000
0100
0000
0100
0000
0010
0000
,
0000
0001
0100
0000
0100
0000
0010
0000
,
1000
0100
0010
0001
0100
0010
1000
0000
,
0101
0000
0100
0000
0010
0000
1000
0100
,
0010
0000
0001
0000
1000
0000
0001
0100
,
0010
0000
1000
0000
0001
0000
1000
0100
,
0010
0001
0011
0011
,
1000
0000
0001
0000
0100
0000
0010
0100
,
0001
0000
1000
0000
0001
0000
0010
0100
,
1000
0000
0001
0000
0100
0000
0010
1000
,
0100
1000
1100
1100
,
0001
0100
0001
0100
0010
0000
0010
0000
,
1000
0100
1000
0100
0010
0000
0010
0000
,
0001
1000
0001
1000
0010
0000
0010
0000
,
1000
0100
0000
0000
0010
0001
0000
0000
,
1000
0010
1000
0010
0100
0000
0100
0000
,
0001
0010
0001
0010
0100
0000
0100
0000
,
1000
0001
1000
0001
0100
0000
0100
0000
,
0001
0001
0010
0000
0100
0100
1000
0000
,
0001
1000
0001
1000
0001
1000
0001
1000
,
0001
1000
0001
1000
0001
1000
0001
1000
,
0010
0100
0010
0100
0010
0100
0001
1000
,
0001
1001
0000
0000
;

//---------------dance-single - ----------------
#NOTES:
     dance-single:
     :
     Easy:
     7:
     0.310725,0.530419,0.156293,0.000000,0.000000,167.000000,155.000000,12.000000,0.000000,0.000000,0.000000,0.310725,0.530419,0.156293,0.000000,0.000000,167.000000,155.000000,12.000000,0.000000,0.000000,0.000000:
0000
0000
0000
0000
,
0000
0000
0000
0000
,
0000
0000
0000
0000
,
0000
0000
0000
0000
,
0001
0100
0010
1000
,
0001
1000
0100
0000
,
1000
0100
0010
0100
,
1000
0001
0100
0000
,
0001
0001
0100
0010
,
1000
1000
0001
0000
,
1000
1000
0100
0010
,
0001
0001
1000
0000
,
0001
0100
0001
0100
,
0010
0010
0010
0010
,
1000
0000
0000
1000
0000
0000
1000
0000
,
0000
0000
0000
0000
,
0001
0000
0000
0001
0000
0000
0001
0000
,
0000
0000
0000
0000
,
1000
0000
0100
0000
1000
0001
1000
0000
,
0001
0000
0100
0000
0001
1000
0001
0000
,
1000
1000
0010
0000
0010
0000
0100
0000
,
0001
0001
0010
0000
0010
0000
0100
0000
,
0000
1000
0100
0000
1000
0000
1000
0000
,
0000
0001
0100
0000
0001
0000
0001
0000
,
0000
1000
0010
0000
1000
0000
1000
0000
,
0001
0010
0100
0000
1000
0010
0100
0000
,
0001
0001
0100
0100
,
0010
0010
1000
0000
,
1000
1000
0100
0100
,
0010
0010
0001
0000
,
1000
1000
0001
0001
,
0100
0010
0100
0000
,
0001
0001
1000
1000
,
0100
0010
0100
0000
,
1000
0100
0010
0001
,
0100
0010
1000
0001
,
0010
0010
0100
1000
,
0001
0001
0000
0000
1000
1000
0000
0000
,
0001
0100
0010
1000
,
0100
0010
0001
1000
,
0010
0100
0001
1000
,
0100
0100
0000
0000
0010
0010
0000
0000
,
1001
1001
1001
1001
,
0110
0110
0110
0110
,
1001
0000
0110
0000
1001
0000
1000
0001
,
1000
1001
0000
0000
;

//---------------dance-single - ----------------
#NOTES:
     dance-single:
     :
     Beginner:
     4:
     0.174899,0.265209,0.013024,0.000000,0.000000,94.000000,93.000000,1.000000,0.000000,0.000000,0.000000,0.174899,0.265209,0.013024,0.000000,0.000000,94.000000,93.000000,1.000000,0.000000,0.000000,0.000000:
0000
0000
0000
0000
,
0000
0000
0000
0000
,
0000
0000
0000
0000
,
0000
0000
0000
0000
,
1000
0000
0000
1000
,
1000
0000
0000
0010
,
0010
0000
0000
0100
,
0100
0000
0000
0000
,
0001
0000
0000
0001
,
0001
0000
0000
0010
,
0010
0000
0000
0100
,
0100
0000
0000
0000
,
1000
0000
0000
0000
,
0010
0010
0010
0010
,
0010
0000
0000
0010
,
0000
0000
0000
0000
,
0100
0000
0000
0100
,
0000
0000
0000
0000
,
0001
0000
0001
0001
,
0010
0000
0010
0010
,
0100
0000
0100
0100
,
1000
0000
1000
1000
,
0000
0010
0010
0000
,
0000
0100
0100
0000
,
0000
0001
0001
0000
,
1000
0000
1000
0000
,
1001
0000
0000
0000
,
0001
0000
0001
0000
,
0001
0000
0000
0000
,
0010
0010
0010
0000
,
0010
0000
0000
0000
,
0100
0000
0100
0000
,
0100
0000
0000
0000
,
1000
1000
1000
0000
,
0001
0001
0001
0000
,
0100
0100
0100
0000
,
0010
0010
0010
0000
,
1000
0000
1000
0000
,
0100
0100
0100
0000
,
0010
0010
0010
0000
,
0001
0001
0001
0000
,
1000
0000
1000
0000
,
0001
0001
0001
0001
,
0001
0001
0001
0001
,
1000
1000
1000
1000
,
1000
1000
0000
0000
;

//---------------dance-double - ----------------
#NOTES:
     dance-double:
     :
     Hard:
     14:
     0.625171,0.972434,0.299561,0.000000,0.267000,336.000000,313.000000,23.000000,0.000000,0.000000,0.000000,0.625171,0.972434,0.299561,0.000000,0.267000,336.000000,313.000000,23.000000,0.000000,0.000000,0.000000:
00000000
00000000
00000000
00000000
,
00000000
00000000
00000000
00000000
,
00000000
00000000
00000000
00000000
,
00000000
00000000
00000000
00000000
,
00001000
01000000
00100000
01000000
00010000
01000000
00001000
00001000
,
00010000
00000100
00000010
00000100
00001000
00000100
00010000
00010000
,
00001000
00100000
01000000
00100000
00010000
00100000
00001000
00001000
,
00010000
00000010
00000100
00000010
00001000
00000010
00010000
00010000
,
00001000
00000000
00101000
00100000
00010000
01000000
00100000
00100000
,
10000000
00000000
10100000
00100000
01000000
00010000
00100000
00100000
,
00001000
00000000
00011000
00010000
00000010
00000100
00000010
00000010
,
00001000
00000000
00000101
00000001
00001000
00000100
00000010
00000010
,
00000001
00000100
00000001
00000100
00000001
00000100
00000001
00000100
,
00001000
00010000
00100000
10000000
01000000
00010000
00001000
00000000
,
00100000
00101000
00000000
00001000
00011000
00000000
00010000
00010010
,
00000000
00000000
00000000
00000000
,
00010000
00000100
00010000
00000000
00000000
00000000
00001000
00010000
00001000
00000000
00000000
00000000
01000000
00001000
01000000
00000000
,
00000000
00000000
00000000
00000000
00000000
00100000
00100000
00000000
,
10000000
00000000
10000000
00000000
01010000
00000000
00000000
00000000
10000000
01000000
00100000
00000000
00010000
00000000
01000000
00000000
,
00001000
00000000
00001000
00000000
00011000
00000000
00000000
00000000
00010000
00000100
00000010
00000100
00000010
00000100
00000010
00000000
,
00000001
00000000
00000001
00000000
00001010
00000000
00000000
00000000
00000001
00000010
00000100
00000000
00001000
00000000
00000010
00000000
,
00010000
00000000
00010000
00000000
00011000
00000000
00000000
00000000
00001000
01000000
00100000
01000000
00100000
01000000
00100000
10000000
,
00010000
00100000
00100000
00001000
00010000
00001010
00000000
00000000
,
00001000
00000010
00000010
00010000
00001000
00110000
00000000
00000000
,
00010000
00000000
10000000
00000000
00100000
00000000
01000000
00100000
01000000
00000000
00010000
10000000
00000000
00000000
00010000
00100000
,
00001000
00000000
00010000
00000010
00000100
00000000
00000001
00000010
00000100
00000000
00001000
00000001
00001000
00000010
00000100
00000000
,
00001001
00000000
00000001
00000000
00000100
00000000
00000010
00001000
,
00000100
00000000
00010000
00000000
00001000
00000000
00100000
00010000
,
01000000
00000000
00010000
00000000
10000000
00000000
00100000
01000000
,
00010000
00000000
10000000
01000000
00010000
01000000
10000000
00010000
,
01000000
00000000
01010000
00000000
01001000
00000000
01000000
00001000
,
00010000
00000000
00010100
00000000
00001100
00000000
00000100
00001000
,
00000001
00000000
00000101
00000000
00001001
00000000
00000001
00000100
,
00000010
00000000
00001000
00000001
00001000
00000100
00010000
00000000
,
00001000
00010000
00100000
00010000
00001000
00010000
00100000
00010000
,
00001000
00100000
01000000
00100000
00001000
00100000
01000000
00100000
,
00010000
01000000
10000000
01000000
00010000
01000000
10000000
01000000
,
00001000
00001000
00001000
00000000
00011000
00011000
00000000
00000000
,
00010000
00001000
00000100
00001000
00010000
00001000
00000100
00001000
,
00010000
00000100
00000010
00000100
00010000
00000100
00000010
00000100
,
00001000
00000010
00000001
00000010
00001000
00000010
00000001
00000010
,
00010000
00010000
00010000
00000000
00001000
00001000
00001000
00000000
,
00010000
00001000
00010000
00001000
00010000
00001000
00010000
00001000
00010000
00001000
00010000
00001000
00010000
00001000
00010000
00001000
,
00010000
00001000
00010000
00001000
00010000
00001000
00010000
00001000
00010000
00001000
00010000
00001000
00010000
00001000
00010000
00001000
,
00010000
00001000
00010000
00001000
00010000
00001000
00010000
00001000
00010000
00001000
00010000
00001000
00010000
00000000
00001000
00000000
,
00010000
00011000
00000000
00000000
;

//---------------dance-double - ----------------
#NOTES:
     dance-double:
     :
     Medium:
     10:
     0.459575,0.530419,0.494927,0.000000,0.000000,247.000000,209.000000,38.000000,0.000000,0.000000,0.000000,0.459575,0.530419,0.494927,0.000000,0.000000,247.000000,209.000000,38.000000,0.000000,0.000000,0.000000:
00000000
00000000
00000000
00000000
,
00000000
00000000
00000000
00000000
,
00000000
00000000
00000000
00000000
,
00000000
00000000
00000000
00000000
,
00001000
00010000
00001000
00000000
00001000
00100000
00001000
00000000
,
00010000
00001000
00010000
00000000
00010000
00000010
00010000
00000000
,
00001000
00010000
00001000
00000000
00001000
01000000
00001000
00000000
,
00010000
00001000
00010000
00000000
00010000
00000100
00010000
00000000
,
00010100
00000000
00011000
00000000
00100000
00010000
01000000
00000000
,
01001000
00000000
00011000
00000000
00010000
00000010
00001000
00000000
,
00001010
00000000
00001001
00000000
00000001
00000010
00000100
00000000
,
00001100
00000000
00010100
00000000
00000100
00010000
00001000
00000000
,
00011000
00001000
00100000
00010000
,
00110000
01100000
11000000
10010000
,
10000000
00100000
00000000
00100000
01000000
00000000
01000000
00001000
,
00000000
00000000
00000000
00000000
,
00001000
00010000
00000000
00010000
00000100
00000000
00000100
00000010
,
00000000
00000000
00000000
00000000
,
00000001
00000100
00000101
00000000
00001000
00000010
00010000
00001000
,
00100000
00010000
00110000
00000000
10000000
00010000
10000000
00000000
,
10000000
00100000
01010000
00000000
01000000
00001000
00011000
00000100
,
00000010
00000001
00000011
00000000
00000001
00001000
00001001
00000000
,
00001000
00000100
00010000
00000000
00001000
00001000
00000000
00000000
,
00010000
00001000
01000000
00000000
00100000
00100000
00000000
00000000
,
10000000
00100000
01000000
00000000
00010000
00010000
00000000
00000000
,
00100000
00001000
00010000
00000000
00000010
00001000
00000001
00000000
,
00000101
00000000
00000100
00000000
00000010
00000000
00001000
00000100
,
00001000
00000000
00000010
00000000
00010000
00000000
00001000
00010000
,
00001000
00000000
00100000
00000000
00010000
00000000
10000000
00100000
,
10000000
00010000
01000000
00000000
,
10010000
00000000
10000000
00000000
01000000
00000000
00100000
00010000
,
00100000
00000000
00001000
00000000
00010000
00000000
00000010
00001000
,
00000010
00000000
00000100
00000000
00000001
00000000
00001000
00000001
,
00001000
00000100
00010000
00000000
,
00011000
00010100
00011000
00101000
,
00100000
00010000
01000000
00000000
00001000
00000000
00010000
00000000
,
00011000
00010010
00001010
00010010
,
00010000
00001000
00000000
00000000
00001000
00100000
00000000
00000000
,
00101000
00011000
00010100
00011000
,
00001000
01000000
00010000
00000000
01000000
00000000
00001000
00000000
,
01001000
00011000
00001010
00010010
,
00010000
00010000
00010000
00000000
00001000
00001000
00001000
00000000
,
00010000
00001000
00010000
00001000
00010000
00001000
00010000
00001000
,
00010000
00001000
00010000
00001000
00010000
00001000
00010000
00001000
,
00010000
00001000
00010000
00001000
00010000
00001000
00010000
00001000
,
00010000
00011000
00000000
00000000
;

//---------------dance-double - ----------------
#NOTES:
     dance-double:
     :
     Easy:
     7:
     0.303282,0.530419,0.169317,0.000000,0.000000,163.000000,150.000000,13.000000,0.000000,0.000000,0.000000,0.303282,0.530419,0.169317,0.000000,0.000000,163.000000,150.000000,13.000000,0.000000,0.000000,0.000000:
00000000
00000000
00000000
00000000
,
00000000
00000000
00000000
00000000
,
00000000
00000000
00000000
00000000
,
00000000
00000000
00000000
00000000
,
00000000
00010000
00000000
00010000
00000000
00001000
00000000
00100000
,
00000000
00001000
00000000
00001000
00000000
00010000
00000000
00000010
,
00000000
00010000
00000000
00010000
00000000
00001000
00000000
00100000
,
00000000
00001000
00000000
00001000
00000000
00010000
00000000
00000000
,
00001000
00100000
00010000
10000000
,
00100000
01000000
00010000
00100000
,
00001000
00010000
00000010
00000100
,
00000001
00000010
00000100
00010000
,
00011000
00000000
00000000
00000000
,
00001000
00010000
00100000
10000000
,
01000000
00000000
00000000
01000000
00000000
00000000
01000000
00000000
,
00000000
00000000
00000000
00000000
,
00100000
00000000
00000000
00100000
00000000
00000000
00100000
00000000
,
00000000
00000000
00000000
00000000
,
00010000
00000000
10000000
00000000
00010000
01000000
00010000
00000000
,
00100000
00100000
00100000
00000000
00001000
00001000
00001000
00000000
,
00010000
00000000
00000010
00000000
00001000
00000010
00001000
00000000
,
00000001
00000001
00000001
00000000
00000010
00000010
00000010
00000000
,
00000001
00001000
00010000
00000000
,
10000000
00010000
00001000
00000000
,
00000001
00001000
00010000
00000000
,
10000000
00010000
00001000
00000000
,
00011000
00000000
00001000
00010000
,
00001000
00100000
00010000
10000000
,
00100000
00000000
10000000
00010000
,
10000000
01000000
00100000
00001000
,
00010000
00000000
00001000
00010000
,
00001000
00010000
00000010
00000100
,
00000001
00000000
00001000
00000001
,
00001000
00001000
00000100
00000000
,
00010000
00010000
00001000
00100000
,
00010000
00010000
10000000
00100000
,
01000000
01000000
00010000
00100000
,
00001000
00001000
00000000
00000000
00010000
00010000
00000000
00000000
,
00010000
00000010
00000100
00000010
,
00001000
00000100
00000010
00000001
,
00000100
00000010
00001000
00000100
,
00010000
00010000
00000000
00000000
00001000
00001000
00000000
00000000
,
00011000
00011000
00011000
00011000
,
00011000
00011000
00011000
00011000
,
00011000
00000000
00011000
00000000
00011000
00000000
00010000
00001000
,
00010000
00001000
00000000
00000000
;
