#TITLE:SHION(VENUS mix);
#SUBTITLE:;
#ARTIST:VENUS;
#TITLETRANSLIT:;
#SUBTITLETRANSLIT:;
#ARTISTTRANSLIT:;
#GENRE:;
#CREDIT:;
#MUSIC:SHION(VENUS mix).ogg;
#BANNER:SHION(VENUS mix).png;
#BACKGROUND:SHION(VENUS mix)-bg.png;
#CDTITLE:;
#SAMPLESTART:0.531;
#SAMPLELENGTH:15.000;
#SELECTABLE:YES;
#OFFSET:-0.268;
#BPMS:0.000=190.000;
#STOPS:99.000=0.316
,128.000=0.316
,161.500=0.316
,177.000=0.316
,205.500=0.316
,238.000=0.316
,341.000=0.316
,386.000=0.316
;
#BGCHANGES:;
#FGCHANGES:;

//--------------- dance-single - Pop'n Princess Pamela ----------------
#NOTES:
     dance-single:
     Pop'n Princess Pamela:
     Medium:
     12:
     0,0,0,0,0:
0000
0000
0000
0000
,
0000
0000
0000
0000
,
0000
0000
0000
0000
,
0000
0000
0000
0000
,
0000
0000
0000
0000
0000
0000
0000
2002
,
0000
0000
0000
0000
3003
0000
0001
0020
,
0000
0200
0000
0000
0000
0330
0000
0110
,
0000
0000
0000
0000
1000
0000
0000
0000
2002
0000
0000
3003
0000
0000
0001
0000
,
0000
0101
0000
1000
0000
1100
0000
1002
,
0000
0000
0013
0010
0001
0010
0000
0100
,
1000
0001
0100
0001
1000
0010
0000
0000
,
0100
0010
0100
0001
0010
0001
0000
0010
,
0000
0100
1000
0001
0200
0000
0000
0000
,
0320
0000
0000
1030
1000
0001
0000
1001
,
0000
1000
0100
1000
0001
0100
0000
0100
,
0001
0000
0001
0010
0000
0010
1000
0000
,
0010
0000
0000
0001
0000
0000
0200
0000
0000
0000
0010
0000
0310
0000
0000
0000
,
1001
0000
1000
0010
1000
0010
0100
0000
,
0001
0010
0100
0000
0010
0001
1000
0000
,
0010
0000
0100
0001
0100
0001
0010
0000
,
0100
1000
0001
0000
0100
0001
1000
0000
,
0100
0000
0010
0001
0010
0001
1000
0000
,
0010
0100
0001
0000
0010
0100
1000
0000
,
0001
0000
0100
0010
0100
0010
1000
0001
,
0000
0000
0001
0000
1000
0000
0000
0000
0010
0000
0010
0000
0200
0300
0000
0000
,
0000
0000
0001
1000
0000
1100
0000
0000
,
0001
0000
0010
0001
0010
0001
0000
0000
,
1000
0000
0010
0100
0000
0101
0000
0000
,
1000
0000
0001
0010
0100
0020
0000
0000
,
0001
0000
0001
0000
0000
0130
0000
1000
,
0001
0000
0001
1000
0000
0010
0200
0000
,
0000
0302
0000
0013
0100
0000
0110
0000
,
2002
3003
0000
0000
0000
0000
0000
0000
1100
0000
0000
0000
1000
0000
0001
0000
,
0010
0010
0000
0011
0000
1001
0000
1000
,
0010
0100
0001
0000
0010
0001
0000
0200
,
0000
0010
0000
0301
0000
1001
0000
1000
,
0010
1000
0001
0010
0001
0000
0100
0010
,
0000
1000
0000
1001
0000
0001
0010
0000
,
0100
0010
0100
0000
1000
0000
0010
0100
,
0000
0001
0000
0011
0000
0010
0100
0000
,
1000
0000
0001
0000
0100
0000
0020
0030
0000
0000
0000
0000
1001
0000
0000
0000
,
1000
0100
0000
1100
0000
1000
0010
0100
,
0010
0000
0100
0001
0000
2000
0000
0100
,
0000
3010
0000
0010
0100
0000
0001
0010
,
0100
0000
1000
0000
0002
0003
0000
0000
0100
0000
0000
0001
0000
0000
0100
0000
,
0000
1000
0000
0000
0000
0000
0100
0000
0001
0000
0100
0000
0001
0000
0000
0000
,
0010
0010
0001
0010
0000
0110
0000
1001
,
0000
1000
0010
0000
0100
0001
1000
0000
,
0100
0010
0001
0010
0000
0110
0000
1001
,
0000
1000
0010
0000
0100
0000
0001
0000
,
1002
0000
0000
0100
0200
0000
0303
0000
,
0100
0000
0000
0010
0000
0000
0220
0330
0000
0000
1001
0000
0000
0000
1000
0000
,
0100
1000
0001
0100
0001
1000
0010
0000
,
0100
0000
0000
0000
0001
0000
1000
0000
0100
0000
1000
0000
0001
0000
0000
0100
,
0000
0000
0010
0000
0000
1000
0000
0000
0001
0000
0000
0000
0010
0000
0000
0000
,
0100
0000
0010
0001
1000
0010
0100
0000
,
0001
0100
0100
0001
0100
0010
0000
1000
,
0001
0000
0010
0000
0100
0000
0010
0000
0001
0000
0000
0000
1000
0000
0000
0010
,
0000
0200
0000
0302
0000
0023
0000
0130
,
0010
0000
0001
0000
0100
0000
0010
0000
2000
3000
0000
0000
1001
0000
0000
0000
,
0001
0010
0100
0010
0000
0001
1000
0010
,
1000
0001
0010
0001
0100
0010
0100
0010
,
1000
0001
0000
1001
0000
1000
0100
0001
,
0000
0100
1000
0001
0000
0010
0100
0010
,
0001
1000
0001
0200
0000
0000
0320
0000
,
1030
0001
1000
0020
0000
1030
0001
0200
,
0000
0301
1000
0200
0000
1300
0001
0200
,
0000
0000
0301
0000
1000
0000
0100
0000
0010
0000
0000
0100
0010
0000
0000
0100
,
0010
0000
0000
0100
0010
0000
0000
0000
1001
0000
0000
0000
1001
0000
0000
0000
,
0100
0100
0100
0000
2002
0000
0000
0000
,
0000
0000
0000
0000
,
0000
0000
3003
0000
,
0002
0023
0230
2300
,
3002
0000
0103
0020
0000
0000
0000
0000
,
0000
0030
2002
0000
,
3003
0000
1000
0000
0020
0000
0230
0302
,
0000
0023
0000
0230
0000
0000
0000
0000
,
1000
1300
0000
2002
0000
0000
3003
0000
,
0001
0010
0100
0010
0000
0001
1000
0001
,
0000
0100
0010
2000
0000
0000
3200
0000
,
0301
0100
0000
1100
0000
1000
0001
0000
,
0100
0010
0002
0000
0013
1000
0010
1000
,
0010
0100
0000
0110
0000
0010
1000
0001
,
0000
0010
0001
0000
0100
0010
0100
0000
,
0010
1000
0001
0010
0000
0010
0100
0000
,
0110
0000
0000
0000
2002
3003
0000
0000
1000
0000
0100
0000
1000
0000
0001
0000
,
0000
0010
0000
0100
0010
0000
0001
0100
,
1000
0000
0100
0001
0100
0010
0100
0000
,
0101
0000
1001
0000
1100
0000
0100
0010
,
0002
0000
0103
0010
1000
0010
0100
0001
,
0000
0101
0000
0100
0010
1000
0001
0001
,
2000
0000
3100
0010
0100
1000
0000
0010
,
0100
0001
0000
0001
0010
0000
0110
0000
,
0100
1000
0000
0010
0100
0001
0000
0010
,
0100
1000
0000
0100
0010
0001
0000
1000
,
0100
0002
0000
0103
1000
0000
0010
1000
,
0000
0000
0110
0000
0000
0000
0100
0000
0002
0003
0000
0000
0000
0000
1001
0000
,
0000
0000
1000
0100
0100
1000
0000
0010
,
0100
0000
0110
0000
0010
1000
0001
0000
,
0010
0001
0010
0001
1000
0010
0000
0110
,
0000
0100
0001
1000
0200
0000
0000
0000
,
0320
0000
0031
0001
1000
0001
0000
0101
,
0000
0100
0010
1000
0010
0100
0001
0000
,
0010
0001
0001
0100
0010
0010
1000
0000
,
0100
0000
0000
0010
0000
0000
2002
0000
0000
0000
0000
0000
0000
0000
0000
0000
,
3003
0000
0000
0000
;

//--------------- dance-single - Pop'n Princess Pamela ----------------
#NOTES:
     dance-single:
     Pop'n Princess Pamela:
     Hard:
     15:
     0,0,0,0,0:
0000
0000
0000
0000
,
0000
0000
0000
0000
,
0000
0000
0000
0000
,
0000
0000
0000
0000
,
0000
0000
0000
0000
0000
0000
0000
0000
0001
0000
1000
0001
1000
0000
0020
0000
,
0000
0000
0000
0000
0000
0030
0000
2002
,
0000
0000
0000
0000
0000
3003
0000
1200
,
0000
0000
0000
0000
0310
0000
0000
0000
2002
0000
0000
3003
0000
0000
1100
0000
,
0000
0011
0000
0101
0000
1010
0000
1002
,
0000
0000
0000
0000
0013
0000
0001
0010
0001
0000
0100
0000
0000
0000
0110
0000
,
0000
0000
0010
0000
1000
0000
0001
1000
0001
0000
0010
0000
0200
0000
0000
0000
,
1300
0000
0100
0000
1000
0000
0001
0000
0100
0000
0010
0100
0010
0000
2000
0000
,
0000
3100
0010
0100
0002
0000
0000
0000
,
0103
0000
0010
0000
0100
1000
0100
0000
1000
0000
0001
0000
0100
0000
0010
0000
,
0000
0000
0110
0000
0000
0000
0001
0000
1000
0001
2000
0000
0000
0000
3010
0000
,
0100
0001
0001
0100
1000
1000
0100
0001
,
0010
0000
0000
0100
0000
0000
0110
0000
0000
0000
1000
0001
1000
0000
0000
0000
,
1001
0000
0001
1000
0100
1000
0001
0100
,
2000
0000
0000
0000
3200
0000
0000
0000
0301
0000
0000
1000
0000
0000
0010
0000
,
0000
0100
0001
0010
0001
1000
0010
2000
,
0000
0000
3200
0000
0000
0000
0301
0000
0100
0000
0010
0100
0010
0000
0001
0000
,
2000
0000
0100
0100
3000
0001
0010
0100
,
0000
0010
0001
1000
0010
0100
0001
0000
,
1001
0000
1000
0001
0010
0100
1000
0010
,
0000
0000
0001
0000
0010
0000
0000
0000
1000
0000
0001
0000
2002
3003
0000
0000
,
0000
0000
1000
0010
0000
0110
0000
0100
,
0001
0000
0010
0001
0010
0000
0100
0000
0010
0000
0001
0000
0000
0000
1000
0000
,
0010
0100
0001
0010
0000
0110
0000
0100
,
1000
0000
0010
0000
0100
0010
0100
0000
0001
0000
0020
0000
0000
0000
0001
0000
,
0001
0001
0000
0100
0000
1030
0000
0010
,
0001
0000
0100
0000
0010
0000
1000
0000
0100
0000
0010
0100
0020
0000
0000
0000
,
0031
0000
0002
0000
0000
0000
0103
0000
0200
0000
0000
0000
0310
0000
1000
0001
,
0200
0300
0000
0000
0000
0000
0000
0000
1001
0000
0000
0000
1000
0000
0010
1000
,
0001
1000
0010
0000
0000
0000
0110
0000
0000
0000
0100
0000
0001
0000
0010
0001
,
0010
0000
0100
0000
1000
0000
0001
0000
0100
0000
0000
0010
0100
0000
0010
0000
,
1000
0100
0000
1100
0000
1001
0000
0001
,
0010
1000
0010
0001
0011
0000
0010
0100
,
1000
0100
1000
0000
0001
0000
0100
0000
0000
0000
0110
0000
0000
0000
0010
0100
,
0001
0010
0001
1000
0200
0000
0301
0100
,
1000
0000
0100
0000
0000
0000
1100
0000
0000
0000
1000
0010
1000
0000
0010
0000
,
0100
0000
0001
0000
0010
0000
2000
3000
0000
0000
0000
0000
0010
0000
0001
0000
,
0100
0000
0101
0000
0000
0000
0110
0000
0000
0000
0010
1000
0010
0000
1000
0000
,
0001
0010
0100
0100
0000
2100
0000
3010
,
0000
0000
0110
0000
0000
0000
0101
0000
0000
0000
0001
1000
0001
0000
0010
0000
,
0100
0000
1000
0000
0020
0030
0000
0000
0110
0000
0000
0100
0000
0000
1001
0000
,
0000
1000
0000
0000
0010
0000
0100
0010
0100
0000
0001
0000
1000
0000
0001
0000
,
0010
0010
0000
0110
0000
1001
0000
0011
,
0000
0000
0010
0000
0100
0000
1000
0100
1000
0000
0001
0000
0100
0000
0000
0000
,
0110
0000
0010
0000
1000
0000
0002
0000
0000
0000
0013
0001
0010
0000
0100
0000
,
0000
0000
0110
0000
0000
0000
0010
0001
0010
0000
0001
0000
1000
0000
0010
0000
,
2000
0000
0000
0100
0200
0000
3300
0000
,
0110
0000
0000
1001
0000
0000
0202
0303
0000
0000
1001
0000
0000
0000
1000
0000
,
0010
1000
0010
0000
0100
0000
0001
0000
1000
0000
0100
0000
0010
0000
0001
0000
,
0100
0001
0100
0000
0010
1000
0001
0000
0010
0001
0010
0000
0100
0000
1000
0100
,
0000
1000
0001
0000
0100
0000
0001
0100
0001
0000
0020
0000
0000
0000
0130
0000
,
1000
0001
1000
0001
1000
0000
0010
0000
0100
0000
0001
0000
1000
0000
0000
0000
,
0001
0100
0001
0100
0001
0000
1000
0100
1000
0000
0010
0000
1000
0000
0100
0000
,
0001
0000
0100
0000
1000
0001
1000
0000
0010
0000
0100
0000
0001
0000
0010
0001
,
0000
0010
0100
0010
0100
0000
1000
0000
0001
0000
0100
0000
0000
0000
0001
0000
,
0010
0100
0010
0100
0010
0000
0100
1000
0002
0003
0000
0000
1001
0000
0000
0000
,
1000
0010
0100
0002
0000
0013
1000
0010
,
0001
1000
0001
0000
0100
0000
0010
0000
1000
0000
0100
1000
0001
0000
0100
0001
,
1000
0000
0010
0000
0100
0000
0110
0000
0000
0000
1000
0001
1000
0001
0010
0000
,
0100
0010
0100
0000
1000
0000
1002
0000
0000
0000
0103
0000
1000
0000
0100
0000
,
0001
0000
0010
0000
0100
0010
0100
0000
2000
0000
0000
0000
3020
0000
0000
0000
,
0130
0010
0100
0000
0001
0000
0101
0000
0000
0000
0001
0000
1000
0000
1010
0000
,
0000
1000
0001
0011
0000
0001
1000
1010
,
0000
0000
1000
0000
0001
0000
0010
0000
0100
0000
1000
0001
0100
0000
0001
1000
,
0100
0000
1000
0001
0100
0000
0010
0000
0110
0000
0000
0000
1001
0000
0000
0000
,
0010
0100
1001
0000
0202
0000
0000
0000
,
0003
0000
0020
0000
,
0300
0000
2000
3030
,
0002
0023
0230
2300
,
3002
0000
0103
0010
0220
0000
0000
0000
,
0000
0330
2002
0000
,
0000
0000
3003
0000
0110
0000
0002
2003
,
0000
3200
0000
0320
0000
0000
0000
0000
,
0001
0031
0000
2002
0000
0000
3003
0000
,
1000
0000
0100
1000
0001
0000
0020
0000
0000
0000
0031
0000
0100
0000
1000
0000
,
0000
0000
0100
0000
0001
0000
0100
0010
0200
0000
0000
0000
0320
0000
0000
0000
,
1030
0100
1000
1010
0000
0010
0001
0000
,
0010
0000
1000
0010
2000
0000
0000
0000
3001
0000
0010
0000
0100
0000
1000
0000
,
0001
0010
1000
0010
0000
0011
0000
0001
,
0100
0001
0100
0000
0010
0000
1000
0000
0001
0000
0010
0000
0110
0000
0000
0000
,
0100
0000
1000
0000
0010
0000
0110
0000
0000
0000
0100
0001
0100
0000
0010
0000
,
1000
0000
0100
0000
2002
3003
0000
0000
0011
0000
0000
0000
0001
0000
0100
0000
,
0010
0100
0020
0000
0000
0000
1030
0000
0100
0000
0001
0000
0000
0000
0100
1000
,
0100
0000
1000
0000
0001
0000
0100
0000
1000
0000
0100
0000
0001
0000
0010
0001
,
0010
0100
1000
0010
0100
0001
1000
0100
,
1001
0000
0000
0000
0001
0000
0010
0100
0010
0000
0001
0000
0010
0100
0010
0000
,
0001
0000
1000
0000
0001
0000
0100
0010
0100
0000
0001
0000
0100
0010
0100
0000
,
0001
1000
0200
0000
0310
0020
0000
0130
,
1000
0000
0001
0000
0000
0000
0100
0010
0100
0000
0010
0000
1000
0000
0001
0000
,
1001
0000
2000
0000
0000
0000
3010
0000
0001
0000
0000
0000
0010
0100
0010
0000
,
1000
0000
0002
0000
0000
0000
0013
0000
0100
0000
1000
0000
0010
0000
0100
0010
,
0100
0002
0000
0013
1000
0000
0010
0100
,
0000
0000
0110
0000
0000
0000
0010
0000
2002
3003
0000
0000
0000
0000
2001
0000
,
0000
0000
0000
0000
3010
0000
1000
0010
1000
0000
0100
0000
0000
0000
0110
0000
,
0000
0000
0010
0000
0001
0000
1000
0001
1000
0000
0010
0000
0200
0000
0000
0000
,
0301
0000
0100
0000
0001
0000
1000
0000
0100
0000
0010
0100
0010
0000
0002
0000
,
0000
0103
0010
0100
2000
0000
0000
0000
,
3100
0000
0010
0000
0100
0001
0100
0000
0001
0000
1000
0000
0010
0000
0110
0000
,
0000
0000
0010
1000
0010
0000
1000
0001
1000
0000
0002
0000
0000
0000
0013
0000
,
0100
1000
1000
0100
0001
0001
0100
1000
,
0010
0000
0000
0110
0000
0000
2002
0000
0000
0000
0000
0000
0000
0000
0000
0000
,
3003
0000
0000
0000
;
