#VERSION:0.83;
#TITLE:桜;
#SUBTITLE:;
#ARTIST:RevenG;
#TITLETRANSLIT:SAKURA;
#SUBTITLETRANSLIT:;
#ARTISTTRANSLIT:;
#GENRE:;
#ORIGIN:;
#CREDIT:;
#BANNER:SAKURA.png;
#BACKGROUND:SAKURA-bg.png;
#PREVIEWVID:;
#JACKET:SAKURA-jacket.png;
#CDIMAGE:;
#DISCIMAGE:;
#LYRICSPATH:;
#CDTITLE:;
#MUSIC:SAKURA.ogg;
#OFFSET:0.000000;
#SAMPLESTART:20.002001;
#SAMPLELENGTH:14.000000;
#SELECTABLE:YES;
#DISPLAYBPM:88.000000:320.000000;
#BPMS:0.000=300.000,
196.000=150.000,
206.000=134.328,
207.000=128.571,
208.000=116.883,
209.000=90.000,
210.000=60.000,
211.000=20.595,
212.000=150.000,
244.000=80.357,
245.000=160.714,
246.000=319.947,
408.000=300.000,
410.000=272.727,
412.000=246.575,
414.000=219.512,
415.000=180.000,
416.000=137.405,
418.000=88.235;
#STOPS:;
#DELAYS:;
#WARPS:;
#TIMESIGNATURES:0.000=4=4;
#TICKCOUNTS:0.000=4;
#COMBOS:0.000=1;
#SPEEDS:0.000=1.000=0.000=0,
200.000=0.975=0.347=0,
200.354=0.950=0.347=0,
200.688=0.925=0.347=0,
201.042=0.900=0.347=0,
201.396=0.875=0.347=0,
201.729=0.850=0.347=0,
202.083=0.825=0.347=0,
202.438=0.800=0.347=0,
202.771=0.775=0.347=0,
203.125=0.750=0.347=0,
203.458=0.725=0.347=0,
203.812=0.700=0.347=0,
204.167=0.675=0.347=0,
204.500=0.650=0.347=0,
204.854=0.625=0.347=0,
205.208=0.600=0.347=0,
205.542=0.575=0.347=0,
205.896=0.550=0.347=0,
206.250=0.525=0.347=0,
206.583=0.500=0.347=0,
206.938=0.475=0.347=0,
207.292=0.450=0.347=0,
207.625=0.425=0.347=0,
207.979=0.400=0.347=0,
208.333=0.375=0.347=0,
208.667=0.350=0.347=0,
209.021=0.325=0.347=0,
209.375=0.300=0.347=0,
209.708=0.275=0.347=0,
210.062=0.250=0.347=0,
210.417=0.225=0.347=0,
210.750=0.200=0.347=0,
211.104=0.249=0.019=0,
211.125=0.296=0.019=0,
211.146=0.341=0.019=0,
211.167=0.384=0.019=0,
211.188=0.464=0.019=0,
211.208=0.501=0.019=0,
211.229=0.537=0.019=0,
211.250=0.571=0.019=0,
211.271=0.603=0.019=0,
211.292=0.634=0.019=0,
211.312=0.663=0.019=0,
211.333=0.690=0.019=0,
211.354=0.716=0.019=0,
211.375=0.763=0.019=0,
211.396=0.784=0.019=0,
211.417=0.805=0.019=0,
211.438=0.824=0.019=0,
211.458=0.841=0.019=0,
211.479=0.858=0.019=0,
211.500=0.873=0.019=0,
211.521=0.887=0.019=0,
211.542=0.912=0.019=0,
211.562=0.923=0.019=0,
211.583=0.933=0.019=0,
211.604=0.942=0.019=0,
211.625=0.950=0.019=0,
211.646=0.958=0.019=0,
211.667=0.964=0.019=0,
211.688=0.970=0.019=0,
211.708=0.976=0.019=0,
211.729=0.984=0.019=0,
211.750=0.988=0.019=0,
211.771=0.990=0.019=0,
211.792=0.993=0.019=0,
211.812=0.995=0.019=0,
211.833=0.996=0.019=0,
211.854=0.998=0.019=0,
211.875=0.998=0.019=0,
211.896=0.999=0.019=0,
211.917=1.000=0.019=0,
211.938=1.000=0.019=0,
211.958=1.000=0.019=0,
211.979=1.000=0.019=0,
242.000=0.981=0.125=0,
242.125=0.962=0.125=0,
242.250=0.944=0.125=0,
242.375=0.925=0.125=0,
242.500=0.906=0.125=0,
242.625=0.887=0.125=0,
242.750=0.869=0.125=0,
242.875=0.850=0.125=0,
243.000=0.831=0.125=0,
243.125=0.812=0.125=0,
243.250=0.794=0.125=0,
243.375=0.775=0.125=0,
243.500=0.756=0.125=0,
243.625=0.738=0.125=0,
243.750=0.719=0.125=0,
243.875=0.700=0.125=0,
244.000=0.700=0.125=0,
244.125=0.700=0.125=0,
244.250=0.701=0.125=0,
244.375=0.702=0.125=0,
244.500=0.705=0.125=0,
244.625=0.708=0.125=0,
244.750=0.713=0.125=0,
244.875=0.719=0.125=0,
245.000=0.727=0.125=0,
245.125=0.737=0.125=0,
245.250=0.749=0.125=0,
245.375=0.763=0.125=0,
245.500=0.780=0.125=0,
245.625=0.800=0.125=0,
245.750=0.824=0.125=0,
245.875=0.850=0.125=0,
246.000=0.876=0.125=0,
246.125=0.900=0.125=0,
246.250=0.920=0.125=0,
246.375=0.937=0.125=0,
246.500=0.951=0.125=0,
246.625=0.963=0.125=0,
246.750=0.973=0.125=0,
246.875=0.981=0.125=0,
247.000=0.987=0.125=0,
247.125=0.992=0.125=0,
247.250=0.995=0.125=0,
247.375=0.998=0.125=0,
247.500=0.999=0.125=0,
247.625=1.000=0.125=0,
247.750=1.000=0.125=0,
247.875=1.000=0.125=0;
#SCROLLS:0.000=1.000,
196.000=1.750,
206.000=1.954,
207.000=2.042,
208.000=2.246,
209.000=2.917,
210.000=4.375,
211.000=12.746,
212.000=1.750,
244.000=3.500,
245.000=1.750,
246.000=1.000;
#FAKES:;
#LABELS:0.000=Song Start;
#BGCHANGES:0.000=SAKURA.avi=1.000=0=0=0=StretchNoLoop====,
99999=-nosongbg-=1.000=0=0=0 // don't automatically add -songbackground-
;
#FGCHANGES:0.000=lua=0.000=0=0=1=====,
;
#KEYSOUNDS:;
#ATTACKS:
;

//---------------dance-single - TaroNuke----------------
#NOTEDATA:;
#CHARTNAME:TaroNuke;
#STEPSTYPE:dance-single;
#DESCRIPTION:TaroNuke;
#CHARTSTYLE:;
#DIFFICULTY:Hard;
#METER:13;
#RADARVALUES:0.593276,0.945614,0.209140,0.189222,0.099591,417.000000,396.000000,21.000000,19.000000,0.000000,0.000000,0.000000,0.000000,0.000000,0.593276,0.945614,0.209140,0.189222,0.099591,417.000000,396.000000,21.000000,19.000000,0.000000,0.000000,0.000000,0.000000,0.000000;
#CREDIT:TaroNuke;
#DISPLAYBPM:88.000000:320.000000;
#NOTES:
0000
0000
0000
0000
,
0000
0000
0000
0000
,
0000
0000
0000
0000
,
0000
0000
0000
0000
,
0000
0000
0000
0000
,
0000
0000
0000
0000
,
0000
0000
0000
0000
,
0000
0000
0000
0000
,
0000
0000
0000
0000
,
1100
0000
0000
1100
0000
0000
0000
0000
,
1000
0100
0010
0001
,
0101
0000
0000
0101
0000
0000
0000
0000
,
0001
0100
0010
1000
,
1010
0000
0000
1010
0000
0000
0000
0000
,
1000
0100
0010
0001
,
0011
0000
0000
0011
0000
0000
0011
0000
,
0001
1000
0001
1000
0001
0000
0000
0000
,
1000
0100
1000
0100
,
0010
0100
1000
0000
,
0001
0100
0001
0100
,
0010
0100
0001
0000
,
1000
0100
0010
0100
,
0001
0100
0010
0100
,
1000
0001
0100
0010
,
1000
0000
1000
0001
2000
0000
0000
0000
,
3001
0100
0001
0100
,
0010
0100
0101
0000
,
1000
0100
1000
0100
,
0010
0100
1100
0000
,
0001
0100
0010
0100
,
1000
0100
0010
0100
,
0001
1000
0100
0010
,
0001
0000
0100
0010
0100
0000
0001
0000
,
1000
0100
1000
0100
,
0010
0000
0100
0000
0002
0003
0000
0000
,
1000
0010
1000
0010
,
0100
0000
0010
0000
0002
0003
0000
0000
,
1000
0100
0010
0100
,
0001
0100
0010
0100
,
1000
0010
0100
0001
,
1000
0001
0001
0001
,
0001
0100
0001
0100
,
0010
0000
0100
0000
2000
3000
0000
0000
,
0001
0010
0001
0010
,
0100
0000
0010
0000
2000
3000
0000
0000
,
0001
0000
0010
0000
2000
3000
0000
0000
,
0001
0000
0100
0000
2000
3000
0000
0000
,
0001
0100
0010
1000
,
0001
1000
0001
1000
0001
0000
0000
0000
,
1000
0100
0010
0100
1000
0100
0010
0100
,
1000
0010
0100
0010
1000
0010
0100
0010
,
1000
0100
0001
0100
1000
0010
0001
0010
,
1000
0000
0000
0000
0000
0000
0000
0000
0000
0000
0000
0000
0000
0000
0000
0000
0000
0000
0000
0000
0000
0000
0000
0000
0100
0000
0000
0000
0000
0000
0000
0000
0000
0000
0000
0000
0000
0000
0000
0000
0000
0000
0000
0000
0000
0000
0000
0000
0001
0000
0000
0000
0000
0000
0000
0000
0000
0000
0000
0000
0000
0000
0000
0000
0000
0000
0000
0000
0000
0000
0000
0000
0100
0000
0000
0000
0000
0000
0000
0000
0000
0000
0000
0000
0000
0000
0000
0000
0000
0000
0000
0000
0000
0000
0000
0000
2000
0000
0000
0000
0000
0000
0000
0000
0000
0000
0000
0000
0000
0000
0000
0000
0000
0000
0000
0000
0000
0000
0000
0000
0000
0000
0000
0000
0000
0000
0000
0000
0000
0000
0000
0000
0000
0000
0000
0000
0000
0000
0000
0000
0000
0000
0000
0000
0000
0000
0000
0000
0000
0002
0000
0000
0000
0000
0000
0000
3003
0000
0000
0000
0000
0000
0000
0000
0000
0000
0000
0000
0000
0000
0000
0000
0000
0000
0000
0000
0000
0000
0000
0000
0000
0000
0000
0000
0000
0000
0000
0000
0000
0000
0000
0000
,
2001
0000
0000
0000
0000
0000
0000
0000
0001
0000
0000
0000
0000
0000
0000
0000
0001
0000
0000
0000
0000
0001
0000
0000
0000
0000
0000
0000
0000
0001
0000
0000
,
0000
0000
0000
0000
0000
0001
0000
0000
0000
0000
0000
0000
0000
0001
0000
0000
3001
0000
0000
0000
0000
1000
0000
0000
0100
0000
0000
0000
0000
0010
0000
0000
,
0001
0000
0000
0000
0000
0000
0000
0000
1002
0000
0000
0000
0000
0000
0000
0000
1003
0000
0000
0000
0000
1000
0000
0000
0020
0000
0000
0000
0000
1000
0000
0000
,
0030
0000
0000
0000
0000
1000
0000
0000
0002
0000
0000
0000
0000
1000
0000
0000
1003
0000
0000
0000
0000
0001
0000
0000
0100
0000
0000
0000
0000
0010
0000
0000
,
1000
1010
1010
0001
,
0011
0000
0000
0000
0000
0001
0000
0000
1000
0000
0000
0000
0000
1000
0000
0000
0001
0000
0000
0000
0000
1000
0000
0000
0100
0000
0000
0000
0000
0010
0000
0000
,
0001
0000
0000
0000
0000
0000
0000
0000
0101
0000
0000
0000
0000
0000
0000
0000
0101
0000
0000
0000
0000
0001
0000
0000
0100
0000
0000
0000
0000
0001
0000
0000
,
1000
0000
0000
0000
0000
0001
0000
0000
0010
0000
0000
0000
0100
0000
0000
0000
2000
0000
0000
0000
0010
0000
0000
0000
0100
0000
0000
0000
0002
0000
0000
0000
,
0000
3003
0000
0000
,
1000
0100
1000
0100
,
0010
0001
0010
0001
,
1000
0010
1000
0010
,
0100
0000
0001
0000
1000
0100
0000
0010
,
0001
0100
0001
0100
,
0010
1000
0010
1000
,
0001
0010
0001
0010
,
0100
0000
1000
0000
0001
1000
0001
1000
,
0001
0100
0010
1000
,
0001
0010
0100
1000
,
0001
1000
0010
0100
,
0001
0000
1000
0000
0100
0000
1000
0001
,
1000
0010
0100
0001
,
1000
0100
0010
0001
,
1000
0001
0100
0010
,
1000
0000
1001
0000
,
0001
0100
0001
0000
0000
0000
0010
0000
,
0100
0000
1000
0001
,
1000
0010
1000
0000
0000
0000
0100
0000
,
0010
0000
0001
1000
,
0001
0100
0010
0100
,
1000
0100
0010
0100
,
0001
1000
0100
0010
,
0001
1000
1000
1000
,
1000
0100
1000
0000
0000
0000
0010
0000
,
0100
0000
0001
1000
,
0001
0010
0001
0000
0000
0000
0100
0000
,
0010
0000
1000
0001
,
1000
0100
0010
0100
,
0001
0100
0010
0100
,
1000
0001
0100
0010
,
1000
0001
0001
0001
,
1000
0000
0010
0100
0010
0000
1000
0001
,
2000
0010
0100
0010
,
3001
0000
0010
0100
0010
0000
0001
1000
,
0002
0010
0100
0010
,
1003
0100
0010
0100
,
0001
0100
0010
0100
,
1000
0000
0000
1001
0000
0000
0001
0100
,
0001
0000
0000
1001
0000
0000
1000
0100
,
2000
0000
0000
0000
,
0000
0000
0000
0000
,
3001
0100
0010
0100
0001
0010
2000
0000
,
0000
0000
3000
0000
;

//---------------dance-single - Ama-tan----------------
#NOTEDATA:;
#CHARTNAME:Ama-tan;
#STEPSTYPE:dance-single;
#DESCRIPTION:Ama-tan;
#CHARTSTYLE:;
#DIFFICULTY:Challenge;
#METER:15;
#RADARVALUES:0.756889,1.103216,0.398363,0.587585,0.159345,532.000000,492.000000,40.000000,59.000000,0.000000,0.000000,0.000000,0.000000,0.000000,0.756889,1.103216,0.398363,0.587585,0.159345,532.000000,492.000000,40.000000,59.000000,0.000000,0.000000,0.000000,0.000000,0.000000;
#CREDIT:Ama-tan;
#DISPLAYBPM:88.000000:320.000000;
#NOTES:
// measure 0
0000
0000
0000
0000
,  // measure 1
0000
0000
0000
0000
,  // measure 2
0000
0000
0000
0000
,  // measure 3
0000
0000
0000
0000
,  // measure 4
0000
0000
0000
0000
,  // measure 5
0000
0000
0000
0000
,  // measure 6
0000
0000
0000
0000
,  // measure 7
0000
0000
0000
0000
,  // measure 8
0000
0000
0000
0000
,  // measure 9
1001
0000
0000
1100
0000
0000
0000
0000
,  // measure 10
0001
0100
0010
1000
0001
1000
0100
0010
,  // measure 11
0001
0000
0000
0101
0000
0000
0000
0000
,  // measure 12
1000
0100
0010
0001
1000
0001
0100
0010
,  // measure 13
1000
0000
0000
1010
0000
0000
0000
0000
,  // measure 14
0001
0100
0010
1000
0001
1000
0100
0010
,  // measure 15
0001
0000
0000
0011
0000
0000
1000
0000
,  // measure 16
0000
1010
0000
0000
0001
0010
0100
1000
,  // measure 17
0001
0100
0001
0200
,  // measure 18
1000
0010
0301
0000
,  // measure 19
1000
0100
1000
0200
,  // measure 20
0001
0010
1300
0000
,  // measure 21
1100
0100
0110
0010
,  // measure 22
0011
0001
1000
0001
,  // measure 23
0101
0100
0110
0010
,  // measure 24
1010
0000
1000
0001
2000
0000
0000
0000
,  // measure 25
3001
0000
1000
0100
0020
0000
0001
0000
,  // measure 26
0130
0000
1000
0010
0200
0000
0001
0000
,  // measure 27
0310
0000
1000
0100
0020
0000
0001
0000
,  // measure 28
0130
0000
1000
0010
0200
0000
0010
0000
,  // measure 29
0302
0000
0013
0100
0020
0000
0000
0000
,  // measure 30
2030
0000
3010
0100
0020
0000
0000
0000
,  // measure 31
0032
0000
0103
0010
0200
0000
1000
0000
,  // measure 32
0310
0000
1000
0100
0010
0000
0010
0000
,  // measure 33
0010
0000
0001
0100
0020
0000
1000
0000
,  // measure 34
0130
0000
0001
0010
0200
0000
1000
0000
,  // measure 35
0310
0000
0001
0100
0020
0000
1000
0000
,  // measure 36
0130
0000
0001
0010
0200
0000
0010
0000
,  // measure 37
2300
0000
3010
0100
0020
0000
0000
0000
,  // measure 38
0032
0000
0013
0100
0020
0000
0000
0000
,  // measure 39
2030
0000
3100
0010
0200
0000
0001
0000
,  // measure 40
0320
0001
0001
0031
,  // measure 41
1000
0000
0001
0010
0200
0000
0001
0000
,  // measure 42
0310
0000
0001
0100
0020
0000
0001
0000
,  // measure 43
0130
0000
0001
0010
0200
0000
0001
0000
,  // measure 44
0310
0001
0200
0000
,  // measure 45
0301
0000
1000
0100
0020
0000
1000
0000
,  // measure 46
0130
0000
1000
0010
0200
0000
1000
0000
,  // measure 47
0310
0000
1000
0001
1000
0100
0010
0000
,  // measure 48
0001
0100
0010
1000
0001
0100
0010
1000
,  // measure 49
0100
0010
0100
0000
1000
0000
0001
0000
0100
0000
0001
0000
1000
0000
0001
0000
,  // measure 50
0010
0100
0010
0000
0001
0000
1000
0000
0100
0000
1000
0000
0001
0000
1000
0000
,  // measure 51
0010
0100
0010
0000
1000
0000
0001
0000
0010
0000
0100
0000
0010
0000
0001
0000
,  // measure 52
1000
0000
0000
0000
0000
0000
0000
0000
0000
0000
0000
0000
0010
0000
0000
0000
0000
0000
0000
0000
0000
0000
0000
0000
0100
0000
0000
0000
0000
0000
0000
0000
0000
0000
0000
0000
0010
0000
0000
0000
0000
0000
0000
0000
0000
0000
0000
0000
1000
0000
0000
0000
0000
0000
0000
0000
0000
0000
0000
0000
0000
0000
0000
0000
0000
0000
0000
0000
0000
0000
0000
0000
0001
0000
0000
0000
0000
0000
0000
0000
0000
0000
0000
0000
0000
0000
0000
0000
0000
0000
0000
0000
0000
0000
0000
0000
1000
0000
0000
0100
0000
0000
0020
0000
0000
0000
0000
0000
0000
0000
0000
0000
0000
0000
0000
0000
0000
0000
0000
0000
0000
0000
0000
0000
0000
0000
0000
0000
0000
0000
0000
0000
0000
0000
0000
0000
0000
0000
0000
0000
0000
0000
0000
0000
0000
0000
0000
0000
0000
2000
0000
0000
0000
0000
0000
0000
3000
0000
0000
0000
0000
0000
0000
0000
0000
0000
0000
0000
0000
0000
0000
0000
0000
0000
0000
0000
0000
0000
0000
0000
0030
0000
0000
0000
0000
0000
0000
0000
0000
0000
0000
0000
,  // measure 53
1001
0000
0000
0000
0000
0000
0000
0000
0110
0000
0000
0000
0000
0000
0000
0000
1001
0000
0000
0000
0000
0001
0000
0000
1000
0000
0000
0000
0000
1000
0000
0000
,  // measure 54
0001
0000
0000
0000
0000
1000
0000
0000
0001
0000
0000
0000
0000
0001
0000
0000
2000
0000
0000
0000
0000
0100
0000
0000
0100
0000
0000
0000
0000
0100
0000
0000
,  // measure 55
3001
0000
0000
0000
0000
0000
0000
0000
0110
0000
0000
0000
0000
0000
0000
0000
1001
0000
0000
0000
0000
1000
0000
0000
0001
0000
0000
0000
0000
0001
0000
0000
,  // measure 56
1000
0000
0000
0000
0000
0001
0000
0000
1000
0000
0000
0000
0000
1000
0000
0000
0002
0000
0000
0000
0000
0100
0000
0000
0100
0000
0000
0000
0000
0103
0000
0000
,  // measure 57
1000
0000
0001
0000
1000
0000
0000
0000
0010
0000
0000
0000
0000
0100
0000
0000
0002
0000
0000
0000
0000
0000
0000
0000
0010
0000
0000
0000
0000
0000
0000
0000
,  // measure 58
1003
0000
0000
0000
0000
0010
0000
0000
0100
0000
0000
0000
0000
0001
0000
0000
2000
0000
0000
0000
0000
0010
0000
0000
0010
0000
0000
0000
0000
3010
0000
0000
,  // measure 59
0001
0000
1000
0000
0001
0000
0000
0000
0010
0000
0000
0000
0000
0100
0000
0000
2000
0000
0000
0000
0000
0100
0000
0000
0010
0000
0000
0000
0000
0100
0000
0000
,  // measure 60
3001
0000
0000
0000
0000
0010
0000
0000
0100
0000
0000
0000
0000
1000
0000
0000
0002
0000
0000
0000
0010
0000
0000
0000
0100
0000
0000
0000
2000
0000
0000
0000
,  // measure 61
0000
3003
0000
0000
,  // measure 62
1000
1100
0100
0110
,  // measure 63
0010
0011
0001
1001
,  // measure 64
1000
1010
0010
0110
,  // measure 65
0100
0000
0101
0000
0001
1000
0100
1000
,  // measure 66
0001
0101
0100
0110
,  // measure 67
0010
1010
1000
1001
,  // measure 68
0001
0011
0010
0110
,  // measure 69
0100
0000
1100
0000
1000
0010
0100
0001
,  // measure 70
1000
1100
0001
0101
,  // measure 71
1000
1100
0001
1001
,  // measure 72
1000
1010
0001
0011
,  // measure 73
1000
0000
1010
0000
0001
0000
0010
0100
,  // measure 74
0010
0000
0001
0000
1000
0000
0010
0100
,  // measure 75
0010
0000
1000
0000
0001
0000
0010
0100
,  // measure 76
1000
0100
1000
0000
0001
0100
0001
0000
,  // measure 77
1000
0100
0010
0001
1000
0100
0010
0001
,  // measure 78
1000
0001
2000
0000
0000
0000
0100
0000
,  // measure 79
3100
1000
0010
0100
,  // measure 80
0001
0010
0002
0000
0000
0000
1000
0000
,  // measure 81
1003
0000
0000
0000
0020
0030
0000
0000
0020
0030
0000
0000
0001
0000
0000
0000
,  // measure 82
1000
0000
0001
0000
0100
0000
0000
0000
0200
0300
0000
0000
1000
0000
0000
0000
,  // measure 83
0010
0000
0000
0000
0100
0000
0000
0000
0200
0300
0000
0000
1000
0000
0000
0000
,  // measure 84
0001
0000
0000
0000
0100
0000
0000
0000
0200
0300
0000
0000
1000
0000
0000
0000
,  // measure 85
0002
0010
0010
0013
,  // measure 86
0001
1000
0100
0010
0002
0000
0100
0000
,  // measure 87
0103
0001
0010
0100
,  // measure 88
1000
0010
2000
0000
0000
0000
0001
0000
,  // measure 89
3001
0000
0000
0000
0020
0030
0000
0000
0020
0030
0000
0000
1000
0000
0000
0000
,  // measure 90
0001
0000
1000
0000
0100
0000
0000
0000
0200
0300
0000
0000
0001
0000
0000
0000
,  // measure 91
0010
0000
0000
0000
0100
0000
0000
0000
0200
0300
0000
0000
0001
0000
0000
0000
,  // measure 92
1000
0000
0000
0000
0100
0000
0000
0000
0200
0300
0000
0000
0001
0000
0000
0000
,  // measure 93
0010
0100
0100
0100
,  // measure 94
1000
0010
0100
0001
1000
0001
0010
0100
,  // measure 95
2000
0010
0100
0010
,  // measure 96
3001
0010
0100
1000
0001
1000
0010
0100
,  // measure 97
0002
0010
0100
0010
,  // measure 98
1003
0100
0020
0000
0001
0000
0100
0000
,  // measure 99
0031
0100
0020
0000
1000
0000
0100
0000
,  // measure 100
1030
0000
0000
1100
0000
0000
0100
0010
,  // measure 101
0001
0000
0000
0101
0000
0000
0100
0010
,  // measure 102
1000
0100
0010
0001
1000
0010
0100
0010
,  // measure 103
0001
0010
0100
0010
1000
0001
0010
0100
,  // measure 104
1000
0010
0001
0010
1000
0100
0002
0000
,  // measure 105
0000
0000
0003
0000
;
