#TITLE:Rookie;
#SUBTITLE:;
#ARTIST:DECO*27 feat. Hatsune Miku;
#TITLETRANSLIT:;
#SUBTITLETRANSLIT:;
#ARTISTTRANSLIT:;
#GENRE:;
#CREDIT:;
#BANNER:Rookie-bn.png;
#BACKGROUND:Rookie-bg.png;
#LYRICSPATH:;
#CDTITLE:;
#MUSIC:Rookie.ogg;
#OFFSET:-0.499000;
#SAMPLESTART:101.508003;
#SAMPLELENGTH:13.241000;
#SELECTABLE:YES;
#DISPLAYBPM:100.000000:194.000000;
#BPMS:0.000000=145.000000
,99.000000=194.000000
,191.000000=187.000000
,191.500000=191.000000
,192.000000=181.000000
,192.500000=177.000000
,193.000000=174.000000
,193.500000=167.000000
,194.000000=142.000000
,194.500000=106.500000
,197.000000=145.000000
;
#STOPS:
;
#BGCHANGES:-0.500=Rookie.avi=1.000=0=0=1=====,
396.000=Rookie-bg.png=1.000=0=0=1=====,
99999=-nosongbg-=1.000=0=0=0 // don't automatically add -songbackground-
;
#KEYSOUNDS:;
#ATTACKS:;

//---------------dance-single - Highflyer----------------
#NOTES:
     dance-single:
     Highflyer:
     Beginner:
     4:
     0.158608,0.223623,0.000000,0.013966,0.000000,159.000000,159.000000,0.000000,2.000000,0.000000,0.000000,0.158608,0.223623,0.000000,0.013966,0.000000,159.000000,159.000000,0.000000,2.000000,0.000000,0.000000:
0000
0000
0000
0000
,
0001
0001
0000
1000
,
1000
0000
0000
0010
,
0000
0100
0000
0010
,
0000
1000
0000
0000
,
0100
0100
0000
0010
,
0010
0000
0000
0001
,
0000
1000
0000
0010
,
0000
0100
0000
0010
,
0000
0100
0000
0001
,
0000
0000
0000
1000
,
0000
0100
0000
0010
,
0000
0000
0000
0100
,
0000
1000
0000
0001
,
0000
0000
0000
0100
,
0000
0010
0000
1000
,
0000
0000
0000
0001
,
0000
0001
0000
0010
,
0000
0010
0000
0100
,
0100
0100
0100
0100
,
0000
0010
0000
0001
,
0000
1000
1000
0000
,
0000
0001
0001
0000
,
0000
0100
0000
0010
,
0000
0000
0000
0010
,
0000
0000
0000
0000
,
0000
0100
0000
0010
,
0000
0000
0000
0100
,
0000
0100
0000
0001
,
0000
0000
0000
1000
,
0000
0000
0000
0100
,
0000
0000
0000
0010
,
0000
0000
0000
0001
,
0001
0000
0000
1000
,
1000
0000
0000
0010
,
0010
0000
0000
0100
,
0000
0000
0000
0010
,
0010
0000
0000
0100
,
0100
0000
0000
0001
,
0001
0000
0000
1000
,
0000
0000
0000
0000
,
0000
0100
0000
0000
,
0000
0010
0000
0000
,
0000
0001
0000
1000
,
0000
0001
0000
0001
,
0001
0000
0000
1000
,
1000
0000
0000
0010
,
0010
0000
0000
0200
,
0000
0000
0000
0300
,
0000
0000
0000
0001
,
0000
0001
0000
1000
,
0000
0100
0000
0100
,
0000
0100
0000
0000
,
0020
0030
0000
0100
,
0000
0100
0000
1000
,
0000
0001
0000
0001
,
0000
0001
0000
0000
,
0100
0000
0000
0000
,
0010
0000
0010
0000
,
1000
0000
1000
0000
,
0100
0000
0010
0000
,
0100
0000
0010
0000
,
0001
0000
0001
0000
,
1000
0000
1000
0000
,
0010
0000
0100
0000
,
0010
0000
0000
0000
,
0100
0000
0000
0000
,
0010
0000
1000
0000
,
0100
0000
0010
0000
,
0001
0000
1000
0000
,
0001
0000
0100
0000
,
0010
0000
0100
0000
,
0010
0000
1000
0000
,
0001
0000
0010
0000
,
0100
0000
0100
0000
,
0100
0000
0010
0000
,
0100
0000
1000
0000
,
0001
0000
1000
0000
,
0010
0000
0010
0000
,
0100
0000
0010
0000
,
0100
0000
0100
0000
,
0001
0000
1000
0000
,
0100
0000
0010
0000
,
0100
0000
0100
0000
,
0010
0000
0001
0000
,
1000
0000
1000
0000
,
0010
0000
0100
0000
,
0010
0000
1000
0000
,
0001
0000
0010
0000
,
0100
0000
0010
0000
,
0001
0000
0000
0000
,
1000
0000
0001
0000
;

//---------------dance-single - Highflyer----------------
#NOTES:
     dance-single:
     Highflyer:
     Easy:
     7:
     0.308239,0.478537,0.048879,0.062845,0.000000,309.000000,302.000000,7.000000,9.000000,0.000000,0.000000,0.308239,0.478537,0.048879,0.062845,0.000000,309.000000,302.000000,7.000000,9.000000,0.000000,0.000000:
0000
0000
0000
1001
,
0002
0103
0010
2000
,
3100
0010
0000
0100
,
1000
0000
0001
1000
0001
0000
0100
0000
,
0010
1000
0200
0300
,
0020
0031
0100
0020
,
1030
0001
0010
0000
,
0100
0000
0010
0001
0010
0000
0100
0000
,
1000
0010
0010
0000
,
0100
0010
1000
0001
,
0000
0001
0000
0000
1000
0000
0000
0000
,
0100
0010
0100
1000
,
0000
1000
0000
0000
0010
0000
0000
0000
,
0100
0001
0010
0100
,
0000
0100
0000
0000
0010
0000
0000
0000
,
0100
1000
0001
0100
,
0000
0100
0000
0000
0000
0000
0010
0000
,
0010
2000
3100
0010
,
0001
0200
0310
1010
,
1010
0011
0011
1100
,
1000
0000
0001
1000
0002
0000
0103
0000
,
0010
1000
1000
0001
,
0010
0100
0100
0010
,
0000
0001
1000
0010
,
0000
0010
0100
0000
0000
0000
0001
0000
,
0000
1000
0000
0100
0000
0010
0000
0001
,
0000
1000
0000
0010
,
0000
0100
0000
0010
0000
1000
0000
0000
,
0100
0010
0001
1000
,
0000
0010
0000
0100
0000
0010
0000
1000
,
0000
0100
0000
0010
,
0000
0100
0000
0010
0000
0001
0000
0000
,
1000
0010
0100
0001
,
0001
0010
0100
1000
,
1000
0001
0100
0010
,
0010
0100
0001
1000
,
0100
0010
0100
1000
,
1000
0001
0100
0010
,
0010
0100
0001
1000
,
1000
0100
0010
0001
,
1000
0010
0100
0000
,
0010
1000
0100
0000
,
0010
0001
0100
0000
,
0010
1000
1000
0001
,
0010
0000
0100
0010
,
0001
0000
1000
0010
,
0100
0000
0001
1000
,
0100
0000
0010
0001
,
0000
0000
1000
0000
0000
0010
0000
0000
,
0000
0000
0010
0010
,
0000
0100
0001
1000
,
0100
0010
0000
0010
,
0100
0010
0001
1000
,
0020
0000
0130
0100
,
0000
0001
1000
0100
,
0010
0100
0000
0100
,
1000
0001
0100
0010
,
1000
1000
0000
0000
,
0001
0010
0100
0100
,
0010
0001
1000
1000
,
0000
0010
0100
0010
,
1000
0100
0010
0100
,
0010
0001
1000
1000
,
0001
0100
0010
0010
,
0100
0000
0010
0000
,
1000
0000
0000
0001
0000
0000
0000
0000
,
1000
0000
0000
0001
0000
0000
0000
0000
,
0010
0100
0100
0010
,
0001
0001
1000
0010
,
0100
0000
0010
0000
,
1000
0100
0010
0001
,
1000
0010
0010
0000
,
0100
0100
0001
0000
,
1000
0000
0100
0000
,
1000
0001
0100
0010
,
1001
1000
1000
0100
,
0010
0010
0001
0000
,
1000
0000
0010
0100
,
0010
1000
0001
0010
,
0100
0010
0010
0000
,
0100
0100
1000
0000
,
0001
0000
0100
0000
,
0010
1000
0100
0010
,
0100
0100
1000
1000
,
0001
0100
0010
0100
,
0001
0001
0010
0010
,
0100
1000
0001
0100
,
0010
0000
0100
0000
,
0010
0010
1000
0000
,
0001
0000
0010
0000
,
0100
0000
0000
0100
0000
0000
0000
0000
,
0010
0000
0000
0010
0000
0000
0000
0000
;

//---------------dance-single - Highflyer----------------
#NOTES:
     dance-single:
     Highflyer:
     Medium:
     11:
     0.473830,0.511836,0.111724,0.321207,0.055862,475.000000,459.000000,16.000000,46.000000,1.000000,0.000000,0.473830,0.511836,0.111724,0.321207,0.055862,475.000000,459.000000,16.000000,46.000000,1.000000,0.000000:
0000
0000
0000
1000
,
0001
0100
0001
0000
0100
0000
0010
1000
,
0010
1000
0100
0010
,
0001
1000
0010
0100
0010
0000
0100
0000
,
0001
0000
1000
0100
1000
0100
0010
0000
,
0001
1000
0010
0000
0100
0000
0010
1000
,
0001
0010
0100
0010
,
0001
0000
1000
0010
0100
0000
0010
0000
,
1000
0000
0000
0000
0100
0000
0010
0000
0100
0000
0000
0000
1000
0000
0000
0001
,
0000
0000
0100
0000
0010
0000
1000
0000
0100
0000
0000
0000
0010
0000
0000
0010
,
0000
0010
0000
0000
0100
0100
0000
1000
,
0001
0000
0000
0000
0100
0000
0010
0000
0100
0000
0000
0000
0010
0000
0000
0010
,
0000
0000
0010
0000
0000
0000
2000
0000
0002
0000
3003
0000
0000
0000
0000
1000
,
0000
0000
0001
0000
0010
0000
0000
0000
0100
0000
0000
0000
0010
0000
0000
0010
,
0000
0010
0000
0000
0100
0100
0000
1000
,
0001
0000
0000
0000
0100
0000
0010
0000
1000
0000
0000
0000
0001
0000
0000
0001
,
0000
0001
0000
0000
1000
0000
0100
0000
,
0100
0010
0002
0000
0103
0000
0010
0000
,
1000
0001
0020
0000
0130
0000
1100
0000
,
0011
0000
0000
0000
1010
0000
0000
0000
1010
0000
0000
0000
0001
0000
0000
0010
,
0000
0100
1000
0001
0001
0000
0100
0010
,
0100
0000
0001
1000
0001
1000
0100
0000
,
0010
0000
0100
0010
0100
0010
0001
0000
,
1000
0000
0000
0000
0010
0000
0000
0000
0100
0000
0000
0000
0001
0000
0000
1000
,
0000
0001
0010
0000
0000
0000
0001
0000
,
1000
0010
0000
0001
0000
0010
0000
1000
,
0002
0023
0230
1300
,
0001
0010
0000
1000
0000
0010
0001
0000
,
1000
0010
1000
0000
0002
0000
0103
0000
,
0001
0100
0000
1000
0000
0100
0000
0001
,
2000
3200
0320
0031
,
1000
0100
0000
0001
0000
0200
0000
1300
,
0001
1000
0002
0000
0103
0000
0010
0000
,
0010
0000
0100
0000
0001
1000
0100
0000
,
0100
0000
0010
0000
0100
1000
0001
0000
,
0001
0100
0010
1000
,
0001
0010
0000
0100
0000
0000
1000
0000
,
1000
0000
0001
0100
0010
0000
0100
0000
,
0100
0000
0001
0010
0100
0000
0010
0000
,
0010
0000
0001
1000
0001
0000
0100
0000
,
0010
0100
0000
0001
0000
0010
0100
0000
,
2000
3200
0302
0103
,
2000
3020
0032
0013
,
0100
0000
0001
1000
0001
0000
0010
0001
,
0100
0000
0010
1000
0100
0000
0010
0000
,
0010
0000
0100
1000
0001
0000
1000
0000
,
1000
0000
0010
0100
0001
0000
0010
0000
,
0010
0000
0100
1000
0100
0000
1000
0000
,
0001
0200
0000
0320
0000
2030
0000
0000
,
0000
3000
M000
0000
1000
0001
0010
0000
,
0100
0000
1100
0000
1000
0010
0100
0000
,
0010
1000
0100
0000
0010
0000
0011
0000
,
1000
0000
1010
0000
2000
3010
0200
0301
,
1000
0100
0001
0100
1000
0000
1001
0000
,
0001
0000
0101
0000
0100
0001
0010
0000
,
0100
1000
0001
0000
1000
0000
1010
0000
,
0010
0000
0011
0000
2000
3001
0200
0310
,
1000
1000
1000
1000
0000
0000
0000
0000
,
0001
0000
0010
0000
0100
1000
0100
1000
,
0010
0000
0100
0000
0001
0100
0001
0100
,
0010
0000
1000
0000
0001
0000
0010
0100
,
0010
0001
0100
0020
,
1030
0000
0001
0000
0010
0100
0010
0100
,
1000
0000
0001
0000
1000
0010
1000
0010
,
0100
0000
0001
1000
0001
0000
0010
0000
,
0100
0000
0000
0010
0000
0000
0100
0000
0000
0000
0000
0000
1001
0000
0000
0000
,
1000
0000
0000
0001
0000
0000
1000
0000
0000
0000
0000
0000
0002
0000
0000
0000
,
0103
0000
0010
0010
2000
0000
3100
0000
,
0010
0010
0200
0000
1300
0000
0001
0100
,
0010
0000
0200
0000
0301
1000
0100
0000
,
0010
0000
0001
0000
1000
0100
0020
0000
,
0031
0000
1000
1000
0020
0000
0130
0000
,
0001
0001
0020
0000
0130
0000
0010
0001
,
1000
0000
0010
0100
0010
0000
0100
0000
,
0001
0000
0000
0001
0000
0000
1000
0000
0100
0000
0000
0000
0020
0000
0030
0000
,
1001
0000
0001
0001
0200
0000
0310
0000
,
0100
0100
0002
0000
0013
0000
0100
1000
,
0100
0000
0010
0001
0010
0000
0100
0000
,
1000
0000
0000
0001
0000
0000
0100
0000
0010
0000
0000
0000
0200
0000
0300
0000
,
1001
0000
1000
1000
0002
0000
1003
0000
,
0010
0010
0200
0000
0301
0000
0010
0000
,
0100
0000
0010
0001
1000
0000
0010
0000
,
0100
0000
0000
0010
0000
0000
0100
0000
0001
0000
0000
0000
1000
0000
0000
0000
,
0001
0010
0001
0001
1000
0010
1000
1000
,
0100
0000
0000
0010
0000
0000
0100
0000
1000
0000
0000
0000
0002
0000
0000
0000
,
0103
0000
1001
0000
1000
0100
1000
0000
,
0001
0100
0010
0000
0110
0000
2000
0000
,
3100
0000
0010
0010
0200
0000
1300
0000
,
0001
0001
0200
0000
0310
0000
0100
0001
,
0100
0000
0010
1000
0001
0000
0010
0000
,
0100
0000
0000
1000
0000
0000
0100
0000
0010
0000
0000
0000
0002
0000
0003
0000
,
0100
0000
0000
0010
0000
0000
0100
0000
0002
0000
0003
0000
0000
0000
0000
0000
;

//---------------dance-single - Highflyer----------------
#NOTES:
     dance-single:
     Highflyer:
     Hard:
     13:
     0.611490,0.606976,0.153621,0.188534,0.230431,613.000000,591.000000,22.000000,27.000000,3.000000,0.000000,0.611490,0.606976,0.153621,0.188534,0.230431,613.000000,591.000000,22.000000,27.000000,3.000000,0.000000:
0000
0000
M00M
1000
,
0001
0000
0001
0000
0001
0000
0000
0100
0000
0000
0010
0000
1000
0000
1000
0000
,
1000
0000
0000
0100
0000
0000
0010
0000
0001
1000
0001
0000
1000
0000
0001
0100
,
0000
0001
0100
0000
0010
0000
0001
0000
0010
0000
1000
0000
0100
0000
0010
0001
,
0000
0010
0000
0000
0001
0000
1000
0000
0100
0000
0001
0000
0100
0000
0000
0000
,
0010
0000
0010
0000
0010
0000
0000
0001
0000
0000
1000
0000
0010
0000
0010
0000
,
0010
0000
0000
0100
0000
0000
0010
0000
1000
0001
1000
0000
0100
0000
1000
0010
,
0000
1000
0010
0000
0100
0000
1000
0000
0100
0000
0001
0000
0010
0000
0100
1000
,
0000
0001
0000
0000
1000
0000
0001
0000
0100
0000
0000
0000
0010
0000
0100
0010
,
0000
0010
0100
0000
0001
0000
0010
0000
1000
0000
0010
0000
0100
0000
0000
0100
,
0000
0100
0000
1000
0001
0001
0000
1000
,
0010
0000
0100
0000
0001
0000
0010
0000
0100
0000
0010
0000
0001
0000
0000
0001
,
0000
0000
0001
0000
0000
0000
0200
0000
2300
0000
3000
0000
0100
0000
0010
1000
,
0000
1000
0010
0000
0100
0000
0001
0000
1000
0000
0100
0000
0010
0000
0000
0010
,
0000
0010
0000
0100
1000
1000
0000
0001
,
0100
0000
0010
0000
0100
0000
0001
0000
1000
0000
0100
0000
1000
0000
0000
1000
,
0000
1000
0000
0001
0100
0000
0010
1000
,
0100
1000
0020
0000
0031
0000
0010
0100
,
0001
0000
1000
0000
0200
0000
0000
0000
0301
0000
0000
0000
0100
0010
0000
0000
,
0001
1000
0000
0000
0010
0100
0000
0000
0010
0100
0000
0000
0001
0000
0000
1000
,
0100
0010
0001
0100
2000
0000
3100
0010
,
1000
0000
0001
0000
0010
0000
0010
0000
0100
0000
0100
0000
0010
0001
0000
1000
,
0001
0100
0001
0001
1000
1000
0010
0000
,
0100
0000
0001
0000
1000
0000
0100
0000
0010
0000
0001
0000
0100
0000
0000
0010
,
0000
0100
0002
0000
0003
0000
1000
0000
,
0200
0010
0000
0001
0000
1000
0000
0301
,
0100
1000
0010
0000
0100
0001
2000
0000
,
3020
0100
0000
0001
0000
1030
0010
0100
,
0001
0010
0001
0100
0001
1000
0010
0000
,
0200
1000
0000
0001
0000
0010
0000
1300
,
0100
0001
0010
0100
1000
0010
0100
0001
,
0010
1000
0010
0001
0010
0200
0000
0310
,
0001
0100
0010
0100
0001
0000
0011
0000
,
1100
0000
1000
0001
0100
0000
0101
0000
,
1010
0000
1000
0001
0010
0000
0110
0000
,
0011
0000
1000
0001
0100
0000
0010
0100
,
0001
0000
1000
0100
0010
0000
0110
0000
,
1001
0000
0001
1000
0100
0000
1100
0000
,
0011
0000
0001
1000
0010
0000
1010
0000
,
0101
0000
0100
0010
1000
0001
0010
0000
,
0100
0010
0000
0100
0010
0001
0100
0000
,
0010
1000
0010
1000
0100
0000
0010
0000
,
0001
1000
0001
1000
0010
0000
0100
0000
,
0010
1000
0010
0100
0010
1000
0001
0010
,
0100
0000
0010
0001
0100
0000
0110
0000
,
1001
0000
1000
0100
0010
0000
0001
0100
,
0010
0000
1000
0001
0010
0000
0011
0000
,
1010
0000
1000
0001
0010
0000
0100
0000
,
1000
0002
0000
0203
0000
0320
0000
0000
,
0000
0000
0000
0030
00M0
0000
0000
0000
1001
0000
1000
0000
0100
0000
0000
0000
,
0010
0000
0001
0100
1000
0100
0010
0000
,
1000
0001
1000
0000
0100
0000
0010
0000
0100
0000
1000
0000
0010
0000
0000
0000
,
0100
0000
0000
0001
1000
0000
0100
0000
0020
0000
0031
0000
2000
0000
3010
0000
,
1000
0100
0001
0100
0010
0010
0001
0100
,
0010
0000
1000
0010
0100
1000
0200
0000
,
0301
0010
0001
0000
1000
0000
0010
0000
0100
0000
0001
0000
1000
0000
0000
0000
,
0100
0000
0010
0100
0020
0031
2000
3001
,
0100
0100
0100
0100
0000
0000
0000
0000
,
0010
1000
0001
0010
0100
0100
0010
0010
,
0001
1000
0000
0001
1000
0000
0010
0000
0100
0000
0100
0000
0001
0000
0001
0000
,
0000
1000
0100
0010
1001
0000
1000
0010
,
0100
0001
1000
0100
0001
0000
0200
0000
,
0310
0001
1000
0010
0100
0100
0001
0001
,
1000
0100
0000
1000
0100
0000
0010
0000
0001
0000
0001
0000
0100
0000
0100
0000
,
0010
0000
0100
0001
1000
0100
0010
0001
,
1000
0000
0000
0001
0000
0000
1000
0000
0000
0000
0010
0000
0100
0000
0000
0000
,
0010
0000
0000
0100
0000
0000
0010
0000
0000
0000
0000
0000
2000
0000
0000
0000
,
3100
0000
0000
0000
0010
0000
0010
0000
0010
0000
0000
0001
0000
0000
1000
0000
,
0010
0000
0010
0000
0010
0000
0000
0100
0000
0000
0001
0000
0010
0000
0100
0000
,
0010
0000
0001
0100
0010
1000
0001
0010
,
0100
0000
0000
1000
0000
0000
0001
0000
0100
0000
0100
0000
2000
0000
0000
0000
,
3100
0000
0000
0000
0010
0000
0010
0000
0010
0000
0000
1000
0000
0000
0100
0000
,
1000
0000
1000
0000
1000
0000
0000
0010
0000
0000
0100
0000
0001
0000
1000
0000
,
0100
0000
1000
0100
0001
0100
0010
0001
,
1000
0000
0000
0010
0000
0000
0100
0000
0001
0000
0000
0000
0020
0000
0030
0000
,
1001
0000
0000
0000
1000
0000
1000
0000
1000
0000
0000
0010
0000
0000
0100
0000
,
0001
0000
0001
0000
0001
0000
0000
0010
0000
0000
0100
0000
0010
0000
0001
0000
,
1000
0000
0010
0100
0001
0010
0100
1000
,
0001
0000
0000
0100
0000
0010
1000
0000
0001
0000
0010
0000
2000
0000
0000
0000
,
3010
0000
0000
0000
0001
0000
0001
0000
0001
0000
0000
1000
0000
0000
0010
0000
,
0100
0000
0100
0000
0100
0000
0000
0001
0000
0000
1000
0000
0100
0000
1000
0000
,
0010
0000
0100
0001
1000
0001
0010
0100
,
0010
0000
0000
0001
0000
1000
0010
0000
0100
0000
0000
0000
0001
0000
0000
0000
,
1000
0010
0001
0010
0100
0010
1000
0001
,
1000
0100
0000
0001
0000
0100
1000
0000
0010
0000
0000
0000
0200
0000
0000
0000
,
0301
0000
0000
0100
0010
0000
0000
1000
0100
0000
0000
0010
0000
0001
0000
0000
,
1000
0000
0001
0100
0000
0001
0100
0000
1000
0000
0000
0000
0200
0000
0000
0000
,
0301
0000
0000
0000
1000
0000
1000
0000
1000
0000
0000
0100
0000
0000
0010
0000
,
0100
0000
0100
0000
0100
0000
0000
1000
0000
0000
0001
0000
0100
0000
0010
0000
,
0100
0000
0010
1000
0001
0010
0100
1000
,
0010
0000
0000
0100
0000
0000
0001
0000
1000
0000
0000
0000
0200
0000
0300
0000
,
0110
0000
0000
0011
0000
0000
1001
0000
0010
0000
0000
0000
0000
0000
0000
0000
;

//---------------dance-single - BU XO DS-----------------
#NOTES:
     dance-single:
     new charter, who dis?:
     Challenge:
     17:
     0.816982,1.119641,0.223448,0.279310,0.642413,819.000000,787.000000,32.000000,40.000000,4.000000,0.000000,0.816982,1.119641,0.223448,0.279310,0.642413,819.000000,787.000000,32.000000,40.000000,4.000000,0.000000:
// measure 0
0000
0000
0000
0000
0000
0000
0000
0000
M00M
0000
0000
0000
1001
0000
0000
1000
,  // measure 1
0100
0000
0100
0000
0100
0000
0010
0001
1000
0000
0010
0000
0100
0000
0100
0000
,  // measure 2
0100
0000
0010
1000
0000
0000
0001
0000
1000
0100
1000
0001
0100
0000
0010
1000
,  // measure 3
0000
0010
0100
0002
1000
0000
0103
0000
0001
0010
0100
0000
0010
0000
0100
1000
,  // measure 4
0000
0001
0000
0000
0100
0000
0010
1000
0100
1000
0010
1000
0100
0000
0010
0001
,  // measure 5
1000
0000
1000
0000
1000
0000
0010
0100
0001
0000
0010
0000
0001
0000
0001
0000
,  // measure 6
0001
0100
0000
0010
0000
0000
0100
0001
0010
0001
0100
0000
0010
0000
0100
0001
,  // measure 7
0000
0100
0010
2000
0001
0000
3100
0000
0010
0001
1000
0000
0100
0000
0010
0100
,  // measure 8
0000
1000
0001
0100
0010
0000
1000
0000
1000
0001
1000
0001
0010
0000
0100
1000
,  // measure 9
0000
1000
0100
0000
0010
0000
0001
0000
0100
0000
0010
0000
1000
0000
0000
1000
,  // measure 10
0000
1000
0000
0100
0010
0010
0000
0001
,  // measure 11
0100
0000
0010
0000
0001
0000
1000
0000
0100
0000
0001
0000
0010
0000
0000
0010
,  // measure 12
0000
0000
0010
0000
0000
0000
2000
0000
0002
0000
3000
0000
0103
0000
1000
0001
,  // measure 13
0000
0001
0100
0000
0010
0000
1000
0000
0010
0000
0100
0000
0001
0000
0000
0001
,  // measure 14
0000
0001
0000
0010
0100
0100
0000
1000
,  // measure 15
0100
0000
0010
0000
1000
0000
0001
0000
0100
0000
1000
0000
0010
0000
0000
0100
,  // measure 16
0000
0000
0020
0000
0030
0000
2000
0000
0002
0000
3003
0000
1000
0000
0001
0010
,  // measure 17
0100
0000
1000
0010
0200
0000
0000
0000
1300
0000
0000
0000
0100
0000
0001
1000
,  // measure 18
0100
0010
0001
0010
0200
0000
0000
0000
0301
0000
0000
0000
0100
1000
0000
0000
,  // measure 19
0010
1000
0000
0000
0001
0100
0000
0000
0001
0100
0000
0000
0010
1000
0000
0001
,  // measure 20
0010
0000
0100
1000
0001
0000
0100
0000
0200
0000
0000
0000
0310
0000
1000
0001
,  // measure 21
0010
0000
0200
0000
1000
0000
0320
0000
0100
0000
0031
0000
1000
0010
0000
1000
,  // measure 22
0100
0000
0010
0002
0100
0000
2003
0000
0100
0000
3001
0000
0110
0000
0000
0000
,  // measure 23
1000
0000
0001
0000
0010
0000
0010
0000
0100
0000
1000
0000
1100
0000
0000
0101
,  // measure 24
0000
1100
0002
0003
0000
0000
2000
0000
,  // measure 25
3001
1000
0100
0001
0100
1000
0100
0001
,  // measure 26
0100
0010
0001
0001
1000
0001
2000
0000
,  // measure 27
3010
0000
0001
0000
0010
0000
1000
0000
0010
0000
0100
0001
0100
0000
0010
0000
,  // measure 28
1000
0000
0100
0000
1000
0000
0010
0000
1000
0100
1000
0100
2000
0000
3000
0000
,  // measure 29
1000
0001
0100
1000
0100
0001
0100
1000
,  // measure 30
0100
0001
0010
0001
0100
0010
1000
0100
,  // measure 31
0010
0000
0001
0000
0100
0010
0100
0010
1000
0001
0020
0000
0000
0000
0130
1000
,  // measure 32
0100
1000
0001
0100
0010
0100
0001
1000
0100
0000
0000
0000
0110
0000
0000
0000
,  // measure 33
1001
0000
1000
0001
1000
0100
0001
0100
,  // measure 34
1000
0000
0001
1000
0001
0100
1000
0100
,  // measure 35
0001
0000
0010
0100
1000
0000
0001
0100
,  // measure 36
0001
0000
0000
0000
1000
0000
0100
0000
1000
0000
0001
0100
0010
0000
0000
0000
,  // measure 37
1000
0000
0001
1000
0001
0010
1000
0010
,  // measure 38
0001
0000
1000
0001
1000
0010
0001
0010
,  // measure 39
1000
0000
0001
0010
0001
1000
0010
0100
,  // measure 40
0001
0000
0010
0000
0100
0000
1000
0000
0001
1000
0001
1000
0001
0000
0000
0000
,  // measure 41
0100
0000
1000
0100
0001
0000
1000
0100
,  // measure 42
0010
0000
1000
0010
0001
0000
1000
0010
,  // measure 43
0100
0000
0001
0000
0010
0000
0010
0000
0100
0000
1000
0001
0100
0000
0010
0000
,  // measure 44
1001
0000
0000
0000
0001
0100
0001
0100
0010
0000
0000
0000
0001
0000
0010
0000
,  // measure 45
1000
0000
0001
0010
0001
0100
1000
0100
,  // measure 46
0001
0000
0010
0001
1000
0100
0001
0100
,  // measure 47
1000
0000
0001
0100
0010
1000
0100
0010
,  // measure 48
0100
1000
0001
1000
0010
0200
0000
0000
,  // measure 49
0000
0300
0MM0
0000
0001
1000
1010
0000
,  // measure 50
1000
0000
0001
0100
1000
0100
0010
0000
,  // measure 51
1000
0001
0010
0000
0100
0000
1000
0000
0001
0000
0010
0000
0100
0000
0000
0000
,  // measure 52
1000
0000
0000
0000
0000
0000
0000
0000
0000
0001
0000
0000
0001
0000
0000
0000
0000
0000
1000
0000
0000
0000
0000
0000
0100
0000
0010
0000
0001
0000
1000
0000
0000
0000
0000
0000
0010
0000
0100
0000
0001
0000
1000
0000
0000
0000
0000
0000
,  // measure 53
0001
0000
0000
1000
0000
0000
0010
0000
0000
0100
0000
0000
1000
0000
0000
0100
0000
0000
0001
0000
0000
0000
0000
0000
1000
0000
0001
0000
1000
0000
0010
0000
0100
0000
0001
0000
1000
0000
0001
0000
0010
0000
0100
0000
1000
0000
0001
0000
,  // measure 54
0100
0000
0000
0000
0000
0000
0010
0000
0000
0000
0000
0000
1000
0000
0100
0000
1000
0000
0100
0000
0000
0010
0000
0000
0001
0000
0000
0000
0000
0000
0100
0000
0000
0000
0000
0000
0010
0000
0000
0000
0000
0000
0000
0000
0000
0000
0000
0000
,  // measure 55
0100
0001
1000
0000
0100
0000
0100
0000
0010
0000
0001
0000
0100
0000
0000
0000
,  // measure 56
0010
0000
0000
0000
0000
0000
0100
0000
0000
0001
0000
0000
1000
0100
1000
0001
0000
0000
1000
0010
1000
0001
0000
0000
,  // measure 57
1001
1010
0110
0101
0000
0000
0000
0000
,  // measure 58
1000
0000
0001
0010
0100
0000
1000
0020
0100
0000
2030
0000
0100
0000
3001
0000
,  // measure 59
1000
0100
0000
1000
0001
0000
1000
0200
0010
0000
2300
0000
0010
0000
3001
0000
,  // measure 60
0000
1000
0010
0100
0001
0000
0010
0100
,  // measure 61
0010
0000
0001
0000
0100
0000
1000
0000
0100
0000
0000
0001
2000
0000
0000
0000
,  // measure 62
3100
0000
0010
0001
1000
0000
0010
0200
0010
0000
0302
0000
0010
0000
1003
0000
,  // measure 63
0010
0100
0000
0010
0100
0000
0001
0010
0200
0300
2000
3000
0020
0030
0200
0300
,  // measure 64
1001
0000
1000
0001
0010
0001
0001
1000
,  // measure 65
1010
0000
0000
0011
0000
0000
1010
0000
0000
0000
1000
0000
0100
0000
0000
0000
,  // measure 66
0010
0000
0000
0001
0000
0000
0100
0000
0000
0000
0000
0000
0020
0000
0000
0030
,  // measure 67
1001
0000
0001
0100
0010
0000
0010
0000
0010
0000
1000
0001
0100
0001
0010
0100
,  // measure 68
1000
0000
1000
0000
1000
0001
0100
0010
1000
0001
0010
0000
0100
0000
1000
0000
,  // measure 69
0010
0000
0010
0100
0001
1000
0100
0010
,  // measure 70
0001
0000
1000
0100
1000
0000
0010
0000
0100
0000
0001
0010
0200
0000
1000
0000
,  // measure 71
1300
0000
0001
1000
0100
0000
0100
0000
0100
0000
0010
0001
1000
0001
0100
0010
,  // measure 72
0100
0000
0100
0000
0100
0001
1000
0100
0010
0000
0001
0000
0100
0000
0010
0000
,  // measure 73
1001
0000
1000
0010
0100
0000
0001
0000
1000
0000
0100
0000
0001
0000
0100
0000
,  // measure 74
1100
0000
0000
1010
0000
0000
0101
0000
0011
0000
0000
0000
0200
0000
0300
0000
,  // measure 75
1001
0000
1000
0001
0100
0000
0100
0000
0100
0000
0010
1000
0001
0010
0100
1000
,  // measure 76
0001
0000
0001
0000
0001
0100
0010
1000
0001
0000
1000
0100
0010
0001
0100
0000
,  // measure 77
0010
0000
0100
0001
1000
0000
0100
0000
0010
0000
0001
1000
0010
0000
0100
0000
,  // measure 78
0001
0000
0010
0100
0000
0010
0001
0000
1000
0000
0010
0000
2010
0000
3001
0010
,  // measure 79
0100
0000
0010
0001
1000
0000
1000
0000
1000
0000
0010
0100
0001
1000
0100
0010
,  // measure 80
0001
0000
0001
0000
0001
1000
0100
0010
0001
0000
1000
0001
0100
0000
0010
0000
,  // measure 81
0110
0000
0100
0001
1000
0000
0100
0000
0010
0000
0001
0000
1000
0000
0010
0000
,  // measure 82
0100
0000
0001
1000
0000
0001
0100
0000
0010
0000
1000
0000
1002
0000
0000
0000
,  // measure 83
1003
0000
0001
0100
0010
0100
0001
0010
0100
1000
0010
1000
0100
0010
0001
1000
,  // measure 84
0010
0100
0000
0010
0000
0100
0001
0000
1001
0000
1000
0000
0200
0000
0000
0000
,  // measure 85
0310
0000
0001
1000
0010
0000
0100
0001
1000
0100
1000
0010
0000
0100
0000
0010
,  // measure 86
1000
0001
0010
0100
0000
0010
0001
0000
1000
0000
0010
0000
0200
0000
0000
0000
,  // measure 87
0301
0000
1000
0001
0010
0000
0010
0000
0010
0000
0001
1000
0010
0100
0001
1000
,  // measure 88
0100
0000
0100
0000
0100
1000
0000
0001
0000
0000
1000
0000
0100
0000
0010
0000
,  // measure 89
0001
0000
1000
0001
0100
0000
0010
1000
0001
0000
0010
0100
1000
0000
0001
0100
,  // measure 90
0010
0000
0000
1010
0000
0000
1001
0000
0001
0010
0100
1000
0001
1000
0010
0100
,  // measure 91
0001
0000
0000
1000
0000
0000
0110
0000
2002
0000
3003
0000
0000
0000
0000
0000
;
