#VERSION:0.83;
#TITLE:Robot No. 1;
#SUBTITLE:;
#ARTIST:Hi-5;
#TITLETRANSLIT:;
#SUBTITLETRANSLIT:;
#ARTISTTRANSLIT:;
#GENRE:KIDS EUROPOP;
#ORIGIN:;
#CREDIT:;
#BANNER:Robot No. 1.png;
#BACKGROUND:Robot No. 1-bg.png;
#PREVIEWVID:;
#JACKET:Robot No. 1-jacket.png;
#CDIMAGE:;
#DISCIMAGE:;
#LYRICSPATH:;
#CDTITLE:cdtitle.png;
#MUSIC:Robot No. 1.ogg;
#OFFSET:-0.241000;
#SAMPLESTART:47.513000;
#SAMPLELENGTH:15.000000;
#SELECTABLE:YES;
#DISPLAYBPM:132.000000;
#BPMS:0.000=132.000,
84.000=264.000,
104.000=132.000,
188.000=264.000,
208.000=132.000;
#STOPS:84.000=0.114,
84.500=0.114,
85.000=0.114,
85.500=0.114,
86.000=0.114,
86.500=0.114,
87.000=0.114,
87.500=0.114,
88.000=0.114,
88.500=0.114,
89.000=0.114,
89.500=0.114,
90.000=0.114,
90.500=0.114,
91.000=0.114,
91.500=0.114,
92.000=0.114,
92.500=0.114,
93.000=0.114,
93.500=0.114,
94.000=0.114,
94.500=0.114,
95.000=0.114,
95.500=0.114,
96.000=0.114,
96.500=0.114,
97.000=0.114,
97.500=0.114,
98.000=0.114,
98.500=0.114,
99.000=0.114,
99.500=0.114,
100.000=0.114,
100.500=0.114,
101.000=0.114,
101.500=0.114,
102.000=0.114,
102.500=0.114,
103.000=0.114,
103.500=0.114,
188.000=0.114,
188.500=0.114,
189.000=0.114,
189.500=0.114,
190.000=0.114,
190.500=0.114,
191.000=0.114,
191.500=0.114,
192.000=0.114,
192.500=0.114,
193.000=0.114,
193.500=0.114,
194.000=0.114,
194.500=0.114,
195.000=0.114,
195.500=0.114,
196.000=0.114,
196.500=0.114,
197.000=0.114,
197.500=0.114,
198.000=0.114,
198.500=0.114,
199.000=0.114,
199.500=0.114,
200.000=0.114,
200.500=0.114,
201.000=0.114,
201.500=0.114,
202.000=0.114,
202.500=0.114,
203.000=0.114,
203.500=0.114,
204.000=0.114,
204.500=0.114,
205.000=0.114,
205.500=0.114,
206.000=0.114,
206.500=0.114,
207.000=0.114,
207.500=0.114;
#DELAYS:;
#WARPS:;
#TIMESIGNATURES:0.000=4=4;
#TICKCOUNTS:0.000=4;
#COMBOS:0.000=1;
#SPEEDS:0.000=1.000=0.000=0;
#SCROLLS:0.000=1.000;
#FAKES:;
#LABELS:0.000=Song Start;
#BGCHANGES:0.000=Robot No. 1.avi=1.000=0=0=0=StretchNoLoop==CrossFade_Fastest==,
99999=-nosongbg-=1.000=0=0=0 // don't automatically add -songbackground-
;
#KEYSOUNDS:;
#ATTACKS:
;

//---------------dance-single - Daff_4K----------------
#NOTEDATA:;
#CHARTNAME:Daff_4K;
#STEPSTYPE:dance-single;
#DESCRIPTION:Daff_4K;
#CHARTSTYLE:;
#DIFFICULTY:Beginner;
#METER:1;
#RADARVALUES:0.071020,0.131595,0.021933,0.000000,0.000000,68.000000,65.000000,3.000000,0.000000,0.000000,0.000000,0.000000,0.000000,0.000000,0.071020,0.131595,0.021933,0.000000,0.000000,68.000000,65.000000,3.000000,0.000000,0.000000,0.000000,0.000000,0.000000,0.000000;
#CREDIT:Daff_4K;
#DISPLAYBPM:132.000000;
#NOTES:
0000
0000
0000
0000
,
0000
0000
0000
0000
,
0000
0000
0000
0000
,
0000
0000
0000
0000
,
1000
0000
0000
0000
,
1000
0000
0000
0000
,
0001
0000
0000
0000
,
0001
0000
0000
0000
,
0000
0000
0000
0000
,
1000
0000
0000
0000
,
1000
0000
0000
0000
,
0001
0000
0000
0000
,
0001
0000
0000
0000
,
1000
0000
0000
0000
,
0001
0000
0000
0000
,
1000
0000
0000
0000
,
0001
0000
0000
0000
,
0010
0000
0000
0000
,
0100
0000
0000
0000
,
0010
0000
0000
0000
,
0100
0000
0000
0000
,
1001
0000
0000
0000
,
0000
0000
0000
0000
,
0000
0000
0000
0000
,
0000
0000
0000
0000
,
0000
0000
0000
0000
,
0000
0000
0000
0000
,
1000
0000
0000
0000
,
0001
0000
0000
0000
,
0100
0000
0001
0000
,
1000
0000
0000
0000
,
0001
0000
0000
0000
,
1000
0000
0000
0000
,
0100
0000
1000
0000
,
0001
0000
0000
0000
,
1000
0000
0000
0000
,
0001
0000
0000
0000
,
0100
0000
0000
0000
,
0010
0000
0000
0000
,
1000
0000
0000
0000
,
0001
0000
0000
0000
,
1000
0000
0000
0000
,
0100
0000
0000
0000
,
0010
0000
0000
0000
,
0001
0000
0000
0000
,
1000
0000
0000
0000
,
0001
0000
0000
0000
,
1001
0000
0000
0000
,
0000
0000
0000
0000
,
0000
0000
0000
0000
,
0000
0000
0000
0000
,
0000
0000
0000
0000
,
0000
0000
0000
0000
,
0001
0000
0000
0000
,
1000
0000
0000
0000
,
0010
0000
1000
0000
,
0001
0000
0000
0000
,
1000
0000
0000
0000
,
0001
0000
0000
0000
,
0010
0000
0001
0000
,
1000
0000
0000
0000
,
0001
0000
0000
0000
,
0100
0000
0000
0000
,
0001
0000
0000
0000
,
0100
0000
0001
0000
,
1000
0000
0000
0000
,
0100
0000
0000
0000
,
1000
0000
0000
0000
,
0100
0000
1000
0000
,
0001
0000
0000
0000
,
0100
0000
0001
0000
,
1000
0000
0000
0000
,
1001
0000
0000
0000
;

//---------------dance-single - Daff_4K----------------
#NOTEDATA:;
#CHARTNAME:Daff_4K;
#STEPSTYPE:dance-single;
#DESCRIPTION:Daff_4K;
#CHARTSTYLE:;
#DIFFICULTY:Easy;
#METER:4;
#RADARVALUES:0.165016,0.213477,0.007311,0.058487,0.000000,158.000000,157.000000,1.000000,8.000000,0.000000,0.000000,0.000000,0.000000,0.000000,0.165016,0.213477,0.007311,0.058487,0.000000,158.000000,157.000000,1.000000,8.000000,0.000000,0.000000,0.000000,0.000000,0.000000;
#CREDIT:Daff_4K;
#DISPLAYBPM:132.000000;
#NOTES:
0000
0000
0000
0000
,
0000
0000
0000
0000
,
0000
0000
0000
0000
,
0000
0000
0000
0000
,
0000
1000
0000
0001
,
0000
1000
0000
0001
,
0000
0010
0000
0100
,
0000
0010
0000
0100
,
0100
0000
0000
0000
,
1000
0000
0010
0000
,
1000
0001
1000
0000
,
0001
0000
0010
0000
,
0001
1000
0001
0000
,
0100
0000
0100
0000
,
0010
0000
0010
0000
,
1000
0000
0001
0000
,
0010
0100
0010
0000
,
0001
0000
0001
0000
,
1000
0000
1000
0000
,
0010
0000
0100
0000
,
0001
1000
0001
0000
,
2000
0000
3000
0000
,
0002
0000
0003
0000
,
0020
0000
0030
0000
,
0200
0000
0300
0000
,
0000
0000
0000
0000
,
1000
0000
0001
0000
,
1000
0010
1000
0000
,
0001
0000
1000
0000
,
0100
0100
0010
0010
,
0001
0000
1000
0000
,
0001
0010
0001
0000
,
1000
0000
0001
0000
,
0100
0100
0010
0010
,
0000
1000
0001
1000
,
0001
0000
0010
0000
,
0001
0100
0001
0000
,
1000
0000
0010
0000
,
1000
0100
1000
0000
,
0001
0000
0001
0000
,
1000
0000
1000
0000
,
0010
0000
0100
0000
,
0001
1000
0001
0000
,
0010
0000
0010
0000
,
0100
0000
0100
0000
,
1000
0000
0001
0000
,
0100
0010
0100
0000
,
0002
0000
0003
0000
,
2000
0000
3000
0000
,
0020
0000
0030
0000
,
0200
0000
0300
0000
,
0000
0000
0000
0000
,
0001
0000
1000
0000
,
0001
0100
0001
0000
,
1000
0000
0001
0000
,
0010
0010
0100
0100
,
1000
0000
0001
0000
,
1000
0100
1000
0000
,
0001
0000
1000
0000
,
0010
0010
0100
0100
,
0000
0001
1000
0001
,
1000
0000
0010
0000
,
1000
0001
0010
0000
,
0100
0000
0010
0000
,
0001
0001
1000
1000
,
0001
0000
0010
0000
,
0001
1000
0010
0000
,
0100
0000
0010
0000
,
1000
1000
0001
0001
,
0000
0010
0100
0010
,
0001
0001
1000
1000
,
0000
0010
0100
0010
,
0100
0000
0000
0000
,
1001
0000
0000
0000
;

//---------------dance-single - Daff_4K----------------
#NOTEDATA:;
#CHARTNAME:Daff_4K;
#STEPSTYPE:dance-single;
#DESCRIPTION:Daff_4K;
#CHARTSTYLE:;
#DIFFICULTY:Medium;
#METER:7;
#RADARVALUES:0.309144,0.400269,0.358232,0.380164,0.000000,296.000000,247.000000,49.000000,52.000000,0.000000,0.000000,0.000000,0.000000,0.000000,0.309144,0.400269,0.358232,0.380164,0.000000,296.000000,247.000000,49.000000,52.000000,0.000000,0.000000,0.000000,0.000000,0.000000;
#CREDIT:Daff_4K;
#DISPLAYBPM:132.000000;
#NOTES:
0000
0000
0000
0000
,
0000
0000
0000
0000
,
0000
0000
0000
0000
,
0000
0000
0000
0000
,
0002
0010
0000
0013
,
2000
0010
0000
3010
,
0002
0100
0000
0103
,
2000
0100
0000
3100
,
2002
0000
0000
3003
,
0001
0010
0001
1000
,
0001
0100
0220
0330
,
1000
0010
1000
0001
,
1000
0100
0220
0330
,
0001
0001
1000
1000
,
0010
0100
0020
0030
,
1000
0001
0010
0100
,
0010
0000
0001
1000
0002
0000
0003
0000
,
1000
1000
0001
0001
,
0010
0100
0020
0030
,
0001
1000
0010
0100
,
0001
1000
0000
0200
0000
0000
0300
0000
,
2000
3000
0002
0003
,
0200
0300
0020
0030
,
1000
1000
0001
0001
,
0010
0010
0100
0100
,
1000
0001
0110
1001
,
2010
0001
3010
0000
,
1000
0000
0001
0010
0001
0000
0000
0000
,
0201
0010
0301
1000
,
2100
3001
0102
1003
,
0012
1000
0013
0000
,
0001
0000
1000
0010
1000
0000
0000
0000
,
1200
0010
1300
0001
,
0102
1003
2100
3001
,
0000
1001
0110
1001
,
0001
0100
0001
1000
,
0001
0010
0220
0330
,
1000
0100
1000
0001
,
1000
0010
0220
0330
,
0001
0001
1000
1000
,
0100
0010
0200
0300
,
0001
0100
1000
0010
,
0100
0010
0000
2002
0000
3003
0000
0000
,
1000
1000
0001
0001
,
0100
0010
0100
0010
0000
0000
1000
0000
,
0001
0010
1000
0010
,
0001
0000
1000
0001
2000
0000
3000
0000
,
0002
0003
2000
3000
,
0200
0300
0020
0030
,
0001
0001
1000
1000
,
0010
0010
0100
0100
,
0001
1000
0110
1001
,
0012
1000
0103
0000
,
0001
0000
1000
0100
2000
0000
3000
0000
,
1020
0100
1030
0001
,
0012
0103
2010
3001
,
2010
0001
3100
0000
,
1000
0000
0001
0100
0002
0000
0003
0000
,
0021
0100
0031
1000
,
2010
3100
0012
1003
,
0000
1001
0110
1001
,
0001
0000
0100
0010
0100
0000
0001
0000
,
1000
0000
0001
0010
0200
0000
0300
0000
,
1000
0000
0001
1000
0001
0000
0100
0000
,
0110
1010
0101
1001
,
1000
0000
0100
0010
0100
0000
1000
0000
,
0001
0000
1000
0010
0200
0000
0300
0000
,
0001
0000
1000
0001
1000
0000
0100
0000
,
0110
0011
1100
1001
,
0000
1001
0110
1001
,
0010
0100
0010
1001
,
0000
1001
0110
1001
,
0220
0000
0000
0330
,
1001
0000
0000
0000
;

//---------------dance-single - Daff_4K----------------
#NOTEDATA:;
#CHARTNAME:Daff_4K;
#STEPSTYPE:dance-single;
#DESCRIPTION:Daff_4K;
#CHARTSTYLE:;
#DIFFICULTY:Hard;
#METER:11;
#RADARVALUES:0.480427,0.480323,0.416718,0.424029,0.142562,460.000000,403.000000,57.000000,58.000000,0.000000,0.000000,0.000000,0.000000,0.000000,0.480427,0.480323,0.416718,0.424029,0.142562,460.000000,403.000000,57.000000,58.000000,0.000000,0.000000,0.000000,0.000000,0.000000;
#CREDIT:Daff_4K;
#DISPLAYBPM:132.000000;
#NOTES:
0000
0000
0000
0000
,
0000
0000
0000
0000
,
0000
0000
0000
0000
,
0000
0000
0000
0000
,
2000
0010
0000
0010
,
3002
0010
0000
0010
,
2003
0100
0000
0100
,
3002
0100
0000
0103
,
2002
0000
0000
3003
,
1000
0000
0100
0000
1000
0000
0001
1000
0000
0000
0010
0000
0100
0000
0001
0000
,
0010
0000
0100
0000
0010
0000
0001
2000
0000
0000
0000
0000
3001
0000
0000
0000
,
0001
0000
0100
0000
0001
0000
1000
0001
0000
0000
0010
0000
0100
0000
1000
0000
,
0010
0000
0100
0000
0010
0000
1000
0002
0000
0000
0000
0000
1003
0000
0000
0000
,
2001
0000
3100
0000
0012
0000
1003
0001
,
0000
0000
0101
0000
0000
1010
0000
0000
1001
0000
0000
0000
0001
0000
1000
0000
,
0200
0310
1002
0103
,
0010
0000
1000
0000
0001
0000
1000
0200
0000
0000
0000
0000
0310
0000
0000
0000
,
1002
0103
2010
3001
,
1000
0000
0001
0000
0000
0110
0000
0000
1001
0000
0000
0000
1000
0000
0001
0000
,
0200
0310
2001
3100
,
0010
0001
0000
2001
0000
3010
0100
0001
,
1000
0100
0020
0000
0130
1000
0002
0000
,
1003
0010
0200
0000
0310
1000
0002
0000
,
1003
0100
0001
0010
0001
0100
2000
0000
,
3001
0100
0010
1000
0100
0010
0002
0000
,
2003
3001
0110
1001
,
0001
0000
1000
0000
0010
0000
0100
0010
0000
0000
1000
0000
0100
0000
0001
0000
,
0100
0000
1000
0000
0001
0000
1000
0020
0000
0000
0100
0000
0230
0000
0000
0000
,
0301
0000
1000
0000
0001
0000
0010
0100
0000
0000
0010
0000
0001
0000
1000
0000
,
0010
0101
1010
1001
,
1000
0000
0001
0000
0010
0000
0100
0010
0000
0000
0001
0000
0100
0000
1000
0000
,
0100
0000
0001
0000
1000
0000
0001
0020
0000
0000
0100
0000
0230
0000
0000
0000
,
1300
0000
0001
0000
1000
0000
0010
0100
0000
0000
0010
0000
1000
0000
0001
0000
,
0010
1100
0011
1001
,
1000
0000
0001
0000
0000
0100
0000
0000
0110
0000
0000
0000
1001
0000
0000
0000
,
0001
0000
1000
0000
0001
0000
0010
0001
0000
0000
0001
0000
0100
0000
1000
0000
,
0100
0000
0001
0000
1000
0000
0100
0020
0000
0000
0000
0000
0031
0000
0000
0000
,
1000
0000
0010
0000
1000
0000
0001
1000
0000
0000
1000
0000
0100
0000
0010
0000
,
0001
0000
1000
0000
0001
0000
0100
0020
0000
0000
0000
0000
1030
0000
0000
0000
,
1200
0301
1200
0310
,
0001
1000
0000
1020
0000
0130
0001
0000
,
0012
0000
1003
0000
1020
0000
0130
0001
,
1000
0100
0000
0120
0000
0031
1000
0000
,
0201
0000
1300
0000
0201
0000
0310
1000
,
0000
0001
0010
0200
0000
1300
0001
0000
,
2010
0000
3001
0000
0021
0000
0130
1000
,
0001
1000
0000
0010
0000
0100
0000
0000
0002
0000
0000
0000
1003
0000
0000
0000
,
0001
0100
0020
0000
0130
0001
2000
0000
,
3001
0010
0200
0000
0310
0001
2000
0000
,
3001
0100
1000
0010
1000
0100
0002
0000
,
1003
0100
0010
0001
0100
0010
2000
0000
,
3002
1003
0110
1001
,
1000
0000
0010
0000
0100
0000
0010
1000
0000
0000
0100
0000
0010
0000
0001
0000
,
0100
0000
0010
0000
0100
0000
0001
2000
0000
0000
0100
0000
3200
0000
0000
0000
,
0310
0000
0001
0000
1000
0000
0001
0100
0000
0000
0010
0000
1000
0000
0100
0000
,
0010
0011
1100
1001
,
0001
0000
0010
0000
0100
0000
0010
0001
0000
0000
0100
0000
0010
0000
1000
0000
,
0100
0000
0010
0000
0100
0000
1000
0002
0000
0000
0100
0000
0203
0000
0000
0000
,
0310
0000
1000
0000
0001
0000
1000
0100
0000
0000
0010
0000
0001
0000
0100
0000
,
0010
1010
0101
1001
,
1000
0000
0001
0000
0000
0010
0000
0000
0110
0000
0000
0000
1001
0000
0000
0000
,
1000
0000
0001
0000
0100
0000
0001
0010
0000
0000
1000
0000
0001
0000
0100
0000
,
1000
0000
0010
0000
0100
0000
0010
1000
0000
0001
1000
0000
0200
0000
0000
0000
,
0310
0000
0001
0000
1000
0000
0001
0100
0000
0000
0010
0000
1000
0000
0001
0000
,
0010
1100
0011
1001
,
0001
0000
1000
0000
0100
0000
1000
0010
0000
0000
0001
0000
1000
0000
0100
0000
,
0001
0000
0010
0000
0100
0000
0010
0001
0000
1000
0001
0000
0200
0000
0000
0000
,
0310
0000
1000
0000
0001
0000
1000
0100
0000
0000
0010
0000
0001
0000
1000
0000
,
0010
0101
1010
1001
,
0001
0000
1000
0000
0000
0100
0000
0000
0110
0000
0000
0000
1001
0000
0000
0000
,
1010
0101
0011
1100
,
1000
0000
0001
0000
0000
0100
0000
0000
0110
0000
0000
0000
1001
0000
0000
0000
,
2000
0000
0000
0000
3001
0000
0000
1000
0000
0000
0100
0000
0020
0000
0000
0000
,
0130
0000
0000
0000
;

//---------------dance-single - Daff_4K----------------
#NOTEDATA:;
#CHARTNAME:Daff_4K;
#STEPSTYPE:dance-single;
#DESCRIPTION:Daff_4K;
#CHARTSTYLE:;
#DIFFICULTY:Challenge;
#METER:12;
#RADARVALUES:0.541003,0.587061,0.438651,1.250155,0.190082,518.000000,458.000000,60.000000,171.000000,136.000000,0.000000,0.000000,0.000000,0.000000,0.541003,0.587061,0.438651,1.250155,0.190082,518.000000,458.000000,60.000000,171.000000,136.000000,0.000000,0.000000,0.000000,0.000000;
#CREDIT:Daff_4K;
#DISPLAYBPM:132.000000;
#NOTES:
// measure 0
0000
0000
0000
0000
,  // measure 1
0000
0000
0000
0000
,  // measure 2
0000
0000
0000
0000
,  // measure 3
0000
0000
0000
0000
,  // measure 4
2000
0010
0000
0010
,  // measure 5
3002
0010
0000
0010
,  // measure 6
2003
0100
0000
0100
,  // measure 7
3002
0100
0000
0100
,  // measure 8
1003
0000
0001
0000
0000
1000
0000
0000
0200
0000
0000
0000
0320
0000
0000
0000
,  // measure 9
0031
0000
0000
0000
0000
0000
0000
0000
1000
0000
0000
0000
0000
0000
0000
0000
0001
0000
0000
0000
0000
0000
0000
0000
0100
0000
0000
0000
0020
0000
0000
0000
0000
0000
0000
0000
0000
0000
0000
0000
1030
0000
0000
0000
0000
0000
0000
0000
0200
0300
0000
0000
0000
0000
0000
0000
0200
0300
0000
0000
0000
0000
0000
0000
,  // measure 10
0001
0000
1000
0000
0001
0000
0010
0200
0000
0000
0300
0000
MMMM
0000
0000
0000
,  // measure 11
1000
0000
0000
0000
0000
0000
0000
0000
0001
0000
0000
0000
0000
0000
0000
0000
1000
0000
0000
0000
0000
0000
0000
0000
0100
0000
0000
0000
0020
0000
0000
0000
0000
0000
0000
0000
0000
0000
0000
0000
0031
0000
0000
0000
0000
0000
0000
0000
0200
0300
0000
0000
0000
0000
0000
0000
0200
0300
0000
0000
0000
0000
0000
0000
,  // measure 12
1000
0000
0001
0000
1000
0000
0010
0200
0000
0000
0300
0000
MMMM
0000
0000
0000
,  // measure 13
0002
0010
2003
0100
3002
0010
2003
0100
,  // measure 14
3001
0000
1000
0000
0000
0110
0000
0000
2001
0000
0000
0000
3010
0000
0100
0000
,  // measure 15
0020
1000
0230
0001
0320
1000
0230
0001
,  // measure 16
0310
0000
1000
0000
0001
0000
0010
0200
0000
0000
0300
0000
MMMM
0000
0000
0000
,  // measure 17
2000
0010
3002
0100
2003
0010
3002
0100
,  // measure 18
1003
0000
0001
0000
0000
0110
0000
0000
1002
0000
0000
0000
0013
0000
0100
0000
,  // measure 19
0020
0001
0230
1000
0320
0001
0230
1000
,  // measure 20
0310
0110
0000
2001
0000
3010
0100
0001
,  // measure 21
2000
3200
0320
0032
2003
3020
0230
0302
,  // measure 22
2003
3200
0302
0203
2300
3020
0032
0023
,  // measure 23
2030
3200
0302
0023
0032
0203
2300
3002
,  // measure 24
2003
3020
0230
0302
2003
3002
0023
0230
,  // measure 25
2300
3000
0002
0003
0220
0330
2002
3003
,  // measure 26
1000
0000
0000
0000
0000
0000
0000
0000
0010
0000
0000
0000
0000
0000
0000
0000
0001
0000
0000
0000
0000
0000
0000
0000
0010
0000
0000
0000
0200
0000
0000
0000
0000
0000
0000
0000
0000
0000
0000
0000
0301
0000
0000
0000
0000
0000
0000
0000
0020
0030
0000
0000
0000
0000
0000
0000
0020
0030
0000
0000
0000
0000
0000
0000
,  // measure 27
1000
0000
0100
0000
0001
0000
0100
0020
0000
0000
0031
0000
1002
0000
0000
0000
,  // measure 28
0103
0000
0010
0000
1000
0000
0001
0020
0000
0000
0130
0000
0010
0000
0001
0000
,  // measure 29
1001
MMMM
1010
MMMM
0110
MMMM
0101
MMMM
,  // measure 30
0001
0000
0000
0000
0000
0000
0000
0000
0010
0000
0000
0000
0000
0000
0000
0000
1000
0000
0000
0000
0000
0000
0000
0000
0010
0000
0000
0000
0200
0000
0000
0000
0000
0000
0000
0000
0000
0000
0000
0000
1300
0000
0000
0000
0000
0000
0000
0000
0020
0030
0000
0000
0000
0000
0000
0000
0020
0030
0000
0000
0000
0000
0000
0000
,  // measure 31
0001
0000
0100
0000
1000
0000
0100
0020
0000
0000
1030
0000
2001
0000
0000
0000
,  // measure 32
3100
0000
0010
0000
0001
0000
1000
0020
0000
0000
0130
0000
0010
0000
1000
0000
,  // measure 33
1001
MMMM
0011
MMMM
0110
MMMM
1100
MMMM
,  // measure 34
1000
0000
0001
0000
0000
0101
0000
0000
2010
0000
0000
0000
3001
0000
0000
0000
,  // measure 35
1000
0000
0000
0000
0000
0000
0000
0000
0001
0000
0000
0000
0000
0000
0000
0000
0100
0000
0000
0000
0000
0000
0000
0000
0010
0000
0000
0000
1000
0000
0000
0000
0000
0000
0000
0000
1000
0000
0000
0000
0001
0000
0000
0000
0000
0000
0000
0000
0020
0030
0000
0000
0000
0000
0000
0000
0020
0030
0000
0000
0000
0000
0000
0000
,  // measure 36
1000
0000
0100
0000
0001
0000
0100
0020
0000
0000
0030
0000
MMMM
0000
0000
0000
,  // measure 37
0001
0000
0000
0000
0000
0000
0000
0000
1000
0000
0000
0000
0000
0000
0000
0000
0100
0000
0000
0000
0000
0000
0000
0000
0010
0000
0000
0000
0001
0000
0000
0000
0000
0000
0000
0000
0001
0000
0000
0000
1000
0000
0000
0000
0000
0000
0000
0000
0020
0030
0000
0000
0000
0000
0000
0000
0020
0030
0000
0000
0000
0000
0000
0000
,  // measure 38
0001
0000
0100
0000
1000
0000
0100
0020
0000
0000
0030
0000
MMMM
0000
0000
0000
,  // measure 39
2000
0100
3002
0010
2003
0010
3002
0100
,  // measure 40
1003
0001
0000
0201
0000
0310
1000
0100
,  // measure 41
0020
0001
0230
1000
0320
0001
0230
1000
,  // measure 42
0310
0110
0000
2002
0000
3003
MMMM
0000
,  // measure 43
0002
0100
2003
0010
3002
0010
2003
0100
,  // measure 44
3001
1000
0100
0020
0000
0031
1000
0010
,  // measure 45
0200
0001
0320
1000
0230
0001
0310
1000
,  // measure 46
0001
1000
0000
0001
0000
0010
0000
0000
0110
0000
0000
0000
1001
0000
0000
0000
,  // measure 47
0002
0203
0320
2030
3002
0023
0230
2300
,  // measure 48
3002
0203
2300
3200
0302
0023
2030
3020
,  // measure 49
0032
0203
2300
3020
2030
3200
0302
2003
,  // measure 50
3002
0023
0230
2300
3002
2003
3020
0230
,  // measure 51
0302
0003
2000
3000
0220
0330
2002
3003
,  // measure 52
0001
0000
0000
0000
0000
0000
0000
0000
0100
0000
0000
0000
0000
0000
0000
0000
0010
0000
0000
0000
0000
0000
0000
0000
0001
0000
0000
0000
0020
0000
0000
0000
0000
0000
0000
0000
0000
0000
0000
0000
1030
0000
0000
0000
0000
0000
0000
0000
0200
0300
0000
0000
0000
0000
0000
0000
0200
0300
0000
0000
0000
0000
0000
0000
,  // measure 53
0001
0100
0001
0000
0010
0000
0100
2000
0000
0000
3001
0000
1020
0000
0000
0000
,  // measure 54
0031
0000
0010
0000
1000
0000
0100
0020
0000
0000
0031
0000
1000
0000
0001
0000
,  // measure 55
0101
MMMM
1010
MMMM
0011
MMMM
1100
MMMM
,  // measure 56
1000
0000
0000
0000
0000
0000
0000
0000
0100
0000
0000
0000
0000
0000
0000
0000
0010
0000
0000
0000
0000
0000
0000
0000
1000
0000
0000
0000
0020
0000
0000
0000
0000
0000
0000
0000
0000
0000
0000
0000
0031
0000
0000
0000
0000
0000
0000
0000
0200
0300
0000
0000
0000
0000
0000
0000
0200
0300
0000
0000
0000
0000
0000
0000
,  // measure 57
1000
0100
1000
0000
0010
0000
0100
0002
0000
0000
1003
0000
0021
0000
0000
0000
,  // measure 58
1030
0000
0010
0000
0001
0000
0100
0020
0000
0000
1030
0000
0001
0000
1000
0000
,  // measure 59
1100
MMMM
0011
MMMM
1010
MMMM
0101
MMMM
,  // measure 60
0001
0000
1000
0000
0000
1001
0000
0000
0021
0000
0000
0000
0130
0000
0000
0000
,  // measure 61
1000
0000
0000
0000
0000
0000
0000
0000
0001
0000
0000
0000
0000
0000
0000
0000
1000
0000
0000
0000
0000
0000
0000
0000
0100
0000
0000
0000
0010
0000
0000
0000
0000
0000
0000
0000
0010
0000
0000
0000
0001
0000
0000
0000
0000
0000
0000
0000
0200
0300
0000
0000
0000
0000
0000
0000
0200
0300
0000
0000
0000
0000
0000
0000
,  // measure 62
1000
0100
1000
0000
0010
0000
0100
0001
0000
0001
0010
0000
0021
0000
0000
0000
,  // measure 63
0130
1000
0100
0000
0010
0000
0001
1000
0000
1000
0010
0000
0100
0000
0001
0000
,  // measure 64
0011
MMMM
1010
MMMM
1100
MMMM
0101
MMMM
,  // measure 65
0001
0000
0000
0000
0000
0000
0000
0000
1000
0000
0000
0000
0000
0000
0000
0000
0001
0000
0000
0000
0000
0000
0000
0000
0100
0000
0000
0000
0010
0000
0000
0000
0000
0000
0000
0000
0010
0000
0000
0000
1000
0000
0000
0000
0000
0000
0000
0000
0200
0300
0000
0000
0000
0000
0000
0000
0200
0300
0000
0000
0000
0000
0000
0000
,  // measure 66
0001
0100
0001
0000
0010
0000
0100
1000
0000
1000
0010
0000
1020
0000
0000
0000
,  // measure 67
0130
0001
0100
0000
0010
0000
1000
0001
0000
0001
0010
0000
0100
0000
1000
0000
,  // measure 68
1010
MMMM
0011
MMMM
0101
MMMM
1100
MMMM
,  // measure 69
1000
0000
1010
0000
0000
0101
0000
0000
0021
0000
0000
0000
0130
0000
0000
0000
,  // measure 70
1001
MMMM
0110
MMMM
1001
MMMM
0110
MMMM
,  // measure 71
0001
0000
0011
0000
0000
1100
0000
0000
1020
0000
0000
0000
0130
0000
0000
0000
,  // measure 72
2001
0000
0000
0000
3100
0000
0010
0200
0000
0000
0301
0000
0100
0000
1000
0000
,  // measure 73
0010
0000
0000
0000
;

//---------------dance-single - [WARNING] Robot's Rights Violation [NON-JUDGED]----------------
#NOTEDATA:;
#CHARTNAME:[WARNING] Robot's Rights Violation [NON-JUDGED];
#STEPSTYPE:dance-single;
#DESCRIPTION:[WARNING] Robot's Rights Violation [NON-JUDGED];
#CHARTSTYLE:;
#DIFFICULTY:Edit;
#METER:18;
#RADARVALUES:0.953544,0.987330,0.804193,0.716463,1.180702,913.000000,803.000000,110.000000,98.000000,68.000000,0.000000,0.000000,0.000000,0.000000,0.953544,0.987330,0.804193,0.716463,1.180702,913.000000,803.000000,110.000000,98.000000,68.000000,0.000000,0.000000,0.000000,0.000000;
#CREDIT:[WARNING] Robot's Rights Violation [NON-JUDGED];
#DISPLAYBPM:132.000000;
#NOTES:
0000
0000
0000
0000
,
0000
0000
0000
0000
,
0000
0000
0000
0000
,
0000
0000
0000
0000
,
0000
0010
0000
0010
,
0000
0100
0000
0100
,
0000
0010
0000
0010
,
0000
0100
0000
0100
,
1001
0000
MMMM
0000
0000
MMMM
0000
0000
MMMM
0000
0000
0000
MMMM
0000
0000
0000
,
1000
0000
0000
0000
0010
0000
0000
0000
0100
0000
0000
0000
0010
0000
0000
0000
0001
0000
0000
0000
0000
0000
0000
0000
0010
0000
0000
0000
2000
3000
0000
0000
0000
0000
0000
0000
2000
3000
0000
0000
0100
0000
0000
0000
0000
0000
0000
0000
0001
0000
0000
0000
1000
0000
0000
0000
0100
0000
0000
0000
0000
0000
0000
0000
,
0010
0001
0100
1000
0100
0000
0001
0220
0000
0000
0000
0000
0330
0000
MMMM
0000
,
0001
0000
0000
0000
0010
0000
0000
0000
0100
0000
0000
0000
0010
0000
0000
0000
1000
0000
0000
0000
0000
0000
0000
0000
0010
0000
0000
0000
0002
0003
0000
0000
0000
0000
0000
0000
0002
0003
0000
0000
0100
0000
0000
0000
0000
0000
0000
0000
1000
0000
0000
0000
0001
0000
0000
0000
0100
0000
0000
0000
0000
0000
0000
0000
,
0010
1000
0100
0001
0100
0000
1000
0220
0000
0000
0000
0000
0330
0000
MMMM
0000
,
0001
0000
0000
0000
1000
0000
0000
0000
0020
0030
0000
0000
0000
0000
0000
0000
0020
0030
0000
0000
0001
0000
0000
0000
1000
0000
0000
0000
0000
0000
0000
0000
0001
0000
0000
0000
1000
0000
0000
0000
0200
0300
0000
0000
0000
0000
0000
0000
0200
0300
0000
0000
0001
0000
0000
0000
1000
0000
0000
0000
0000
0000
0000
0000
,
0001
0010
1000
0010
0100
0001
0100
1000
0010
0100
0001
0100
0010
0000
1000
0001
,
1000
0000
0000
0000
0100
0000
0000
0000
0002
0003
0000
0000
0000
0000
0000
0000
0002
0003
0000
0000
0010
0000
0000
0000
1000
0000
0000
0000
0000
0000
0000
0000
0001
0000
0000
0000
0100
0000
0000
0000
2000
3000
0000
0000
0000
0000
0000
0000
2000
3000
0000
0000
0010
0000
0000
0000
0001
0000
0000
0000
0000
0000
0000
0000
,
1000
0000
0000
0010
0000
0000
0001
0000
0000
0010
0000
0000
1000
0000
0000
0001
0000
0000
0010
0000
0100
0000
0010
0000
0200
0000
0000
0000
0000
0000
1000
0000
0000
0000
0000
0000
0310
0000
0000
0000
0000
0000
1001
0000
0000
0000
0000
0000
,
1000
0000
0000
0000
0001
0000
0000
0000
0020
0030
0000
0000
0000
0000
0000
0000
0020
0030
0000
0000
1000
0000
0000
0000
0001
0000
0000
0000
0000
0000
0000
0000
1000
0000
0000
0000
0001
0000
0000
0000
0200
0300
0000
0000
0000
0000
0000
0000
0200
0300
0000
0000
1000
0000
0000
0000
0001
0000
0000
0000
0000
0000
0000
0000
,
1000
0010
0001
0010
0100
1000
0100
0001
0010
0100
1000
0100
0010
0000
0001
1000
,
0001
0000
0000
0000
0100
0000
0000
0000
2000
3000
0000
0000
0000
0000
0000
0000
2000
3000
0000
0000
0010
0000
0000
0000
0001
0000
0000
0000
0000
0000
0000
0000
1000
0000
0000
0000
0100
0000
0000
0000
0002
0003
0000
0000
0000
0000
0000
0000
0002
0003
0000
0000
0010
0000
0000
0000
1000
0000
0000
0000
0000
0000
0000
0000
,
0001
0010
1000
0010
0001
0100
0010
0000
1001
0000
1000
0100
0010
0001
1000
0000
,
1010
1001
1100
1001
0011
1001
0101
1001
,
1100
0110
0011
1001
0101
0110
1010
1001
,
1100
1010
0101
0011
0110
0110
1001
1001
,
0011
0101
1010
1100
0110
0110
1001
1001
,
1000
MMMM
0001
MMMM
0110
MMMM
1001
MMMM
,
1100
0000
0000
0000
0000
0000
0000
0000
0011
0000
0000
0000
0000
0000
0000
0000
0001
0000
0000
0000
0200
0300
0000
0000
0200
0300
0000
0000
1000
0000
0000
0000
0010
0000
0000
0000
0000
0000
0000
0000
0110
0000
0000
0000
0000
0000
0000
0000
1001
0000
0000
0000
0000
0000
0000
0000
1100
0000
0000
0000
0000
0000
0000
0000
,
0011
0000
0000
0000
0000
0000
1001
0000
0000
0000
0000
0000
1000
0000
0001
0000
0100
0000
0001
0000
0000
1000
0000
0000
0200
0000
0000
0000
0000
0000
0310
0000
0000
0000
0000
0000
1002
0000
0000
0000
0000
0000
0103
0000
0000
0000
0000
0000
,
0011
0000
0000
0000
0000
0000
0000
0000
1100
0000
0000
0000
0000
0000
0000
0000
1000
0000
0000
0000
0020
0030
0000
0000
0020
0030
0000
0000
0001
0000
0000
0000
0100
0000
0000
0000
0000
0000
0000
0000
0010
0000
0000
0000
1000
0000
0000
0000
0100
0000
0000
0000
0010
0000
0000
0000
0001
0000
0000
0000
1000
0000
0000
0000
,
0010
0100
0010
0100
0000
0000
0001
0010
0001
0010
0000
0000
0100
1000
0100
1000
0000
0000
0010
0100
0010
0100
0000
0000
,
0101
0000
0000
0000
0000
0000
0000
0000
1010
0000
0000
0000
0000
0000
0000
0000
1000
0000
0000
0000
0200
0300
0000
0000
0200
0300
0000
0000
0001
0000
0000
0000
0010
0000
0000
0000
0000
0000
0000
0000
0110
0000
0000
0000
0000
0000
0000
0000
1001
0000
0000
0000
0000
0000
0000
0000
0101
0000
0000
0000
0000
0000
0000
0000
,
1010
0000
0000
0000
0000
0000
1001
0000
0000
0000
0000
0000
0001
0000
1000
0000
0100
0000
1000
0000
0000
0001
0000
0000
0200
0000
0000
0000
0000
0000
0310
0000
0000
0000
0000
0000
2001
0000
0000
0000
0000
0000
3100
0000
0000
0000
0000
0000
,
1010
0000
0000
0000
0000
0000
0000
0000
0101
0000
0000
0000
0000
0000
0000
0000
0001
0000
0000
0000
0020
0030
0000
0000
0020
0030
0000
0000
1000
0000
0000
0000
0100
0000
0000
0000
0000
0000
0000
0000
0010
0000
0000
0000
0001
0000
0000
0000
0100
0000
0000
0000
0010
0000
0000
0000
1000
0000
0000
0000
0001
0000
0000
0000
,
0010
0100
0010
0100
0000
0000
1000
0010
1000
0010
0000
0000
0100
0001
0100
0001
0000
0000
0010
0100
0010
0100
0000
0000
,
1001
0000
0000
0000
0000
0000
0000
0000
0000
0000
0000
0000
0000
0000
0000
0000
0000
0000
0000
0000
0000
0000
0000
0000
1000
0000
0000
0000
0000
0000
0010
0000
0000
0000
0000
0000
1000
0000
0000
0000
0000
0000
0000
0000
0000
0000
0000
0000
0000
0000
0000
0000
0000
0000
0000
0000
0000
0000
0000
0000
0001
0000
0000
0000
0000
0000
0010
0000
0000
0000
0000
0000
0001
0000
0000
0000
0000
0000
0000
0000
0000
0000
0000
0000
0000
0000
0000
0000
0000
0000
0000
0000
0000
0000
0000
0000
0100
0000
0000
0000
0000
0000
0000
0000
0010
0000
0000
0000
0000
0000
0000
0000
0100
0000
0000
0000
0000
0000
0000
0000
0010
0000
0000
0000
0000
0000
0000
0000
0000
0000
0000
0000
0000
0000
0000
0000
0000
0000
0000
0000
0000
0000
0000
0000
1000
0000
0000
0000
0000
0000
0000
0000
0001
0000
0000
0000
0000
0000
0000
0000
1000
0000
0000
0000
0000
0000
0000
0000
0001
0000
0000
0000
0000
0000
0000
0000
0000
0000
0000
0000
0000
0000
0000
0000
0000
0000
0000
0000
0000
0000
0000
0000
,
1000
0000
0000
0000
0200
0300
0000
0000
0200
0300
0000
0000
0001
0000
0000
0000
1000
0000
0000
0000
0000
0000
0000
0000
0010
0000
0000
0000
0002
0003
0000
0000
0000
0000
0000
0000
0002
0003
0000
0000
0100
0000
0000
0000
0000
0000
0000
0000
1000
0000
0000
0000
0100
0000
0000
0000
0010
0000
0000
0000
1000
0000
0000
0000
,
0001
0000
0000
0000
0020
0030
0000
0000
0020
0030
0000
0000
1000
0000
0000
0000
0100
0000
0000
0000
0000
0000
0000
0000
0010
0000
0000
0000
2002
0000
0000
0000
0000
0000
0000
0000
0000
0000
0000
0000
3003
0000
0000
0000
0000
0000
0000
0000
MMMM
0000
0000
0000
0000
0000
0000
0000
0000
0000
0000
0000
0000
0000
0000
0000
,
0001
0000
0000
0000
0200
0300
0000
0000
0200
0300
0000
0000
1000
0000
0000
0000
0001
0000
0000
0000
0000
0000
0000
0000
0010
0000
0000
0000
2000
3000
0000
0000
0000
0000
0000
0000
2000
3000
0000
0000
0100
0000
0000
0000
0000
0000
0000
0000
0001
0000
0000
0000
0100
0000
0000
0000
0010
0000
0000
0000
0001
0000
0000
0000
,
1000
0000
0000
0000
0020
0030
0000
0000
0020
0030
0000
0000
0001
0000
0000
0000
0100
0000
0000
0000
0000
0000
0000
0000
0010
0000
0000
0000
2002
0000
0000
0000
0000
0000
0000
0000
0000
0000
0000
0000
3003
0000
0000
0000
0000
0000
0000
0000
MMMM
0000
0000
0000
0000
0000
0000
0000
0000
0000
0000
0000
0000
0000
0000
0000
,
1000
0000
0000
0000
0001
0000
0000
0000
0020
0030
0000
0000
0000
0000
0000
0000
0020
0030
0000
0000
1000
0000
0000
0000
0200
0300
0000
0000
0000
0000
0000
0000
0200
0300
0000
0000
0001
0000
0000
0000
0020
0030
0000
0000
0000
0000
0000
0000
0020
0030
0000
0000
1000
0000
0000
0000
0100
0000
0000
0000
0000
0000
0000
0000
,
0010
0000
0001
0000
1000
0000
0001
0000
1000
0000
0010
0000
0100
0000
0000
0001
0000
0000
0100
0000
0000
0010
0000
0000
1000
0000
0000
0001
0000
0000
0010
0000
0000
0000
0000
0000
0100
0000
0000
1000
0000
0000
0001
0000
0000
0000
0000
0000
,
1000
0000
0000
0000
0010
0000
0000
0000
0002
0003
0000
0000
0000
0000
0000
0000
0002
0003
0000
0000
0100
0000
0000
0000
1000
0000
0000
0000
0000
0000
0000
0000
0001
0000
0000
0000
0010
0000
0000
0000
2000
3000
0000
0000
0000
0000
0000
0000
2000
3000
0000
0000
0100
0000
0000
0000
0001
0000
0000
0000
0000
0000
0000
0000
,
0110
0000
0000
0000
0000
0000
1001
0000
0000
0000
0000
0000
1000
0000
0100
0000
1000
0000
0010
0000
0000
0000
0000
0000
0100
0000
0001
0000
0010
0000
0001
0000
0000
0000
0000
0000
0100
0000
0000
0010
0000
0000
1000
0000
0000
0000
0000
0000
,
0001
0000
0000
0000
1000
0000
0000
0000
0020
0030
0000
0000
0000
0000
0000
0000
0020
0030
0000
0000
0001
0000
0000
0000
0200
0300
0000
0000
0000
0000
0000
0000
0200
0300
0000
0000
1000
0000
0000
0000
0020
0030
0000
0000
0000
0000
0000
0000
0020
0030
0000
0000
0001
0000
0000
0000
0100
0000
0000
0000
0000
0000
0000
0000
,
0010
0000
1000
0000
0001
0000
1000
0000
0001
0000
0010
0000
0100
0000
0000
1000
0000
0000
0100
0000
0000
0010
0000
0000
0001
0000
0000
1000
0000
0000
0010
0000
0000
0000
0000
0000
0100
0000
0000
0001
0000
0000
1000
0000
0000
0000
0000
0000
,
0001
0000
0000
0000
0010
0000
0000
0000
2000
3000
0000
0000
0000
0000
0000
0000
2000
3000
0000
0000
0100
0000
0000
0000
0001
0000
0000
0000
0000
0000
0000
0000
1000
0000
0000
0000
0010
0000
0000
0000
0002
0003
0000
0000
0000
0000
0000
0000
0002
0003
0000
0000
0100
0000
0000
0000
1000
0000
0000
0000
0000
0000
0000
0000
,
0100
0000
0000
0010
0000
0000
0000
0000
0000
1001
0000
0000
0000
0000
0000
0110
0000
0000
0000
0000
0000
1000
0000
0000
0001
0000
1000
0000
0001
0000
0010
0000
0000
0100
0000
0000
1000
0000
0000
0010
0000
0000
0100
0000
0000
0000
0000
0000
,
0101
0011
0101
0011
1100
1010
1100
1010
,
0101
1100
0101
0011
1100
0101
1100
1010
,
0101
1010
1100
0011
1010
0101
0110
1001
,
1100
0011
0101
1010
0011
1100
0110
1001
,
1000
MMMM
0001
MMMM
0110
MMMM
1001
MMMM
,
1000
0000
0000
0000
0000
0000
0000
0000
0000
0000
0000
0000
0100
0000
0000
0000
0000
0000
0000
0000
0000
0000
0000
0000
0001
0000
0000
0000
0000
0000
0000
0000
0000
0000
0000
0000
0000
0000
0000
0000
0000
0000
0000
0000
0000
0000
0000
0000
0100
0000
0000
0000
0000
0000
0000
0000
0000
0000
0000
0000
0010
0000
0000
0000
0000
0000
0000
0000
0000
0000
0000
0000
0100
0000
0000
0000
0000
0000
0000
0000
1000
0000
0000
0000
0000
0000
0000
0000
0001
0000
0000
0000
0000
0000
0000
0000
1000
0000
0000
0000
0000
0000
0000
0000
0000
0000
0000
0000
0000
0000
0000
0000
0000
0000
0000
0000
0000
0000
0000
0000
0010
0000
0000
0000
0000
0000
0000
0000
0000
0000
0000
0000
0100
0000
0000
0000
0000
0000
0000
0000
0000
0000
0000
0000
0001
0000
0000
0000
0000
0000
0000
0000
0000
0000
0000
0000
0020
0000
0000
0030
0000
0000
0000
0000
0000
0000
0000
0000
0020
0000
0000
0030
0000
0000
0000
0000
0000
0000
0000
0000
1000
0000
0000
0000
0000
0000
0000
0000
0000
0000
0000
0000
,
0001
0000
0000
1000
0000
0000
0100
0000
0000
0000
0000
0000
0010
0000
0000
0001
0000
0000
0100
0000
0010
0000
0100
0000
0010
0000
0000
1000
0000
0000
0100
0000
0000
0000
0000
0000
0110
0000
0000
0000
0000
0000
1001
0000
0000
0000
0000
0000
,
1010
0000
0000
0000
0000
0000
0101
0000
0000
0000
0000
0000
0001
0000
0000
1000
0000
0000
0100
0000
0010
0000
0100
0000
0010
0000
0000
0000
0000
0000
0001
0000
0000
1000
0000
0000
0010
0000
0000
0100
0000
0000
0010
0000
0000
1000
0000
0000
,
0001
0010
0001
0100
0000
0000
0010
0100
0010
1000
0000
0000
0100
1000
0100
0010
0000
0000
0001
0010
0001
1000
0000
0000
,
0001
0000
0000
0000
0000
0000
0000
0000
0000
0000
0000
0000
0100
0000
0000
0000
0000
0000
0000
0000
0000
0000
0000
0000
1000
0000
0000
0000
0000
0000
0000
0000
0000
0000
0000
0000
0000
0000
0000
0000
0000
0000
0000
0000
0000
0000
0000
0000
0100
0000
0000
0000
0000
0000
0000
0000
0000
0000
0000
0000
0010
0000
0000
0000
0000
0000
0000
0000
0000
0000
0000
0000
0100
0000
0000
0000
0000
0000
0000
0000
0001
0000
0000
0000
0000
0000
0000
0000
1000
0000
0000
0000
0000
0000
0000
0000
0001
0000
0000
0000
0000
0000
0000
0000
0000
0000
0000
0000
0000
0000
0000
0000
0000
0000
0000
0000
0000
0000
0000
0000
0010
0000
0000
0000
0000
0000
0000
0000
0000
0000
0000
0000
0100
0000
0000
0000
0000
0000
0000
0000
0000
0000
0000
0000
1000
0000
0000
0000
0000
0000
0000
0000
0000
0000
0000
0000
0020
0000
0000
0030
0000
0000
0000
0000
0000
0000
0000
0000
0020
0000
0000
0030
0000
0000
0000
0000
0000
0000
0000
0000
0001
0000
0000
0000
0000
0000
0000
0000
0000
0000
0000
0000
,
1000
0000
0000
0001
0000
0000
0100
0000
0000
0000
0000
0000
0010
0000
0000
1000
0000
0000
0100
0000
0010
0000
0100
0000
0010
0000
0000
0001
0000
0000
0100
0000
0000
0000
0000
0000
0110
0000
0000
0000
0000
0000
1001
0000
0000
0000
0000
0000
,
0011
0000
0000
0000
0000
0000
1100
0000
0000
0000
0000
0000
1000
0000
0000
0001
0000
0000
0100
0000
0010
0000
0100
0000
0010
0000
0000
0000
0000
0000
1000
0000
0000
0001
0000
0000
0010
0000
0000
0100
0000
0000
0010
0000
0000
0001
0000
0000
,
1000
0010
1000
0100
0000
0000
0010
0100
0010
0001
0000
0000
0100
0001
0100
0010
0000
0000
1000
0010
1000
0001
0000
0000
,
1000
0000
0000
0000
0000
0000
0000
0000
0000
0000
0000
0000
0000
0000
0000
0000
0000
0000
0000
0000
0000
0000
0000
0000
0001
0000
0000
0000
0000
0000
0100
0000
0000
0000
0000
0000
0001
0000
0000
0000
0000
0000
0000
0000
0000
0000
0000
0000
0000
0000
0000
0000
0000
0000
0000
0000
0000
0000
0000
0000
1000
0000
0000
0000
0000
0000
0100
0000
0000
0000
0000
0000
1000
0000
0000
0000
0000
0000
0000
0000
0000
0000
0000
0000
0000
0000
0000
0000
0000
0000
0000
0000
0000
0000
0000
0000
0010
0000
0000
0000
0000
0000
0000
0000
0100
0000
0000
0000
0000
0000
0000
0000
0010
0000
0000
0000
0000
0000
0000
0000
0100
0000
0000
0000
0000
0000
0000
0000
0000
0000
0000
0000
0000
0000
0000
0000
0000
0000
0000
0000
0000
0000
0000
0000
0001
0000
0000
0000
0000
0000
0000
0000
1000
0000
0000
0000
0000
0000
0000
0000
0001
0000
0000
0000
0000
0000
0000
0000
1000
0000
0000
0000
0000
0000
0000
0000
0000
0000
0000
0000
0000
0000
0000
0000
0000
0000
0000
0000
0000
0000
0000
0000
,
0001
0000
0000
0000
0000
0000
0000
0000
0000
0000
0000
0000
0010
0000
0000
0000
0000
0000
0000
0000
0000
0000
0000
0000
0100
0000
0000
0000
0000
0000
0000
0000
0000
0000
0000
0000
0010
0000
0000
0000
0000
0000
0000
0000
0000
0000
0000
0000
0001
0000
0000
0000
0000
0000
0000
0000
0000
0000
0000
0000
1000
0000
0000
0000
0000
0000
0000
0000
0000
0000
0000
0000
0010
0000
0000
0000
0000
0000
0000
0000
0100
0000
0000
0000
0000
0000
0000
0000
0010
0000
0000
0000
0000
0000
0000
0000
1000
0000
0000
0000
0000
0000
0000
0000
0000
0000
0000
0000
0100
0000
0000
0000
0000
0000
0000
0000
0000
0000
0000
0000
0010
0000
0000
0000
0000
0000
0000
0000
0000
0000
0000
0000
0001
0000
0000
0000
0000
0000
0000
0000
0000
0000
0000
0000
1000
0000
0000
0000
0000
0000
0000
0000
0000
0000
0000
0000
0200
0000
0000
0300
0000
0000
0000
0000
0000
0000
0000
0000
0200
0000
0000
0300
0000
0000
0000
0000
0000
0000
0000
0000
0001
0000
0000
0000
0000
0000
0000
0000
0000
0000
0000
0000
,
1000
0000
0000
0000
0000
0000
0000
0000
0000
0000
0000
0000
0100
0000
0000
0000
0000
0000
0000
0000
0000
0000
0000
0000
0010
0000
0000
0000
0000
0000
0000
0000
0000
0000
0000
0000
0100
0000
0000
0000
0000
0000
0000
0000
0000
0000
0000
0000
1000
0000
0000
0000
0000
0000
0000
0000
0000
0000
0000
0000
0001
0000
0000
0000
0000
0000
0000
0000
0000
0000
0000
0000
0010
0000
0000
0000
0000
0000
0000
0000
0100
0000
0000
0000
0000
0000
0000
0000
0010
0000
0000
0000
0000
0000
0000
0000
0001
0000
0000
0000
0000
0000
0000
0000
0000
0000
0000
0000
1000
0000
0000
0000
0000
0000
0000
0000
0000
0000
0000
0000
0020
0000
0000
0030
0000
0000
0000
0000
0000
0000
0000
0000
0020
0000
0000
0030
0000
0000
0000
0000
0000
0000
0000
0000
0001
0000
0000
0000
0000
0000
0000
0000
0000
0000
0000
0000
1000
0000
0000
0000
0000
0000
0000
0000
0000
0000
0000
0000
0020
0000
0000
0030
0000
0000
0000
0000
0000
0000
0000
0000
0020
0000
0000
0030
0000
0000
0000
0000
0000
0000
0000
0000
,
0100
0000
0000
0000
0000
0000
0000
0000
0000
0000
0000
0000
1000
0000
0000
0000
0000
0000
0000
0000
0000
0000
0000
0000
0010
0000
0000
0000
0000
0000
0000
0000
0000
0000
0000
0000
0100
0000
0000
0000
0000
0000
0000
0000
0000
0000
0000
0000
0001
0000
0000
0000
0000
0000
0000
0000
0000
0000
0000
0000
1000
0000
0000
0000
0000
0000
0000
0000
0000
0000
0000
0000
0100
0000
0000
0000
0000
0000
0000
0000
0010
0000
0000
0000
0000
0000
0000
0000
0100
0000
0000
0000
0000
0000
0000
0000
1000
0000
0000
0000
0000
0000
0000
0000
0000
0000
0000
0000
0001
0000
0000
0000
0000
0000
0000
0000
0000
0000
0000
0000
0200
0000
0000
0300
0000
0000
0000
0000
0000
0000
0000
0000
0200
0000
0000
0300
0000
0000
0000
0000
0000
0000
0000
0000
1000
0000
0000
0000
0000
0000
0000
0000
0000
0000
0000
0000
0020
0000
0000
0030
0000
0000
0000
0000
0000
0000
0000
0000
0020
0000
0000
0030
0000
0000
0000
0000
0000
0000
0000
0000
0001
0000
0000
0000
0000
0000
0000
0000
0000
0000
0000
0000
,
1000
0010
0100
0010
0000
0000
1000
0001
0010
0001
0000
0000
0100
0010
1000
0001
0000
0000
0010
0100
1000
0001
0000
0000
,
1000
0000
0000
0000
0000
0000
0000
0000
0000
0000
0000
0000
0010
0000
0000
0000
0000
0000
0000
0000
0000
0000
0000
0000
0100
0000
0000
0000
0000
0000
0000
0000
0000
0000
0000
0000
0010
0000
0000
0000
0000
0000
0000
0000
0000
0000
0000
0000
1000
0000
0000
0000
0000
0000
0000
0000
0000
0000
0000
0000
0001
0000
0000
0000
0000
0000
0000
0000
0000
0000
0000
0000
0010
0000
0000
0000
0000
0000
0000
0000
0100
0000
0000
0000
0000
0000
0000
0000
0010
0000
0000
0000
0000
0000
0000
0000
0001
0000
0000
0000
0000
0000
0000
0000
0000
0000
0000
0000
0100
0000
0000
0000
0000
0000
0000
0000
0000
0000
0000
0000
0010
0000
0000
0000
0000
0000
0000
0000
0000
0000
0000
0000
1000
0000
0000
0000
0000
0000
0000
0000
0000
0000
0000
0000
0001
0000
0000
0000
0000
0000
0000
0000
0000
0000
0000
0000
0200
0000
0000
0300
0000
0000
0000
0000
0000
0000
0000
0000
0200
0000
0000
0300
0000
0000
0000
0000
0000
0000
0000
0000
1000
0000
0000
0000
0000
0000
0000
0000
0000
0000
0000
0000
,
0001
0000
0000
0000
0000
0000
0000
0000
0000
0000
0000
0000
0100
0000
0000
0000
0000
0000
0000
0000
0000
0000
0000
0000
0010
0000
0000
0000
0000
0000
0000
0000
0000
0000
0000
0000
0100
0000
0000
0000
0000
0000
0000
0000
0000
0000
0000
0000
0001
0000
0000
0000
0000
0000
0000
0000
0000
0000
0000
0000
1000
0000
0000
0000
0000
0000
0000
0000
0000
0000
0000
0000
0010
0000
0000
0000
0000
0000
0000
0000
0100
0000
0000
0000
0000
0000
0000
0000
0010
0000
0000
0000
0000
0000
0000
0000
1000
0000
0000
0000
0000
0000
0000
0000
0000
0000
0000
0000
0001
0000
0000
0000
0000
0000
0000
0000
0000
0000
0000
0000
0020
0000
0000
0030
0000
0000
0000
0000
0000
0000
0000
0000
0020
0000
0000
0030
0000
0000
0000
0000
0000
0000
0000
0000
1000
0000
0000
0000
0000
0000
0000
0000
0000
0000
0000
0000
0001
0000
0000
0000
0000
0000
0000
0000
0000
0000
0000
0000
0020
0000
0000
0030
0000
0000
0000
0000
0000
0000
0000
0000
0020
0000
0000
0030
0000
0000
0000
0000
0000
0000
0000
0000
,
0100
0000
0000
0000
0000
0000
0000
0000
0000
0000
0000
0000
0001
0000
0000
0000
0000
0000
0000
0000
0000
0000
0000
0000
0010
0000
0000
0000
0000
0000
0000
0000
0000
0000
0000
0000
0100
0000
0000
0000
0000
0000
0000
0000
0000
0000
0000
0000
1000
0000
0000
0000
0000
0000
0000
0000
0000
0000
0000
0000
0001
0000
0000
0000
0000
0000
0000
0000
0000
0000
0000
0000
0100
0000
0000
0000
0000
0000
0000
0000
0010
0000
0000
0000
0000
0000
0000
0000
0100
0000
0000
0000
0000
0000
0000
0000
0001
0000
0000
0000
0000
0000
0000
0000
0000
0000
0000
0000
1000
0000
0000
0000
0000
0000
0000
0000
0000
0000
0000
0000
0200
0000
0000
0300
0000
0000
0000
0000
0000
0000
0000
0000
0200
0000
0000
0300
0000
0000
0000
0000
0000
0000
0000
0000
0001
0000
0000
0000
0000
0000
0000
0000
0000
0000
0000
0000
0020
0000
0000
0030
0000
0000
0000
0000
0000
0000
0000
0000
0020
0000
0000
0030
0000
0000
0000
0000
0000
0000
0000
0000
1000
0000
0000
0000
0000
0000
0000
0000
0000
0000
0000
0000
,
0001
0010
0100
0010
0000
0000
0001
1000
0010
1000
0000
0000
0100
0010
0001
1000
0000
0000
0010
0100
0001
1000
0000
0000
,
0100
0000
0000
0000
0000
0000
0000
0000
0000
0000
0000
0000
0000
0000
0000
0000
0000
0000
0000
0000
0000
0000
0000
0000
0010
0000
0000
0000
0000
0000
0100
0000
0000
0000
0000
0000
0010
0000
0000
0000
0000
0000
0000
0000
0000
0000
0000
0000
0000
0000
0000
0000
0000
0000
0000
0000
0000
0000
0000
0000
0001
0000
0000
0000
0000
0000
1000
0000
0000
0000
0000
0000
0001
0000
0000
0000
0000
0000
0000
0000
0000
0000
0000
0000
0000
0000
0000
0000
0000
0000
0000
0000
0000
0000
0000
0000
1000
0000
0000
0000
0000
0000
0000
0000
0010
0000
0000
0000
0000
0000
0000
0000
0100
0000
0000
0000
0000
0000
0000
0000
0001
0000
0000
0000
0000
0000
0000
0000
0000
0000
0000
0000
0000
0000
0000
0000
0000
0000
0000
0000
0000
0000
0000
0000
0001
0000
0000
0000
0000
0000
0000
0000
0010
0000
0000
0000
0000
0000
0000
0000
0100
0000
0000
0000
0000
0000
0000
0000
1000
0000
0000
0000
0000
0000
0000
0000
0000
0000
0000
0000
0000
0000
0000
0000
0000
0000
0000
0000
0000
0000
0000
0000
,
0010
0100
0001
0010
0000
0000
0100
1000
0010
0100
0000
0000
0001
1000
0100
0010
0000
0000
0001
1000
0010
0100
0000
0000
,
0001
0000
0000
0000
0000
0000
0000
0000
0000
0000
0000
0000
0000
0000
0000
0000
0000
0000
0000
0000
0000
0000
0000
0000
1000
0000
0000
0000
0000
0000
0100
0000
0000
0000
0000
0000
0010
0000
0000
0000
0000
0000
0000
0000
0000
0000
0000
0000
0000
0000
0000
0000
0000
0000
0000
0000
0000
0000
0000
0000
0001
0000
0000
0000
0000
0000
0100
0000
0000
0000
0000
0000
0010
0000
0000
0000
0000
0000
0000
0000
0000
0000
0000
0000
0000
0000
0000
0000
0000
0000
0000
0000
0000
0000
0000
0000
1000
0000
0000
0000
0000
0000
0000
0000
0001
0000
0000
0000
0000
0000
0000
0000
0010
0000
0000
0000
0000
0000
0000
0000
0100
0000
0000
0000
0000
0000
0000
0000
0000
0000
0000
0000
1000
0000
0000
0000
0000
0000
0000
0000
0000
0000
0000
0000
0010
0000
0000
0000
0000
0000
0100
0000
0000
0000
0000
0000
0010
0000
0000
0000
0000
0000
0100
0000
0000
0000
0000
0000
0010
0000
0000
0000
0000
0000
0100
0000
0000
0000
0000
0000
0010
0000
0000
0000
0000
0000
0100
0000
0000
0000
0000
0000
,
0020
0000
0000
0000
0000
0030
0110
1001
,
MMMM
0000
0000
0000
;
