#VERSION:0.83;
#TITLE:Ritalin;
#SUBTITLE:;
#ARTIST:Rob Paravonian;
#TITLETRANSLIT:;
#SUBTITLETRANSLIT:;
#ARTISTTRANSLIT:;
#GENRE:;
#ORIGIN:;
#CREDIT:azureHaights;
#BANNER:Ritalin-bn.png;
#BACKGROUND:Ritalin-bg.png;
#PREVIEWVID:;
#JACKET:Ritalin-jacket.png;
#CDIMAGE:;
#DISCIMAGE:;
#LYRICSPATH:Ritalin.lrc;
#CDTITLE:Ritalin-cdtitle.png;
#MUSIC:Ritalin.ogg;
#OFFSET:0.120000;
#SAMPLESTART:30.183001;
#SAMPLELENGTH:19.393999;
#SELECTABLE:YES;
#BPMS:0.000=198.000,
165.000=197.625,
166.000=186.938,
167.000=186.250,
168.000=182.250,
169.000=178.250,
170.000=174.250,
171.000=170.250,
172.000=169.250,
173.000=163.250,
174.000=160.250,
175.000=155.250,
176.000=154.250,
177.000=148.250,
178.000=145.250,
179.000=141.250,
180.000=138.250,
181.000=133.250,
182.000=131.250,
183.000=125.250,
185.000=118.250,
186.000=116.250,
187.000=111.250,
188.000=109.250,
189.000=103.250,
190.000=102.250,
191.000=97.250,
192.000=94.000,
193.000=89.000,
194.000=87.000,
195.000=82.000,
196.000=80.000,
224.000=198.000,
300.000=197.000,
301.000=191.000,
302.000=185.000,
303.000=174.000,
304.000=158.000,
305.000=145.000,
306.000=130.000,
307.000=107.000,
308.000=93.000,
309.000=87.500,
310.000=83.000,
311.000=80.000;
#STOPS:;
#DELAYS:;
#WARPS:;
#TIMESIGNATURES:0.000=4=4;
#TICKCOUNTS:0.000=4;
#COMBOS:0.000=1;
#SPEEDS:0.000=1.000=0.000=0;
#SCROLLS:0.000=1.000;
#FAKES:;
#LABELS:0.000=Song Start;
#BGCHANGES:;
#KEYSOUNDS:;
#ATTACKS:
;

//---------------dance-single - ----------------
#NOTEDATA:;
#CHARTNAME:;
#STEPSTYPE:dance-single;
#DESCRIPTION:;
#CHARTSTYLE:;
#DIFFICULTY:Easy;
#METER:7;
#RADARVALUES:0.293648,0.327966,0.000000,0.217251,0.000000,246.000000,246.000000,0.000000,26.000000,0.000000,0.000000,0.000000,0.000000,0.000000,0.293648,0.327966,0.000000,0.217251,0.000000,246.000000,246.000000,0.000000,26.000000,0.000000,0.000000,0.000000,0.000000,0.000000;
#CREDIT:azureHaights;
#NOTES:
// measure 0
0000
0000
0000
0000
,  // measure 1
0000
0000
0000
0000
,  // measure 2
0000
0000
0000
0000
,  // measure 3
0000
0000
0000
0000
,  // measure 4
0000
0000
0000
0000
,  // measure 5
1000
0001
0100
0001
,  // measure 6
0001
0000
1000
0000
0100
0000
1000
0001
,  // measure 7
1000
0001
0010
0001
,  // measure 8
0001
0000
1000
0000
0010
0000
1000
0001
,  // measure 9
0010
0001
0100
0001
,  // measure 10
1000
1000
0010
0000
,  // measure 11
0010
1000
0100
1000
,  // measure 12
0001
0001
0010
0000
,  // measure 13
0100
1000
0001
0100
,  // measure 14
0001
1000
0100
0000
,  // measure 15
0010
0001
1000
0010
,  // measure 16
1000
0001
0010
0000
,  // measure 17
1000
0100
0010
0001
,  // measure 18
1000
0010
0100
0001
,  // measure 19
1000
0100
0010
0001
,  // measure 20
0200
0000
0300
0000
,  // measure 21
0001
0100
0010
1000
,  // measure 22
0001
0010
0100
1000
,  // measure 23
0001
0100
0010
1000
,  // measure 24
0200
0000
0300
0000
,  // measure 25
1000
0010
1000
0001
,  // measure 26
0010
0001
0100
0100
,  // measure 27
0010
1000
0010
0100
,  // measure 28
0002
0000
0003
0000
,  // measure 29
0010
0100
1000
1000
,  // measure 30
0010
0100
0001
0001
,  // measure 31
1000
0000
0100
0000
,  // measure 32
1000
0010
0100
0010
,  // measure 33
1000
0100
0000
2000
0000
0000
3000
0000
,  // measure 34
0002
0000
1000
0003
,  // measure 35
2000
0000
0001
3000
,  // measure 36
0002
0000
0100
0003
,  // measure 37
0001
0100
0000
0020
0000
0000
0030
0000
,  // measure 38
0200
0000
0010
0300
,  // measure 39
0020
0000
0100
0030
,  // measure 40
0200
0000
0001
0300
,  // measure 41
0002
0003
2000
3000
0000
0000
2000
0000
0000
0000
0000
0000
3000
0000
0000
0000
,  // measure 42
0200
0000
0010
0300
,  // measure 43
0020
0000
0001
0030
,  // measure 44
0002
0000
0100
0003
,  // measure 45
0100
0001
0000
0020
0000
0000
0030
0000
,  // measure 46
0002
0000
1000
0003
,  // measure 47
2000
0000
0001
3000
,  // measure 48
0002
0000
1000
0003
,  // measure 49
1000
0001
0100
0001
,  // measure 50
0010
0001
0100
0000
0001
0000
1000
0000
,  // measure 51
0001
1000
0100
1000
,  // measure 52
0100
1000
0010
0000
1000
0000
0001
0000
,  // measure 53
0010
0001
0100
0001
,  // measure 54
0010
0100
1000
0000
0001
0000
1000
0000
,  // measure 55
0010
1000
0001
0100
,  // measure 56
0002
0003
0000
0000
0000
0000
0000
0000
0100
0000
0000
0000
0000
0000
0000
0000
,  // measure 57
0001
0100
0001
0100
,  // measure 58
0010
1000
0001
0010
,  // measure 59
0100
1000
0001
0100
,  // measure 60
0010
1000
0100
1000
,  // measure 61
0010
0010
0100
0100
,  // measure 62
0001
1000
0010
0100
,  // measure 63
0001
1000
0100
0010
,  // measure 64
0001
0100
0001
0010
,  // measure 65
0001
0001
1000
1000
,  // measure 66
0100
1000
0010
1000
,  // measure 67
0001
0010
0001
0100
,  // measure 68
0001
0001
1000
1000
,  // measure 69
0100
0100
1000
1000
,  // measure 70
0001
0010
0100
0000
,  // measure 71
1000
0010
0100
0000
,  // measure 72
0001
0000
1000
0000
,  // measure 73
0100
0010
0001
0100
,  // measure 74
0001
0100
0000
0020
0000
0000
0030
0000
,  // measure 75
0100
0001
0000
0020
0000
0000
0030
0000
,  // measure 76
0001
0100
0000
0020
0000
0000
0030
0000
,  // measure 77
1000
0100
1000
0100
,  // measure 78
2000
0000
3000
0000
;

//---------------dance-single - ----------------
#NOTEDATA:;
#CHARTNAME:;
#STEPSTYPE:dance-single;
#DESCRIPTION:;
#CHARTSTYLE:;
#DIFFICULTY:Medium;
#METER:9;
#RADARVALUES:0.434503,0.459884,0.133693,0.158761,0.029245,364.000000,348.000000,16.000000,19.000000,0.000000,0.000000,0.000000,0.000000,0.000000,0.434503,0.459884,0.133693,0.158761,0.029245,364.000000,348.000000,16.000000,19.000000,0.000000,0.000000,0.000000,0.000000,0.000000;
#CREDIT:azureHaights;
#NOTES:
// measure 0
0000
0000
0000
0000
,  // measure 1
0000
0000
0000
0000
,  // measure 2
0000
0000
0000
0000
,  // measure 3
0000
0000
0000
0000
,  // measure 4
0000
0000
0000
0000
,  // measure 5
1000
0000
0100
0000
1000
0100
0010
0000
,  // measure 6
0001
0000
0100
0000
0001
0100
0010
0000
,  // measure 7
1000
0000
0010
0000
0100
0001
0100
0000
,  // measure 8
0001
0100
0001
0000
0010
0001
0010
0000
,  // measure 9
0100
0000
0010
0000
0100
1000
0100
0000
,  // measure 10
0010
0001
0010
0001
0010
0000
0100
0000
,  // measure 11
1000
0100
1000
0100
1000
0000
0001
0000
,  // measure 12
0100
0001
0100
0001
0100
0000
0010
0000
,  // measure 13
1000
0100
0001
0000
0001
0100
1000
0000
,  // measure 14
1000
0100
0010
0000
0001
0000
1000
0000
,  // measure 15
0001
0100
0010
0000
0010
0100
0001
0000
,  // measure 16
0001
0100
1000
0000
0100
0000
0010
0000
,  // measure 17
1000
0000
0100
0010
0100
0000
1000
0100
,  // measure 18
1000
0000
0001
1000
0001
0000
0100
0001
,  // measure 19
0100
0010
1000
0010
,  // measure 20
1000
0001
0010
0100
,  // measure 21
1000
0000
0001
1000
0001
0000
0100
0001
,  // measure 22
0100
0000
0010
1000
0010
0000
1000
0001
,  // measure 23
1000
0100
0010
0001
,  // measure 24
0100
0010
1000
1000
,  // measure 25
0001
0000
0100
0001
1000
0000
0100
0000
,  // measure 26
1000
0000
0100
1000
0001
0000
0010
0000
,  // measure 27
0001
0100
0010
0000
1000
0100
0010
0000
,  // measure 28
0001
0001
1000
1000
,  // measure 29
0010
0100
0001
0101
,  // measure 30
0001
1000
0100
1100
,  // measure 31
1100
0000
1100
0000
,  // measure 32
1100
1100
1001
1001
,  // measure 33
1000
0100
0010
0002
0000
0000
0003
0000
,  // measure 34
0001
0010
0100
2000
0000
0000
3000
0000
,  // measure 35
1000
0100
0010
0002
0000
0000
0003
0000
,  // measure 36
0001
0100
0010
0100
,  // measure 37
0001
1000
0100
0020
0000
0000
0030
0000
,  // measure 38
0100
1000
0001
0020
0000
0000
0030
0000
,  // measure 39
0001
1000
0100
0020
0000
0000
0030
0000
,  // measure 40
0001
1000
0001
0100
,  // measure 41
0002
0003
2000
3000
0100
0000
2000
0000
0000
0000
0000
0000
3000
0000
0000
0000
,  // measure 42
1000
0100
1000
0002
0000
0000
0003
0000
,  // measure 43
0001
0100
0010
0200
0000
0000
0300
0000
,  // measure 44
0001
0100
0001
1000
,  // measure 45
0100
0010
0001
2000
0000
0000
3000
0000
,  // measure 46
0010
0100
0001
2000
0000
0000
3000
0000
,  // measure 47
0100
0010
0001
0200
0000
0000
0300
0000
,  // measure 48
0001
0000
0001
0000
0001
0000
0001
1000
,  // measure 49
0100
0000
0000
1000
0100
0000
0010
0000
0001
0000
0000
0000
0001
0000
0000
0000
,  // measure 50
0100
0000
0000
0001
0100
0000
0010
0000
1000
0000
0000
0000
0100
0000
0000
0000
,  // measure 51
1000
0000
0000
0100
1000
0000
0010
0000
0100
0000
0000
0000
0100
0000
0000
0000
,  // measure 52
0001
0000
0000
0100
0001
0000
0010
0000
0100
0000
0000
0000
0100
0000
0000
0000
,  // measure 53
1000
0000
0000
0100
0010
0000
0100
0000
1000
0000
0000
0000
1000
0000
0000
0000
,  // measure 54
0001
0000
0000
0100
0010
0000
0100
0000
0001
0000
0000
0000
0001
0000
0000
0000
,  // measure 55
0010
0000
0000
0001
1000
0000
0100
0000
0010
0000
0000
0000
0010
0000
0000
0000
,  // measure 56
0002
0003
0000
0000
0000
0000
0000
0000
0100
0000
0000
0000
0000
0000
0000
0000
,  // measure 57
0001
0100
0101
0101
,  // measure 58
0001
0000
0100
0000
0010
0100
0010
0000
,  // measure 59
1000
0000
0100
0000
0010
0100
0010
0000
,  // measure 60
0001
0000
0100
0000
0001
0100
0001
0000
,  // measure 61
1000
0001
1000
0000
0100
1000
0100
0000
,  // measure 62
1000
0000
0100
0000
1000
0100
1000
0000
,  // measure 63
0001
0000
0010
0000
0100
1000
0100
0000
,  // measure 64
1000
0000
1000
0000
0001
0100
0001
0000
,  // measure 65
1000
0100
1000
0000
0001
0100
0001
0000
,  // measure 66
1000
0000
0100
0000
1000
0100
1000
0000
,  // measure 67
0100
0010
0001
0000
0010
0001
0010
0000
,  // measure 68
0001
0000
1000
0000
0001
1000
0010
0000
,  // measure 69
0100
0100
0001
0001
,  // measure 70
1000
0100
0010
0100
1000
0000
0000
0000
,  // measure 71
0001
0100
0010
0100
0001
0000
0000
0000
,  // measure 72
1001
0000
1001
0000
,  // measure 73
1001
1001
1001
1001
,  // measure 74
0001
0100
0010
0200
0000
0000
0300
0000
,  // measure 75
0001
0100
0010
2000
0000
0000
3000
0000
,  // measure 76
0001
0100
0001
0020
0000
0000
0030
0000
,  // measure 77
0001
0100
0100
0100
,  // measure 78
0200
0000
0000
0000
0000
0300
0000
0000
;

//---------------dance-single - XO FS BR-----------------
#NOTEDATA:;
#CHARTNAME:;
#STEPSTYPE:dance-single;
#DESCRIPTION:XO FS BR-;
#CHARTSTYLE:;
#DIFFICULTY:Hard;
#METER:13;
#RADARVALUES:0.569390,0.755523,0.192184,0.083558,0.162939,477.000000,454.000000,23.000000,10.000000,7.000000,0.000000,0.000000,0.000000,0.000000,0.569390,0.755523,0.192184,0.083558,0.162939,477.000000,454.000000,23.000000,10.000000,7.000000,0.000000,0.000000,0.000000,0.000000;
#CREDIT:azureHaights;
#NOTES:
// measure 0
0000
0000
0000
0000
,  // measure 1
0000
0000
0000
0000
,  // measure 2
0000
0000
0000
0000
,  // measure 3
0000
0000
0000
0000
,  // measure 4
0000
0000
0000
0000
,  // measure 5
1000
0000
1000
0100
0010
0001
0100
2000
,  // measure 6
0000
3000
0000
1000
0100
0001
1000
0100
,  // measure 7
0000
0100
1000
0100
0010
0001
0010
0001
,  // measure 8
1000
0010
1000
0010
0100
0001
0100
0001
,  // measure 9
1000
0000
1000
0100
0000
0100
1000
0010
,  // measure 10
0100
0001
0100
0020
0000
0030
0000
1000
,  // measure 11
0100
0001
0100
1000
0000
1000
0000
0001
,  // measure 12
0010
1000
0010
0001
0000
0001
0000
1000
,  // measure 13
0001
0100
0010
0001
0000
0010
0000
1000
,  // measure 14
0100
0010
1000
0010
0000
0100
0000
1000
,  // measure 15
0001
1000
0100
0010
0000
0001
0000
0100
,  // measure 16
0010
0000
1000
0000
0000
0000
0100
0000
0000
0000
0010
0000
0100
0000
1000
0100
,  // measure 17
1000
0000
0100
0010
0100
0000
1000
0100
,  // measure 18
0000
0100
1000
0100
0000
0010
0000
0100
,  // measure 19
0010
0000
0001
0010
0001
0100
0000
0100
,  // measure 20
0000
0000
0100
0000
0000
0000
0100
0000
0000
0000
0100
0000
0000
0000
0001
0100
,  // measure 21
0001
0000
1000
0000
0001
0000
1000
0100
,  // measure 22
1000
0001
0100
0001
0000
1000
0010
1000
,  // measure 23
0000
0001
0010
0001
0000
1000
0001
1000
,  // measure 24
0000
0000
0010
0000
0000
0000
0010
0000
0000
0000
0010
0000
0000
0000
0010
0100
,  // measure 25
0010
0000
1000
0001
0000
0100
0000
0001
,  // measure 26
0000
0010
0001
0100
0000
0001
0010
0000
,  // measure 27
0100
1000
0100
0000
0010
0001
0010
0000
,  // measure 28
0001
0000
0000
0000
1000
0000
0000
0000
0100
0000
0000
0000
1000
0000
0100
0010
,  // measure 29
0100
0000
0010
0000
0001
0100
0010
0000
,  // measure 30
1000
0000
0100
0000
1000
0100
0010
0000
,  // measure 31
1001
0000
0110
0000
,  // measure 32
1001
0110
1001
1100
,  // measure 33
1000
0100
0010
0001
0000
0001
0000
0001
,  // measure 34
0100
0010
0100
1000
0000
1000
0000
1000
,  // measure 35
0100
0010
0100
0001
0000
0001
0000
0001
,  // measure 36
0010
0100
0010
0000
0110
0000
1001
0000
,  // measure 37
0001
1000
0001
0010
0000
0010
0000
0010
,  // measure 38
0100
0010
0100
1000
0000
1000
0000
1000
,  // measure 39
0001
1000
0001
0100
0000
0100
0000
0100
,  // measure 40
0010
0100
0010
0000
0110
0000
1001
0000
,  // measure 41
0002
0003
0000
2000
3000
0000
0100
0000
0000
0010
0000
0000
0000
0000
0000
0010
0000
0000
0000
0000
0000
0001
0000
0000
,  // measure 42
0100
1000
0100
0001
0000
0001
0000
0001
,  // measure 43
1000
0100
1000
0001
0000
0001
0000
0001
,  // measure 44
0100
0001
0100
0000
0101
0000
1001
0000
,  // measure 45
0001
0100
0010
1000
0000
1000
0000
1000
,  // measure 46
0100
0010
0001
0100
0000
0100
0000
0100
,  // measure 47
1000
0100
0001
1000
0000
1000
0000
1000
,  // measure 48
0001
0000
1000
0000
0001
0000
0000
0000
1000
0000
0000
0000
0001
0000
1000
1000
,  // measure 49
0100
0000
0000
1000
0100
00M0
0100
0000
0001
0000
0010
0010
0001
0001
0100
0100
,  // measure 50
0001
0000
0000
0001
0100
00M0
0100
0000
1000
0000
0010
0010
1000
1000
0100
0100
,  // measure 51
1000
0000
0000
1000
0100
00M0
0100
0000
0010
0000
0010
0010
1000
1000
0001
0001
,  // measure 52
0010
0000
0000
0010
0100
M000
0100
0000
0001
0000
1000
1000
0001
0001
0100
0100
,  // measure 53
0010
0000
0000
0010
0100
M000
0100
0000
1000
0000
1000
1000
0100
0100
0001
0001
,  // measure 54
0100
0000
0000
0100
0010
000M
0010
0000
1000
0000
0001
0001
0100
0100
0010
0010
,  // measure 55
1000
0000
0000
1000
0010
0M00
0010
0000
0001
0000
1000
1000
0100
0100
1000
0000
,  // measure 56
2200
3300
0000
0000
0000
0000
0000
0000
1001
0000
0000
0000
0000
0000
0000
0000
,  // measure 57
0101
1001
0110
1001
,  // measure 58
0001
1000
0100
1000
0001
1000
0100
1000
,  // measure 59
0001
0010
0001
1000
0001
0010
0001
1000
,  // measure 60
0001
0000
0100
0010
0000
1000
0001
0100
,  // measure 61
0001
0000
0100
0001
0000
0100
0010
1000
,  // measure 62
0010
0000
0010
0100
0001
0010
1000
0010
,  // measure 63
0000
0001
1000
0000
0010
0001
0010
1000
,  // measure 64
0000
1000
0100
0000
0010
0001
0100
0001
,  // measure 65
1000
0000
0100
1000
0000
0001
1000
0000
,  // measure 66
0001
0000
0010
0001
0010
0000
0100
0010
,  // measure 67
0100
0000
1000
0100
1000
0000
0001
1000
,  // measure 68
0001
0100
0000
0010
0100
0001
0010
0000
,  // measure 69
0001
0010
0100
0000
1000
1000
0100
0000
,  // measure 70
1000
0100
1000
0100
1000
0100
0010
0001
,  // measure 71
0100
0001
0100
0001
0100
0001
1000
0010
,  // measure 72
0100
0000
0001
0000
,  // measure 73
0101
1001
1010
1100
,  // measure 74
2000
3000
0000
0200
0300
0000
0020
0030
0000
0001
0000
0000
0000
0000
0000
0001
0000
0000
0000
0000
0000
0001
0000
0000
,  // measure 75
0100
0010
0000
0010
0000
0010
0000
1000
,  // measure 76
0100
0010
0000
0001
0000
0001
0000
0001
,  // measure 77
0200
0001
0001
0301
,  // measure 78
0100
0000
0000
0000
0000
1001
0000
0000
;
