#TITLE:リンゴロジック(green apple rmx);
#SUBTITLE:;
#ARTIST:Dormir remixed by m@sumi;
#TITLETRANSLIT:Ringo logic(green apple rmx);
#SUBTITLETRANSLIT:;
#ARTISTTRANSLIT:;
#GENRE:;
#CREDIT:;
#MUSIC:Ringo logic(green apple rmx).ogg;
#BANNER:Ringo logic(green apple rmx).png;
#BACKGROUND:Ringo logic(green apple rmx)-bg.png;
#CDTITLE:;
#SAMPLESTART:63.775;
#SAMPLELENGTH:15.000;
#SELECTABLE:YES;
#OFFSET:-0.040;
#BPMS:0.000=128.000
,10.000=256.000
,61.000=128.000
,97.000=256.000
,121.000=128.000
,133.000=256.000
,194.000=128.000
,198.000=256.000
,307.000=128.000
,329.500=256.000
,378.000=128.000
;
#STOPS:172.000=0.469
,176.000=0.469
,301.000=1.405
,329.500=0.586
;
#BGCHANGES:;
#FGCHANGES:;

//--------------- dance-single - Princess Pamela ----------------
#NOTES:
     dance-single:
     Princess Pamela:
     Medium:
     10:
     0,0,0,0,0:
0000
0000
0000
0000
,
0000
0000
0000
0000
,
0000
0000
0002
0000
,
0000
0000
0000
1003
,
0000
1000
0010
0000
,
0010
1000
0000
1000
,
0001
0000
0001
1000
,
0000
0100
1000
0001
,
0000
0100
0000
0001
,
1000
0100
0010
0000
,
0010
0001
0000
0001
,
0100
0000
0100
0001
,
0000
0001
1000
0000
,
0010
1000
0001
0000
,
0010
0000
0000
0010
0000
0000
0100
0000
,
1000
0000
0002
0000
0000
0003
0000
0100
,
0020
0000
1030
0010
1000
0000
0001
0000
,
0010
0001
0010
0000
0100
0000
1000
0100
,
0000
0100
2000
0000
0000
3000
0000
0001
,
0100
0000
0001
0010
0100
0010
0001
0000
,
1000
0001
1000
0010
0100
0000
0100
0001
,
0000
0000
1001
0000
1000
0100
0010
0000
,
1001
0000
0001
0100
0010
0000
1001
0000
,
1000
0010
0100
0000
1001
0000
0001
0010
,
0100
0110
0000
0010
,
0001
0000
0001
0100
,
0000
0010
1000
0001
,
0100
0010
0000
0010
,
1000
0000
1000
0100
,
0000
0010
0001
1000
,
0100
0000
0020
0000
0030
0002
0000
0003
,
0200
0000
0300
0020
0000
0030
2000
0000
,
3000
0200
0000
0300
0020
0000
0030
0002
,
0000
0003
1001
0000
0000
0000
1000
0000
,
0010
1000
0000
1001
,
0000
0001
0100
0001
,
0000
1001
0000
1000
,
0100
1000
0000
0001
,
0000
0001
0000
0000
0020
0000
0000
0000
,
0030
1001
0000
0000
,
0110
0000
0000
1001
,
0000
0000
0110
0000
,
0000
0000
1000
0000
0000
0001
0000
0000
,
1001
0010
0100
0010
,
0110
0000
0000
0000
2002
0000
0000
3003
,
0000
0000
0000
0000
0000
1000
0000
0000
,
2200
0000
0000
3300
0000
0000
0000
0000
,
0001
0000
0202
0303
,
1000
0001
2002
0000
,
0000
0000
0000
0000
,
0000
0000
0000
0000
,
3003
0000
1000
0100
,
1000
0001
0100
0001
,
1000
0010
1000
0001
,
0010
0001
2000
3020
,
0230
0302
0003
0000
,
0010
0001
0001
0100
,
0010
0010
1000
0100
,
0010
0001
0100
0010
,
1000
0001
0010
0001
,
1000
0010
2000
3200
,
0320
0032
0003
0000
,
1000
0000
0010
1000
0010
0000
0100
0000
,
0001
0000
1001
0000
,
1000
0100
0000
1001
,
0000
0001
0100
0000
,
1001
1001
0000
0010
,
0000
0110
0000
1000
,
0001
0010
0000
1001
,
0000
1100
0000
1001
,
0000
0101
0000
1001
,
0000
1000
1010
0000
,
0100
0001
0000
0011
,
0000
0001
0100
0100
,
0010
0000
0000
0000
0000
0000
0010
0000
0000
1000
0000
0001
,
0000
1000
0000
0100
0000
0000
0000
0000
0000
0000
0000
0000
,
1000
0001
1000
0000
0001
0000
1001
0000
,
0000
0000
0000
0000
,
0000
0000
0000
0000
,
0000
0000
0000
0002
,
0003
0020
0000
0030
0200
0000
0300
2000
,
0000
3000
0020
0000
0030
0200
0000
0300
,
0001
1000
0100
0010
1001
0000
0000
0001
,
0000
0100
0001
0000
0100
0000
0000
0000
,
1001
0000
0000
1000
0000
0100
1000
0000
,
0001
0000
2000
3020
,
0230
0302
0003
0010
,
0001
0100
0001
1000
,
0100
0000
1000
0000
0001
0000
0000
0010
,
0000
0001
1000
0000
0010
0000
0000
0000
,
1000
0000
0000
0010
0000
1000
0001
0000
,
0010
0000
0200
2300
,
3002
0023
0030
0001
,
0100
0000
0010
0000
1000
0000
0010
0100
,
0010
0100
0002
0000
,
0003
0010
0200
0000
0000
2300
0000
0000
,
3002
0000
0000
0000
0003
0100
0020
0000
,
1030
0001
1000
0002
0000
0000
0000
0003
,
0000
0020
0000
0000
0000
0030
0000
0200
,
0000
0000
0000
0000
0000
0000
0300
0000
0000
0000
1000
0000
0000
0001
0000
0000
,
1000
0000
0001
0000
0000
1000
0000
0000
0000
0000
0000
0000
0000
0000
0000
0000
;

//--------------- dance-single - Princess Pamela ----------------
#NOTES:
     dance-single:
     Princess Pamela:
     Hard:
     15:
     0,0,0,0,0:
0000
0000
0000
0000
,
0000
0000
0000
0000
,
0000
0000
0020
0000
,
0000
0000
0030
1001
,
1000
0100
0000
0100
2000
0000
3020
0000
,
0230
0000
0302
0000
0013
0001
0000
0001
,
0020
0230
2300
3002
,
0103
0000
0100
0000
0001
0100
0001
0000
,
0100
0000
0010
0000
1000
0100
1000
0001
,
0100
0001
1000
0000
1001
0000
0001
0100
,
0000
0100
0002
0000
0023
0000
0230
0000
,
2300
0000
3010
1000
0000
1000
0020
0000
,
0230
0000
0302
0000
2003
0000
3100
1000
,
0000
0100
1000
0100
1000
0000
0100
0000
,
0010
0000
0001
0100
0001
1000
0100
1000
,
0001
0000
2002
0000
0000
3003
0000
1000
,
0020
0000
0130
0001
0010
0001
2000
3010
,
0100
0001
0010
0001
0200
0310
1000
1000
,
0000
0001
0020
0000
0100
0130
0000
0010
,
0002
0000
0000
0000
1003
0000
0001
0000
1000
0000
0010
0000
0100
0000
0001
0100
,
0000
0001
0010
0100
2000
3020
0230
0302
,
0003
1000
2001
3100
0010
0001
0010
0100
,
1002
0103
0010
1000
0100
0000
1002
0013
,
0100
1000
0010
0000
2001
3010
0100
0001
,
0010
0000
1001
0000
0000
0000
1000
0100
,
1000
0001
0100
0000
0001
0000
0010
0000
,
0100
0000
0010
0001
1000
0010
1000
0001
,
0010
0000
0100
0000
1000
0000
0010
0100
,
0001
0100
0010
0000
1000
0000
0001
0000
,
0010
0000
0100
1000
0001
0100
0001
1000
,
0001
1000
0020
0000
0000
0130
0000
0100
,
0002
0000
0003
0020
0000
0030
0000
0100
,
1000
0010
0100
0001
0020
0000
0130
0010
,
0001
1000
1001
0000
0000
0000
0101
0000
,
0000
0000
0100
0010
1000
0010
0100
0000
,
0000
0000
0110
0000
0000
0000
0010
1000
,
0001
1000
0100
0000
0010
0000
0110
0000
,
0000
0000
0100
1000
0001
0000
0100
0000
,
0100
0001
0000
1000
0020
0000
0000
0000
,
0030
1001
1000
0100
,
0110
0000
0010
1001
,
0001
0000
0100
0000
0110
0000
0000
0010
,
0000
0000
1000
0100
1000
0001
0100
0001
,
0020
0030
0001
0100
0010
1000
0100
0010
,
0002
0003
0000
0000
1001
0000
1000
0100
,
0000
0100
1000
0000
0010
0000
0100
0000
,
1001
0000
0001
0100
0000
0100
0001
0000
,
0010
0000
0100
0000
0110
0000
0010
0001
,
1000
0100
0010
0001
0200
0000
0000
0000
,
0000
0000
0020
0000
,
0000
0000
0000
0000
,
0330
0000
0000
0000
1001
0000
1000
0100
,
0010
0001
0200
0000
1000
0000
0010
0000
,
0301
0000
0001
0100
0010
1000
0200
0000
,
0001
0010
1300
1100
,
0110
0022
0033
0001
,
1000
0001
0100
0001
1000
0000
0001
1000
,
0100
1000
0001
0000
1001
0000
0001
0010
,
0100
1000
0020
0000
0001
0000
0100
0000
,
1030
0000
1000
0010
0100
0001
0020
0000
,
1000
0100
0031
0011
,
0110
2200
3300
1000
,
0010
0100
0001
1000
0100
0000
0010
0001
,
1000
0001
0010
0000
0110
0000
0100
0000
,
1000
0010
0000
0110
,
0000
0000
0001
0000
0010
0100
1000
0001
,
0100
0110
0010
1000
,
0001
1000
1001
0000
0001
0010
0001
0000
,
1000
0010
0100
0001
0000
0000
0011
0000
,
1000
1010
0001
0110
,
1000
1001
0100
0110
,
0010
0000
0001
1000
1001
0000
0001
0010
,
0100
1000
0010
0000
0100
0000
1001
0000
,
1000
0010
0100
0001
0101
0000
0110
0000
,
1001
0000
0000
0000
0000
0000
1000
0000
0000
0100
0000
0000
1000
0000
0000
0001
0000
0000
0010
0000
0000
0000
0100
0000
,
0000
0010
0000
1001
0000
0000
0000
0000
0000
0000
0000
0000
,
1000
0001
1000
0001
0100
0010
1001
0000
,
0000
0000
0000
0000
,
0000
0000
0000
0000
,
0000
0000
0000
0002
,
0010
0013
0001
0100
0020
0000
1000
1030
,
0001
0010
0200
0000
1000
1300
0001
0100
,
0010
1000
0010
0100
0001
0100
0000
0000
1001
0000
0000
0000
1000
0000
0100
0000
,
0001
0100
2000
0000
0010
0000
0100
0000
,
3001
0000
0001
0100
1000
0100
0002
0000
,
0010
0100
1003
1010
,
0110
0202
0303
1000
,
0001
0010
0100
0010
0001
0000
1000
0010
,
0100
0010
1000
0000
1001
0000
0001
0100
,
1000
0100
0002
0000
0010
0000
0100
0000
,
1003
0000
1000
0100
0001
0100
2000
0000
,
0010
0100
3001
1010
,
0110
0202
0303
1000
,
0001
0010
0100
0010
0001
1000
0010
0100
,
0001
0010
0100
1000
0002
0000
0000
0013
,
0001
0100
0020
0000
1030
0100
1000
0010
,
0100
0000
0001
0000
0000
0000
0001
0100
0001
0000
0100
0000
0010
0000
1000
0000
,
0100
1000
0100
0010
0001
0000
0200
0000
0000
0000
0000
0000
0310
0000
0010
0000
,
0010
2000
0000
0000
3001
0001
0001
0020
,
0000
0100
0000
0000
0100
0000
0000
0000
0130
0000
1000
0000
0001
1000
0000
0001
,
1000
0001
1000
0000
0010
1000
0000
0000
0000
0000
0000
0000
0000
0000
0000
0000
;
